<?xml version="1.0" standalone="no"?>
<!DOCTYPE svg PUBLIC "-//W3C//DTD SVG 1.1//EN" "http://www.w3.org/Graphics/SVG/1.1/DTD/svg11.dtd" >
<svg xmlns="http://www.w3.org/2000/svg" xmlns:xlink="http://www.w3.org/1999/xlink" version="1.1">
<metadata>
Created by FontForge 20170731 at Wed Jan  5 16:17:02 2022
 By Aleksey,,,
Copyright (c) 2016 by Chris Simpson.
</metadata>
<defs>
<font id="Metropolis-Black" horiz-adv-x="1380" >
  <font-face 
    font-family="Metropolis Black"
    font-weight="900"
    font-stretch="normal"
    units-per-em="2048"
    panose-1="0 0 10 0 0 0 0 0 0 0"
    ascent="1628"
    descent="-420"
    x-height="1059"
    cap-height="1407"
    bbox="-496 -616 2505 2021"
    underline-thickness="40"
    underline-position="-312"
    unicode-range="U+0020-2212"
  />
<missing-glyph horiz-adv-x="1024" 
d="M840 1628v-2048h-650v2048h650zM682 1491h-338v-68h133v-75h-135v-68h340v68h-135v75h135v68zM547 1227h-205v-213h340v69h-135v144zM477 1157v-74h-67v74h67zM682 958h-340v-67h135v-76h-135v-67h205v143h135v67zM682 836h-68v-136h-272v-69h340v205zM682 586h-205v-115
h70v47h67v-96h-204v164h-68v-232h340v232zM682 231h-340v-231h340v231zM614 164v-96h-204v96h204zM682 -47h-340v-68h143l-143 -96v-68h340v68h-209l143 96h66v68z" />
    <glyph glyph-name=".notdef" horiz-adv-x="1024" 
d="M840 1628v-2048h-650v2048h650zM682 1491h-338v-68h133v-75h-135v-68h340v68h-135v75h135v68zM547 1227h-205v-213h340v69h-135v144zM477 1157v-74h-67v74h67zM682 958h-340v-67h135v-76h-135v-67h205v143h135v67zM682 836h-68v-136h-272v-69h340v205zM682 586h-205v-115
h70v47h67v-96h-204v164h-68v-232h340v232zM682 231h-340v-231h340v231zM614 164v-96h-204v96h204zM682 -47h-340v-68h143l-143 -96v-68h340v68h-209l143 96h66v68z" />
    <glyph glyph-name=".null" horiz-adv-x="0" 
 />
    <glyph glyph-name="nonmarkingreturn" horiz-adv-x="682" 
 />
    <glyph glyph-name="space" unicode=" " horiz-adv-x="557" 
 />
    <glyph glyph-name="exclam" unicode="!" horiz-adv-x="673" 
d="M209 561l-88 846h440l-86 -846h-266zM342 -25q-102 0 -172 71t-70 171q0 94 70.5 163t171.5 69q94 0 162.5 -69.5t68.5 -162.5q0 -100 -68 -171t-163 -71z" />
    <glyph glyph-name="quotedbl" unicode="&#x22;" horiz-adv-x="1196" 
d="M242 758q-127 351 -127 483q0 83 58 143t138 60t138.5 -60t58.5 -143q0 -132 -127 -483h-139zM815 758q-127 351 -127 483q0 83 58.5 143t138.5 60t138 -60t58 -143q0 -132 -127 -483h-139z" />
    <glyph glyph-name="numbersign" unicode="#" horiz-adv-x="1384" 
d="M1264 827h-170l-64 -252h170l-67 -274h-172l-76 -301h-277l76 301h-188l-76 -301h-277l76 301h-166l68 274h168l63 252h-174l68 275h174l78 305h276l-78 -305h189l78 305h276l-78 -305h170zM754 575l63 252h-188l-64 -252h189z" />
    <glyph glyph-name="dollar" unicode="$" horiz-adv-x="1323" 
d="M1268 446q0 -203 -134.5 -326.5t-367.5 -142.5v-129h-225v136q-315 43 -525 229l222 264q218 -172 464 -172q81 0 123.5 26t42.5 72q0 48 -42 67t-201 56q-74 17 -127 31.5t-113 36t-101.5 44.5t-82 56t-64.5 71.5t-38.5 90t-14.5 113.5q0 188 123 309.5t334 146.5v129
h225v-129q271 -29 463 -184l-199 -280q-196 141 -401 141q-70 0 -107 -25.5t-37 -66.5q0 -53 48.5 -79t201.5 -59q107 -23 182.5 -45.5t146 -57t112.5 -78t67 -105t25 -140.5z" />
    <glyph glyph-name="percent" unicode="%" horiz-adv-x="1769" 
d="M430 692q-162 0 -264.5 104t-102.5 261q0 154 101.5 259t265.5 105q165 0 267 -104.5t102 -259.5q0 -157 -103 -261t-266 -104zM256 0l989 1407h271l-990 -1407h-270zM430 911q53 0 86 38.5t33 107.5q0 66 -33.5 104.5t-85.5 38.5t-84.5 -38t-32.5 -105t33 -106.5
t84 -39.5zM1339 -23q-164 0 -266 105.5t-102 259.5q0 157 103 262t265 105q164 0 265.5 -105.5t101.5 -261.5t-103 -260.5t-264 -104.5zM1339 199q53 0 86 38t33 105t-34 106t-85 39q-54 0 -86 -37.5t-32 -107.5q0 -66 33 -104.5t85 -38.5z" />
    <glyph glyph-name="ampersand" unicode="&#x26;" horiz-adv-x="1402" 
d="M1368 94l-313 -139q-22 24 -66 70t-65 69q-175 -119 -389 -119q-220 0 -357 111t-137 305q0 138 67 226.5t226 160.5q-51 78 -69.5 135.5t-18.5 135.5q0 101 58 187.5t156 137.5t212 51q194 0 317 -105t123 -271q0 -104 -66.5 -178t-238.5 -160q97 -110 149 -168
q70 105 119 219l275 -133q-92 -176 -193 -307zM680 1161q-44 0 -76.5 -33t-32.5 -79q0 -42 17 -74.5t55 -77.5q82 33 112.5 64t30.5 88q0 49 -30 80.5t-76 31.5zM590 264q63 0 135 43q-150 164 -221 248q-72 -56 -72 -135q0 -70 45.5 -113t112.5 -43z" />
    <glyph glyph-name="quotesingle" unicode="'" horiz-adv-x="622" 
d="M242 758q-127 351 -127 483q0 83 58 143t138 60t138.5 -60t58.5 -143q0 -132 -127 -483h-139z" />
    <glyph glyph-name="parenleft" unicode="(" horiz-adv-x="821" 
d="M567 -348q-226 149 -352.5 382t-126.5 509q0 277 126.5 509.5t352.5 381.5l199 -209q-154 -159 -222.5 -318.5t-68.5 -363.5q0 -202 68.5 -361.5t222.5 -318.5z" />
    <glyph glyph-name="parenright" unicode=")" horiz-adv-x="821" 
d="M254 -348l-199 211q154 159 222.5 318.5t68.5 361.5q0 204 -68.5 363.5t-222.5 318.5l199 209q226 -149 352.5 -381.5t126.5 -509.5q0 -276 -126.5 -509t-352.5 -382z" />
    <glyph glyph-name="asterisk" unicode="*" horiz-adv-x="798" 
d="M401 666q-39 0 -67.5 26t-28.5 62q0 37 22.5 117t26.5 104q-22 -17 -78 -76.5t-86 -77.5q-31 -19 -67.5 -7.5t-56.5 46.5t-11.5 72.5t39.5 54.5q31 18 111 37t104 29q-23 9 -103.5 28.5t-111.5 38.5q-31 17 -39.5 54.5t11.5 72.5t56.5 46.5t67.5 -7.5q31 -18 87.5 -79
t76.5 -77q-4 24 -27.5 104.5t-23.5 117.5q0 36 28.5 62t67.5 26q40 0 68.5 -26.5t28.5 -61.5q0 -37 -25 -117t-29 -105q22 17 79 76.5t87 77.5q31 19 68 7.5t57 -46.5t11.5 -72.5t-39.5 -54.5q-31 -18 -112.5 -36.5t-105.5 -28.5q23 -9 105 -29t113 -39q31 -17 39.5 -54.5
t-11.5 -72.5t-57 -46.5t-68 7.5q-31 18 -87.5 79t-76.5 77q4 -25 29 -104.5t25 -116.5q0 -35 -28.5 -61.5t-68.5 -26.5z" />
    <glyph glyph-name="plus" unicode="+" horiz-adv-x="1247" 
d="M1135 836v-306h-347v-358h-327v358h-348v306h348v358h327v-358h347z" />
    <glyph glyph-name="comma" unicode="," horiz-adv-x="638" 
d="M303 -317l-129 98q108 85 137 194q-92 0 -158.5 69.5t-66.5 164.5q0 98 68.5 169t162.5 71q106 0 174 -89t68 -227q0 -112 -67 -230.5t-189 -219.5z" />
    <glyph glyph-name="hyphen" unicode="-" horiz-adv-x="737" 
d="M78 408v323h581v-323h-581z" />
    <glyph glyph-name="period" unicode="." horiz-adv-x="643" 
d="M328 -25q-102 0 -172 71t-70 171q0 94 70.5 163t171.5 69q94 0 162.5 -69.5t68.5 -162.5q0 -100 -68 -171t-163 -71z" />
    <glyph glyph-name="slash" unicode="/" horiz-adv-x="1009" 
d="M-59 -152l696 1674h410l-697 -1674h-409z" />
    <glyph glyph-name="zero" unicode="0" horiz-adv-x="1470" 
d="M735 -25q-144 0 -267.5 54t-210.5 150t-136 232t-49 294q0 210 84 376t235.5 258.5t343.5 92.5t343.5 -92.5t236 -258.5t84.5 -376q0 -211 -84.5 -378t-236 -259.5t-343.5 -92.5zM735 336q112 0 183 103.5t71 265.5q0 161 -71 263.5t-183 102.5t-183 -102.5t-71 -263.5
q0 -162 71 -265.5t183 -103.5z" />
    <glyph glyph-name="one" unicode="1" horiz-adv-x="933" 
d="M403 0v961l-235 -144l-156 275l471 315h318v-1407h-398z" />
    <glyph glyph-name="two" unicode="2" horiz-adv-x="1280" 
d="M82 0v322l522 376q105 76 143.5 130.5t38.5 113.5q0 58 -44.5 93.5t-114.5 35.5q-88 0 -163.5 -40.5t-160.5 -125.5l-246 248q237 279 580 279q248 0 403.5 -134t155.5 -340q0 -144 -71.5 -257.5t-252.5 -229.5l-182 -117h518v-354h-1126z" />
    <glyph glyph-name="three" unicode="3" horiz-adv-x="1267" 
d="M635 -27q-194 0 -346.5 62.5t-255.5 171.5l223 264q75 -71 168.5 -107t187.5 -36q92 0 141.5 30.5t49.5 79.5q0 54 -47 79t-168 24l-170 -2v331h168q190 0 190 99q0 52 -49.5 80t-136.5 28q-158 0 -307 -139l-220 244q218 250 570 250q255 0 402 -109t147 -279
q0 -114 -69 -199t-189 -120q127 -29 207.5 -114t80.5 -210q0 -189 -158 -308.5t-419 -119.5z" />
    <glyph glyph-name="four" unicode="4" horiz-adv-x="1361" 
d="M741 0v250h-678l-32 299l620 856h488v-827h170v-328h-170v-250h-398zM438 578h303v421z" />
    <glyph glyph-name="five" unicode="5" horiz-adv-x="1290" 
d="M623 -27q-349 0 -576 211l225 279q175 -148 351 -148q97 0 150.5 43t53.5 107q0 65 -52.5 103t-145.5 38q-141 0 -246 -82l-260 99l20 784h1002v-354h-639l-6 -201q110 78 258 78q125 0 229.5 -51t170 -155.5t65.5 -244.5q0 -233 -161.5 -369.5t-438.5 -136.5z" />
    <glyph glyph-name="six" unicode="6" horiz-adv-x="1343" 
d="M795 930q132 0 239.5 -53.5t172.5 -158t65 -241.5q0 -150 -76 -265.5t-204 -176t-287 -60.5q-158 0 -281 51t-201.5 144t-119 221.5t-40.5 286.5q0 343 187.5 548.5t511.5 205.5q254 0 452 -142l-180 -299q-129 94 -268 94q-223 0 -277 -243q136 88 306 88zM678 311
q82 0 133 42.5t51 107.5q0 69 -57 110t-137 41q-60 0 -109 -28.5t-78 -79.5q14 -104 58.5 -148.5t138.5 -44.5z" />
    <glyph glyph-name="seven" unicode="7" horiz-adv-x="1241" 
d="M201 0l532 1053h-653v354h1110v-299l-543 -1108h-446z" />
    <glyph glyph-name="eight" unicode="8" horiz-adv-x="1302" 
d="M651 -25q-166 0 -299.5 45.5t-216 139.5t-82.5 223q0 117 66.5 205t185.5 139q-215 101 -215 315q0 123 79.5 213.5t205 133.5t276.5 43q153 0 279.5 -44.5t205 -134t78.5 -209.5q0 -212 -217 -317q122 -54 188 -142.5t66 -201.5q0 -129 -83.5 -223.5t-217 -139.5
t-299.5 -45zM651 860q72 5 122 41t50 86q0 51 -47 85t-125 34q-77 0 -123.5 -34t-46.5 -85q0 -52 49 -87t121 -40zM651 303q89 0 144 35t55 92q0 52 -58.5 87t-140.5 40q-81 -5 -138.5 -40t-57.5 -87q0 -57 53 -92t143 -35z" />
    <glyph glyph-name="nine" unicode="9" horiz-adv-x="1343" 
d="M639 1432q158 0 281 -51t201.5 -144t118.5 -221.5t40 -286.5q0 -343 -187 -548.5t-511 -205.5q-255 0 -453 142l180 299q129 -94 269 -94q222 0 276 243q-136 -88 -305 -88q-132 0 -239.5 53.5t-172.5 158t-65 241.5q0 150 76 265.5t204 176t287 60.5zM676 795
q60 0 108.5 28.5t77.5 79.5q-14 104 -58 148.5t-138 44.5q-82 0 -133.5 -42.5t-51.5 -107.5q0 -69 57 -110t138 -41z" />
    <glyph glyph-name="colon" unicode=":" horiz-adv-x="643" 
d="M328 641q-102 0 -172 71t-70 171q0 94 70.5 162.5t171.5 68.5q95 0 163 -69t68 -162q0 -100 -68 -171t-163 -71zM328 -25q-102 0 -172 71t-70 171q0 94 70.5 163t171.5 69q94 0 162.5 -69.5t68.5 -162.5q0 -100 -68 -171t-163 -71z" />
    <glyph glyph-name="semicolon" unicode=";" horiz-adv-x="638" 
d="M328 641q-102 0 -172 71t-70 171q0 94 70.5 162.5t171.5 68.5q95 0 163 -69t68 -162q0 -100 -68 -171t-163 -71zM303 -317l-129 98q108 85 137 194q-92 0 -158.5 69.5t-66.5 164.5q0 98 68.5 169t162.5 71q106 0 174 -89t68 -227q0 -112 -67 -230.5t-189 -219.5z" />
    <glyph glyph-name="less" unicode="&#x3c;" horiz-adv-x="1222" 
d="M1085 160l-972 387v313l972 387v-307l-677 -238l677 -233v-309z" />
    <glyph glyph-name="equal" unicode="=" horiz-adv-x="1247" 
d="M113 782v305h1022v-305h-1022zM113 303v305h1022v-305h-1022z" />
    <glyph glyph-name="greater" unicode="&#x3e;" horiz-adv-x="1222" 
d="M137 160v309l678 233l-678 238v307l973 -387v-313z" />
    <glyph glyph-name="question" unicode="?" horiz-adv-x="1030" 
d="M326 541v307q117 0 190.5 35t73.5 90q0 46 -44.5 75t-113.5 29q-49 0 -105 -22.5t-94 -57.5l-217 224q96 99 222.5 155t271.5 56q212 0 346.5 -117.5t134.5 -302.5q0 -140 -92 -251.5t-237 -146.5v-73h-336zM494 -25q-102 0 -172 71t-70 171q0 94 70.5 163t171.5 69
q94 0 162.5 -69.5t68.5 -162.5q0 -100 -68 -171t-163 -71z" />
    <glyph glyph-name="at" unicode="@" horiz-adv-x="1800" 
d="M868 -238q-166 0 -311.5 60t-248 163t-161.5 245.5t-59 301.5q0 171 68.5 328t183.5 272t274.5 183.5t333.5 68.5q165 0 309 -57t243 -153t155.5 -223.5t56.5 -266.5q0 -107 -27 -197.5t-71.5 -152t-103 -105.5t-120.5 -64t-124 -20q-200 0 -267 154q-115 -149 -282 -149
q-157 0 -252.5 106t-95.5 276q0 135 62 253t165.5 187.5t220.5 69.5q173 0 262 -133l23 107l319 -25q-21 -111 -44.5 -224.5t-33.5 -162t-17 -94.5t-7 -78q0 -46 26 -72t70 -26q84 0 143.5 93t59.5 257q0 129 -49 242t-136.5 195t-214 129.5t-274.5 47.5q-158 0 -301 -61
t-245 -163.5t-162 -243.5t-60 -295q0 -192 88 -349t248.5 -248.5t361.5 -91.5q227 0 435 125l45 -67q-226 -142 -486 -142zM838 414q72 0 124.5 58.5t59.5 150.5q6 69 -28.5 112t-96.5 43q-88 0 -143.5 -65.5t-55.5 -153.5q0 -68 38.5 -106.5t101.5 -38.5z" />
    <glyph glyph-name="A" unicode="A" horiz-adv-x="1533" 
d="M1083 0l-71 188h-490l-71 -188h-449l541 1407h448l541 -1407h-449zM635 481h264l-131 342z" />
    <glyph glyph-name="B" unicode="B" horiz-adv-x="1456" 
d="M123 0v1407h758q200 0 327 -100t127 -254q0 -104 -51 -188t-143 -128q123 -53 191.5 -147t68.5 -211q0 -168 -138 -273.5t-354 -105.5h-786zM518 860h266q61 0 101.5 30.5t40.5 76.5t-40.5 76t-101.5 30h-266v-213zM518 334h326q65 0 106 31.5t41 80.5q0 50 -41.5 81.5
t-105.5 31.5h-326v-225z" />
    <glyph glyph-name="C" unicode="C" horiz-adv-x="1445" 
d="M836 -25q-204 0 -381 99.5t-281 268t-104 362.5q0 145 61.5 279.5t165 232.5t245 156.5t294.5 58.5q166 0 314.5 -66t256.5 -182l-293 -256q-51 66 -124 104.5t-154 38.5q-145 0 -251 -108.5t-106 -257.5q0 -150 106 -259.5t251 -109.5q82 0 154.5 38t125.5 105l291 -254
q-108 -117 -256.5 -183.5t-314.5 -66.5z" />
    <glyph glyph-name="D" unicode="D" horiz-adv-x="1556" 
d="M123 0v1407h524q243 0 434.5 -89t298.5 -249.5t107 -363.5q0 -152 -62.5 -283.5t-172.5 -224t-266.5 -145t-338.5 -52.5h-524zM520 360h193q160 0 262 97t102 248t-102 246.5t-262 95.5h-193v-687z" />
    <glyph glyph-name="E" unicode="E" horiz-adv-x="1333" 
d="M1255 1053h-735v-158h670v-354h-670v-187h735v-354h-1132v1407h1132v-354z" />
    <glyph glyph-name="F" unicode="F" horiz-adv-x="1333" 
d="M1255 1053h-735v-199h670v-354h-670v-500h-397v1407h1132v-354z" />
    <glyph glyph-name="G" unicode="G" horiz-adv-x="1517" 
d="M768 530v293h659v-598q-109 -118 -262 -184t-319 -66q-155 0 -298.5 59t-248 157.5t-167 233.5t-62.5 280t62.5 279.5t167 232.5t248 156.5t298.5 58.5q166 0 319 -65.5t262 -182.5l-292 -256q-53 68 -128.5 105.5t-160.5 37.5q-149 0 -258 -108.5t-109 -257.5
q0 -151 109 -260t258 -109q105 0 196 57v137h-274z" />
    <glyph glyph-name="H" unicode="H" horiz-adv-x="1554" 
d="M1034 1407h398v-1407h-398v541h-514v-541h-397v1407h397v-512h514v512z" />
    <glyph glyph-name="I" unicode="I" horiz-adv-x="657" 
d="M131 0v1407h397v-1407h-397z" />
    <glyph glyph-name="J" unicode="J" horiz-adv-x="1122" 
d="M504 -25q-143 0 -283 65.5t-215 168.5l256 250q29 -54 82 -88.5t107 -34.5q72 0 118.5 46t46.5 118v907h398v-948q0 -212 -143 -348t-367 -136z" />
    <glyph glyph-name="K" unicode="K" horiz-adv-x="1484" 
d="M123 0v1407h397v-555l473 555h469l-520 -588l561 -819h-475l-362 532l-146 -159v-373h-397z" />
    <glyph glyph-name="L" unicode="L" horiz-adv-x="1222" 
d="M520 354h656v-354h-1053v1407h397v-1053z" />
    <glyph glyph-name="M" unicode="M" horiz-adv-x="1794" 
d="M123 0v1407h397l377 -672l377 672h397v-1407h-397v754l-377 -672l-377 672v-754h-397z" />
    <glyph glyph-name="N" unicode="N" horiz-adv-x="1589" 
d="M123 0v1407h397l549 -754v754h397v-1407h-397l-549 754v-754h-397z" />
    <glyph glyph-name="O" unicode="O" horiz-adv-x="1669" 
d="M836 -25q-204 0 -381 99.5t-281 268t-104 362.5q0 145 61.5 279.5t165 232.5t245 156.5t294.5 58.5t294.5 -58.5t245 -156.5t165 -232.5t61.5 -279.5q0 -194 -104 -362.5t-281 -268t-381 -99.5zM836 336q145 0 250.5 109t105.5 260q0 149 -105.5 257.5t-250.5 108.5
t-251 -108.5t-106 -257.5q0 -150 106 -259.5t251 -109.5z" />
    <glyph glyph-name="P" unicode="P" horiz-adv-x="1372" 
d="M123 0v1407h674q236 0 387 -137.5t151 -354.5q0 -216 -150.5 -353.5t-387.5 -137.5h-277v-424h-397zM520 784h244q70 0 116 37t46 94t-46 94.5t-116 37.5h-244v-263z" />
    <glyph glyph-name="Q" unicode="Q" horiz-adv-x="1669" 
d="M1602 705q0 -208 -121 -388l116 -100l-186 -217l-131 115q-202 -140 -444 -140q-204 0 -381 99.5t-281 268t-104 362.5q0 145 61.5 279.5t165 232.5t245 156.5t294.5 58.5t294.5 -58.5t245 -156.5t165 -232.5t61.5 -279.5zM836 336q77 0 149 35l-125 108l187 217
l127 -110q18 59 18 119q0 149 -105.5 257.5t-250.5 108.5t-251 -108.5t-106 -257.5q0 -150 106 -259.5t251 -109.5z" />
    <glyph glyph-name="R" unicode="R" horiz-adv-x="1427" 
d="M1393 0h-453l-297 424h-123v-424h-397v1407h674q236 0 387 -137.5t151 -354.5q0 -149 -73.5 -263t-204.5 -175zM520 1047v-263h244q70 0 116 37t46 94t-46 94.5t-116 37.5h-244z" />
    <glyph glyph-name="S" unicode="S" horiz-adv-x="1323" 
d="M688 -25q-193 0 -366.5 60.5t-305.5 177.5l222 264q218 -172 464 -172q81 0 123.5 26t42.5 72q0 48 -42 67t-201 56q-74 17 -127 31.5t-113 36t-101.5 44.5t-82 56t-64.5 71.5t-38.5 90t-14.5 113.5q0 210 152 336.5t403 126.5q352 0 590 -191l-199 -280
q-196 141 -401 141q-70 0 -107 -25.5t-37 -66.5q0 -53 48.5 -79t201.5 -59q107 -23 182.5 -45.5t146 -57t112.5 -78t67 -105t25 -140.5q0 -221 -156.5 -346t-423.5 -125z" />
    <glyph glyph-name="T" unicode="T" horiz-adv-x="1320" 
d="M463 0v1053h-416v354h1229v-354h-416v-1053h-397z" />
    <glyph glyph-name="U" unicode="U" horiz-adv-x="1558" 
d="M780 -25q-194 0 -346.5 82.5t-237.5 231t-85 336.5v782h397v-762q0 -135 76 -222t196 -87t196.5 87t76.5 222v762h397v-782q0 -188 -85 -336.5t-238 -231t-347 -82.5z" />
    <glyph glyph-name="V" unicode="V" horiz-adv-x="1533" 
d="M1083 1407h449l-541 -1407h-448l-541 1407h449l317 -823z" />
    <glyph glyph-name="W" unicode="W" horiz-adv-x="2203" 
d="M408 0l-392 1407h428l172 -813l273 813h428l270 -813l172 813h428l-389 -1407h-401l-293 813l-295 -813h-401z" />
    <glyph glyph-name="X" unicode="X" horiz-adv-x="1476" 
d="M1468 1407l-499 -700l499 -707h-464l-269 379l-270 -379h-457l500 700l-500 707h465l268 -379l271 379h456z" />
    <glyph glyph-name="Y" unicode="Y" horiz-adv-x="1452" 
d="M528 0v463l-540 944h454l285 -571l301 571h436l-538 -944v-463h-398z" />
    <glyph glyph-name="Z" unicode="Z" horiz-adv-x="1382" 
d="M84 0l-2 297l668 756h-652v354h1196v-297l-663 -756h674v-354h-1221z" />
    <glyph glyph-name="bracketleft" unicode="[" horiz-adv-x="815" 
d="M131 -328v1739h604v-248h-303v-1243h303v-248h-604z" />
    <glyph glyph-name="backslash" unicode="\" horiz-adv-x="1009" 
d="M659 -152l-696 1674h410l696 -1674h-410z" />
    <glyph glyph-name="bracketright" unicode="]" horiz-adv-x="815" 
d="M80 -328v248h303v1243h-303v248h604v-1739h-604z" />
    <glyph glyph-name="asciicircum" unicode="^" horiz-adv-x="995" 
d="M74 846l293 561h264l291 -561h-267l-159 328l-158 -328h-264z" />
    <glyph glyph-name="underscore" unicode="_" horiz-adv-x="1212" 
d="M-4 -326v201h1221v-201h-1221z" />
    <glyph glyph-name="grave" unicode="`" horiz-adv-x="827" 
d="M440 1176l-311 278l340 57l229 -335h-258z" />
    <glyph glyph-name="a" unicode="a" horiz-adv-x="1202" 
d="M616 1083q135 0 245.5 -53t177.5 -159t67 -246v-625h-379v76q-110 -101 -272 -101q-173 0 -290.5 95.5t-117.5 242.5q0 154 131.5 253.5t325.5 99.5q105 0 223 -48v7q0 76 -61 121t-156 45q-70 0 -126 -17t-130 -55l-121 239q248 125 483 125zM551 209q71 0 120.5 29
t55.5 75v101q-66 32 -168 32q-60 0 -98.5 -34t-38.5 -88q0 -51 36 -83t93 -32z" />
    <glyph glyph-name="b" unicode="b" 
d="M838 1083q214 0 349.5 -155t135.5 -398q0 -245 -135.5 -400t-349.5 -155q-204 0 -338 150v-125h-396v1432h396v-498q133 149 338 149zM713 303q103 0 168 63.5t65 163.5q0 99 -65.5 162.5t-167.5 63.5q-93 0 -153 -63.5t-60 -162.5q0 -100 59.5 -163.5t153.5 -63.5z" />
    <glyph glyph-name="c" unicode="c" horiz-adv-x="1130" 
d="M649 -25q-118 0 -228 44.5t-190 119.5t-128 177.5t-48 213.5q0 148 81.5 275.5t220 202.5t298.5 75q137 0 249.5 -52t191.5 -144l-260 -213q-31 36 -83 59t-102 23q-89 0 -154 -66.5t-65 -157.5q0 -94 65 -161.5t156 -67.5q51 0 104 23.5t85 60.5l260 -209
q-175 -203 -453 -203z" />
    <glyph glyph-name="d" unicode="d" 
d="M881 1432h395v-1432h-395v125q-134 -150 -338 -150q-214 0 -350 155.5t-136 399.5q0 243 136 398t350 155q205 0 338 -149v498zM668 303q94 0 153.5 63.5t59.5 163.5q0 99 -60 162.5t-153 63.5q-103 0 -168.5 -64t-65.5 -162q0 -100 65.5 -163.5t168.5 -63.5z" />
    <glyph glyph-name="e" unicode="e" horiz-adv-x="1208" 
d="M614 270q124 0 236 88l217 -219q-71 -72 -193 -118t-243 -46q-253 0 -414.5 156t-161.5 401q0 243 156.5 397t402.5 154q255 0 398 -170.5t143 -476.5h-749q24 -76 79 -121t129 -45zM614 788q-69 0 -122 -39t-80 -106h385q-22 67 -70.5 106t-112.5 39z" />
    <glyph glyph-name="f" unicode="f" horiz-adv-x="815" 
d="M637 1167q-40 0 -65 -30.5t-25 -77.5h209v-311h-209v-748h-377v748h-133v311h133v57q0 158 100 258.5t258 100.5q70 0 146.5 -30.5t126.5 -78.5l-68 -229q-33 30 -96 30z" />
    <glyph glyph-name="g" unicode="g" horiz-adv-x="1345" 
d="M844 1059h397v-946q0 -204 -169 -334.5t-433 -130.5q-144 0 -275.5 39t-218.5 102l129 272q46 -38 129.5 -62t171.5 -24q118 0 193.5 45t75.5 113v84q-63 -66 -149.5 -102.5t-178.5 -36.5q-194 0 -326.5 142.5t-132.5 361.5q0 108 36 202t97.5 159.5t146 102.5t179.5 37
t186.5 -39.5t141.5 -101.5v117zM653 406q83 0 137 49.5t54 126.5q0 76 -54 125t-137 49t-136.5 -49t-53.5 -125q0 -77 53.5 -126.5t136.5 -49.5z" />
    <glyph glyph-name="h" unicode="h" horiz-adv-x="1286" 
d="M799 1083q170 0 279.5 -114.5t109.5 -294.5v-674h-377v582q0 77 -45 125.5t-115 48.5q-66 0 -108.5 -45.5t-42.5 -116.5v-594h-396v1432h396v-480q50 62 127.5 96.5t171.5 34.5z" />
    <glyph glyph-name="i" unicode="i" horiz-adv-x="622" 
d="M313 1171q-85 0 -144.5 60.5t-59.5 144.5q0 81 59.5 141t144.5 60q82 0 141.5 -60.5t59.5 -140.5q0 -84 -59 -144.5t-142 -60.5zM113 0v1059h395v-1059h-395z" />
    <glyph glyph-name="j" unicode="j" horiz-adv-x="622" 
d="M313 1171q-85 0 -144.5 60.5t-59.5 144.5q0 81 59.5 141t144.5 60q82 0 141.5 -60.5t59.5 -140.5q0 -84 -59 -144.5t-142 -60.5zM131 -365q-63 0 -131 14t-111 36l37 284q40 -16 97 -16q40 0 65 30.5t25 77.5v998h395v-1047q0 -166 -105.5 -271.5t-271.5 -105.5z" />
    <glyph glyph-name="k" unicode="k" horiz-adv-x="1208" 
d="M844 602l379 -602h-443l-194 350l-86 -106v-244h-396v1432h396v-746l272 373h442z" />
    <glyph glyph-name="l" unicode="l" horiz-adv-x="620" 
d="M113 0v1432h395v-1432h-395z" />
    <glyph glyph-name="m" unicode="m" horiz-adv-x="1949" 
d="M1450 1083q168 0 284.5 -116t116.5 -293v-676h-376v604q0 68 -42 111t-108 43t-107.5 -40t-41.5 -102v-616h-377v604q0 68 -42 111t-108 43t-107.5 -40t-41.5 -102v-614h-396v1059h396v-129q39 72 110.5 112.5t163.5 40.5q103 0 190.5 -46t141.5 -128q46 80 137 127
t207 47z" />
    <glyph glyph-name="n" unicode="n" horiz-adv-x="1286" 
d="M799 1083q170 0 279.5 -114.5t109.5 -294.5v-674h-377v582q0 77 -45 125.5t-115 48.5q-66 0 -108.5 -45.5t-42.5 -116.5v-594h-396v1059h396v-107q50 62 127.5 96.5t171.5 34.5z" />
    <glyph glyph-name="o" unicode="o" horiz-adv-x="1302" 
d="M653 -25q-160 0 -298 75.5t-219 203.5t-81 276t81 275.5t219 202.5t298 75q159 0 296.5 -75t218.5 -202.5t81 -275.5t-81 -276t-218.5 -203.5t-296.5 -75.5zM653 303q92 0 160 67.5t68 159.5t-68 159t-160 67q-94 0 -161.5 -67t-67.5 -159t67.5 -159.5t161.5 -67.5z" />
    <glyph glyph-name="p" unicode="p" 
d="M838 1083q214 0 349.5 -155t135.5 -398q0 -245 -135.5 -400t-349.5 -155q-204 0 -338 150v-477h-396v1411h396v-125q133 149 338 149zM713 303q103 0 168 63.5t65 163.5q0 99 -65.5 162.5t-167.5 63.5q-93 0 -153 -63.5t-60 -162.5q0 -100 59.5 -163.5t153.5 -63.5z" />
    <glyph glyph-name="q" unicode="q" 
d="M881 1059h395v-1411h-395v477q-134 -150 -338 -150q-214 0 -350 155.5t-136 399.5q0 243 136 398t350 155q205 0 338 -149v125zM668 303q94 0 153.5 63.5t59.5 163.5q0 99 -60 162.5t-153 63.5q-103 0 -168.5 -64t-65.5 -162q0 -100 65.5 -163.5t168.5 -63.5z" />
    <glyph glyph-name="r" unicode="r" horiz-adv-x="862" 
d="M500 870q53 100 139 156.5t192 56.5v-327q-157 0 -244 -81t-87 -226v-449h-396v1059h396v-189z" />
    <glyph glyph-name="s" unicode="s" horiz-adv-x="1036" 
d="M526 -25q-138 0 -272 42.5t-231 117.5l147 240q77 -54 180 -89.5t187 -35.5q54 0 77 13t23 40q0 26 -40 44t-120 34q-54 12 -84 19t-80 22t-78.5 30.5t-64 41.5t-54.5 56t-32.5 73.5t-13.5 95.5q0 158 120 261t322 103q232 0 442 -139l-133 -242q-174 113 -309 113
q-40 0 -66 -17.5t-26 -41.5q0 -21 24.5 -31.5t92.5 -26.5q23 -5 36 -8q49 -11 84 -20t81.5 -25.5t79 -34t66.5 -45t55 -59.5t34.5 -76t13.5 -96q0 -165 -123.5 -262t-337.5 -97z" />
    <glyph glyph-name="t" unicode="t" horiz-adv-x="851" 
d="M733 334l68 -250q-50 -48 -126.5 -78.5t-146.5 -30.5q-158 0 -258 100.5t-100 258.5v414h-133v311h133v291h377v-291h209v-311h-209v-336q0 -47 25 -78t65 -31q62 0 96 31z" />
    <glyph glyph-name="u" unicode="u" horiz-adv-x="1286" 
d="M786 1059h396v-1059h-396v106q-50 -62 -127.5 -96.5t-171.5 -34.5q-170 0 -279.5 115t-109.5 295v674h377v-582q0 -77 45 -125.5t115 -48.5q66 0 108.5 45.5t42.5 116.5v594z" />
    <glyph glyph-name="v" unicode="v" horiz-adv-x="1300" 
d="M471 0l-463 1059h406l239 -606l234 606h405l-456 -1059h-365z" />
    <glyph glyph-name="w" unicode="w" horiz-adv-x="1734" 
d="M379 0l-365 1059h379l158 -529l156 529h323l158 -529l155 529h379l-360 -1059h-350l-144 545l-139 -545h-350z" />
    <glyph glyph-name="x" unicode="x" horiz-adv-x="1179" 
d="M1174 0h-418l-170 246l-172 -246h-408l377 541l-358 518h417l152 -219l151 219h408l-356 -512z" />
    <glyph glyph-name="y" unicode="y" horiz-adv-x="1243" 
d="M412 -369q-80 0 -173 24t-157 62l80 254q99 -59 149 -59q36 0 67 9.5t40 23.5l20 41l-428 1073h404l217 -653l205 653h397l-399 -1067q-65 -170 -176 -265.5t-246 -95.5z" />
    <glyph glyph-name="z" unicode="z" horiz-adv-x="1114" 
d="M68 0v272l469 459h-455v328h967l-2 -273l-469 -458h475v-328h-985z" />
    <glyph glyph-name="braceleft" unicode="{" horiz-adv-x="849" 
d="M762 -340q-278 19 -399 110t-121 277l4 219q0 88 -46 127t-147 39v225q104 0 148.5 39t44.5 127l-4 217q0 187 121.5 277.5t398.5 109.5l31 -231q-155 -19 -202.5 -54t-47.5 -132l2 -236q0 -177 -162 -229q162 -52 162 -232l-2 -233q0 -98 48.5 -134t201.5 -55z" />
    <glyph glyph-name="bar" unicode="|" horiz-adv-x="641" 
d="M188 -152v1674h265v-1674h-265z" />
    <glyph glyph-name="braceright" unicode="}" horiz-adv-x="849" 
d="M88 -340l-31 231q153 19 201.5 55t48.5 134l-2 233q0 180 162 232q-162 52 -162 229l2 236q0 97 -47.5 132t-202.5 54l31 231q277 -19 398.5 -109.5t121.5 -277.5l-4 -217q0 -88 44.5 -127t148.5 -39v-225q-101 0 -147 -39t-46 -127l4 -219q0 -186 -121 -277t-399 -110z
" />
    <glyph glyph-name="asciitilde" unicode="~" horiz-adv-x="935" 
d="M610 594q-49 0 -105 21t-101 42t-66 21q-59 0 -76 -86l-184 26q17 148 77 218.5t171 70.5q48 0 104.5 -21t102 -42t65.5 -21q58 0 76 86l184 -26q-15 -147 -75.5 -218t-172.5 -71z" />
    <glyph glyph-name="exclamdown" unicode="&#xa1;" horiz-adv-x="673" 
d="M332 1083q102 0 171.5 -70.5t69.5 -170.5q0 -94 -70 -163t-171 -69q-95 0 -163.5 69.5t-68.5 162.5q0 100 68.5 170.5t163.5 70.5zM465 498l88 -846h-440l86 846h266z" />
    <glyph glyph-name="cent" unicode="&#xa2;" horiz-adv-x="1130" 
d="M1102 178q-141 -163 -359 -196v-134h-225v142q-198 43 -330.5 195.5t-132.5 344.5q0 191 132 342.5t331 196.5v137h225v-129q215 -29 353 -190l-260 -213q-31 36 -83 59t-102 23q-89 0 -154 -66.5t-65 -157.5q0 -94 65 -161.5t156 -67.5q51 0 104 23.5t85 60.5z" />
    <glyph glyph-name="sterling" unicode="&#xa3;" horiz-adv-x="1386" 
d="M684 293h655v-293h-1257v156l205 137v219h-152v178h152v258q0 212 143 348t367 136q143 0 282.5 -65.5t214.5 -168.5l-256 -250q-29 54 -81.5 88.5t-106.5 34.5q-72 0 -119 -46t-47 -118v-217h281v-178h-281v-219z" />
    <glyph glyph-name="yen" unicode="&#xa5;" horiz-adv-x="1452" 
d="M1464 1407l-432 -758h203v-178h-305l-4 -8v-101h309v-178h-309v-184h-398v184h-309v178h309v101l-4 8h-305v178h203l-434 758h454l285 -571l301 571h436z" />
    <glyph glyph-name="dieresis" unicode="&#xa8;" horiz-adv-x="1073" 
d="M307 1178q-76 0 -127 52t-51 126q0 72 51.5 124t126.5 52q72 0 124 -52.5t52 -123.5q0 -73 -52 -125.5t-124 -52.5zM768 1178q-75 0 -126.5 52t-51.5 126q0 71 52 123.5t126 52.5q73 0 124.5 -52.5t51.5 -123.5q0 -74 -51.5 -126t-124.5 -52z" />
    <glyph glyph-name="macron" unicode="&#xaf;" horiz-adv-x="1013" 
d="M129 1174v217h756v-217h-756z" />
    <glyph glyph-name="acute" unicode="&#xb4;" horiz-adv-x="827" 
d="M129 1176l229 335l340 -57l-311 -278h-258z" />
    <glyph glyph-name="cedilla" unicode="&#xb8;" horiz-adv-x="696" 
d="M418 -86q67 -3 108 -42.5t41 -98.5q0 -85 -65 -134t-170 -49q-57 0 -111.5 17.5t-91.5 44.5l64 139q57 -47 118 -47q31 0 52.5 13.5t21.5 37.5q0 45 -57 45q-30 0 -56 -16l-53 49l64 150h182z" />
    <glyph glyph-name="questiondown" unicode="&#xbf;" horiz-adv-x="1030" 
d="M537 1083q102 0 171.5 -70.5t69.5 -170.5q0 -94 -70 -163t-171 -69q-95 0 -163.5 69.5t-68.5 162.5q0 100 68.5 170.5t163.5 70.5zM705 518v-307q-117 0 -191 -35t-74 -90q0 -46 44.5 -75t113.5 -29q50 0 105.5 22t93.5 57l217 -223q-96 -99 -222.5 -155t-271.5 -56
q-212 0 -346.5 117.5t-134.5 302.5q0 139 92.5 250.5t237.5 146.5v74h336z" />
    <glyph glyph-name="Agrave" unicode="&#xc0;" horiz-adv-x="1533" 
d="M907 1524h-258l-311 278l340 58zM1083 0l-71 188h-490l-71 -188h-449l541 1407h448l541 -1407h-449zM635 481h264l-131 342z" />
    <glyph glyph-name="Aacute" unicode="&#xc1;" horiz-adv-x="1533" 
d="M1202 1802l-311 -278h-258l229 336zM1083 0l-71 188h-490l-71 -188h-449l541 1407h448l541 -1407h-449zM635 481h264l-131 342z" />
    <glyph glyph-name="Acircumflex" unicode="&#xc2;" horiz-adv-x="1533" 
d="M768 1661l-150 -137h-229l221 315h318l223 -315h-231zM1083 0l-71 188h-490l-71 -188h-449l541 1407h448l541 -1407h-449zM635 481h264l-131 342z" />
    <glyph glyph-name="Atilde" unicode="&#xc3;" horiz-adv-x="1533" 
d="M637 1602q-59 0 -76 -86l-184 26q17 148 77 218.5t171 70.5q48 0 104.5 -21t102 -42t65.5 -21q58 0 76 86l184 -27q-15 -147 -75.5 -217.5t-172.5 -70.5q-49 0 -105 21t-101 42t-66 21zM1083 0l-71 188h-490l-71 -188h-449l541 1407h448l541 -1407h-449zM635 481h264
l-131 342z" />
    <glyph glyph-name="Adieresis" unicode="&#xc4;" horiz-adv-x="1533" 
d="M539 1526q-76 0 -127.5 52t-51.5 126q0 72 52 124t127 52q72 0 124 -52.5t52 -123.5q0 -73 -52 -125.5t-124 -52.5zM999 1526q-75 0 -126.5 52t-51.5 126q0 71 52 123.5t126 52.5q73 0 125 -52.5t52 -123.5q0 -74 -52 -126t-125 -52zM1083 0l-71 188h-490l-71 -188h-449
l541 1407h448l541 -1407h-449zM635 481h264l-131 342z" />
    <glyph glyph-name="Aring" unicode="&#xc5;" horiz-adv-x="1533" 
d="M768 1526q-102 0 -175 73t-73 175t73 174.5t175 72.5q103 0 175.5 -72t72.5 -175t-72.5 -175.5t-175.5 -72.5zM768 1874q-41 0 -70.5 -29.5t-29.5 -70.5t29.5 -71t70.5 -30t70.5 30t29.5 71t-29.5 70.5t-70.5 29.5zM1083 0l-71 188h-490l-71 -188h-449l541 1407h448
l541 -1407h-449zM635 481h264l-131 342z" />
    <glyph glyph-name="AE" unicode="&#xc6;" horiz-adv-x="2279" 
d="M2202 1053h-736v-158h670v-354h-670v-187h736v-354h-1133v188h-500l-108 -188h-459l813 1407h1387v-354zM739 481h330v572z" />
    <glyph glyph-name="Ccedilla" unicode="&#xc7;" horiz-adv-x="1445" 
d="M836 336q82 0 154.5 38t125.5 105l291 -254q-97 -105 -227 -170t-277 -78l-29 -63q67 -3 108.5 -42.5t41.5 -98.5q0 -85 -65.5 -134t-170.5 -49q-57 0 -111 17.5t-91 44.5l63 139q57 -47 119 -47q31 0 52.5 13.5t21.5 37.5q0 21 -15.5 33t-42.5 12q-29 0 -55 -16l-53 49
l47 111q-135 20 -255.5 85t-208 160.5t-138.5 219.5t-51 256q0 145 61.5 279.5t165 232.5t245 156.5t294.5 58.5q166 0 314.5 -66t256.5 -182l-293 -256q-51 66 -124 104.5t-154 38.5q-145 0 -251 -108.5t-106 -257.5q0 -150 106 -259.5t251 -109.5z" />
    <glyph glyph-name="Egrave" unicode="&#xc8;" horiz-adv-x="1333" 
d="M913 1524h-258l-311 278l340 58zM1255 1053h-735v-158h670v-354h-670v-187h735v-354h-1132v1407h1132v-354z" />
    <glyph glyph-name="Eacute" unicode="&#xc9;" horiz-adv-x="1333" 
d="M1016 1802l-311 -278h-259l230 336zM1255 1053h-735v-158h670v-354h-670v-187h735v-354h-1132v1407h1132v-354z" />
    <glyph glyph-name="Ecircumflex" unicode="&#xca;" horiz-adv-x="1333" 
d="M690 1661l-149 -137h-230l221 315h318l223 -315h-231zM1255 1053h-735v-158h670v-354h-670v-187h735v-354h-1132v1407h1132v-354z" />
    <glyph glyph-name="Edieresis" unicode="&#xcb;" horiz-adv-x="1333" 
d="M461 1526q-76 0 -127 52t-51 126q0 72 51.5 124t126.5 52q72 0 124 -52.5t52 -123.5q0 -73 -52 -125.5t-124 -52.5zM922 1526q-75 0 -127 52t-52 126q0 71 52.5 123.5t126.5 52.5q73 0 124.5 -52.5t51.5 -123.5q0 -74 -51.5 -126t-124.5 -52zM1255 1053h-735v-158h670
v-354h-670v-187h735v-354h-1132v1407h1132v-354z" />
    <glyph glyph-name="Igrave" unicode="&#xcc;" horiz-adv-x="657" 
d="M201 1524l-312 278l340 58l230 -336h-258zM131 0v1407h397v-1407h-397z" />
    <glyph glyph-name="Iacute" unicode="&#xcd;" horiz-adv-x="657" 
d="M197 1524l229 336l340 -58l-311 -278h-258zM131 0v1407h397v-1407h-397z" />
    <glyph glyph-name="Icircumflex" unicode="&#xce;" horiz-adv-x="657" 
d="M-49 1524l221 315h317l224 -315h-232l-151 137l-150 -137h-229zM131 0v1407h397v-1407h-397z" />
    <glyph glyph-name="Idieresis" unicode="&#xcf;" horiz-adv-x="657" 
d="M100 1526q-76 0 -127 52t-51 126q0 72 51.5 124t126.5 52q72 0 124 -52.5t52 -123.5q0 -73 -52 -125.5t-124 -52.5zM561 1526q-75 0 -126.5 52t-51.5 126q0 71 52 123.5t126 52.5q73 0 124.5 -52.5t51.5 -123.5q0 -74 -51.5 -126t-124.5 -52zM131 0v1407h397v-1407h-397z
" />
    <glyph glyph-name="Eth" unicode="&#xd0;" horiz-adv-x="1675" 
d="M766 1407q243 0 434.5 -89t298.5 -249.5t107 -363.5q0 -152 -62.5 -283.5t-172.5 -224t-266.5 -145t-338.5 -52.5h-524v528h-160v355h160v524h524zM831 360q160 0 262.5 97t102.5 248q0 150 -102.5 246t-262.5 96h-192v-164h260l-2 -355h-258v-168h192z" />
    <glyph glyph-name="Ntilde" unicode="&#xd1;" horiz-adv-x="1589" 
d="M936 1518q-49 0 -105 21t-101 42t-66 21q-59 0 -76 -86l-185 26q17 148 77 218.5t171 70.5q48 0 104.5 -21t102.5 -42t66 -21q57 0 75 86l185 -27q-15 -147 -75.5 -217.5t-172.5 -70.5zM123 0v1407h397l549 -754v754h397v-1407h-397l-549 754v-754h-397z" />
    <glyph glyph-name="Ograve" unicode="&#xd2;" horiz-adv-x="1669" 
d="M709 1524l-312 278l340 58l230 -336h-258zM836 -25q-204 0 -381 99.5t-281 268t-104 362.5q0 145 61.5 279.5t165 232.5t245 156.5t294.5 58.5t294.5 -58.5t245 -156.5t165 -232.5t61.5 -279.5q0 -194 -104 -362.5t-281 -268t-381 -99.5zM836 336q145 0 250.5 109
t105.5 260q0 149 -105.5 257.5t-250.5 108.5t-251 -108.5t-106 -257.5q0 -150 106 -259.5t251 -109.5z" />
    <glyph glyph-name="Oacute" unicode="&#xd3;" horiz-adv-x="1669" 
d="M696 1524l230 336l340 -58l-312 -278h-258zM836 -25q-204 0 -381 99.5t-281 268t-104 362.5q0 145 61.5 279.5t165 232.5t245 156.5t294.5 58.5t294.5 -58.5t245 -156.5t165 -232.5t61.5 -279.5q0 -194 -104 -362.5t-281 -268t-381 -99.5zM836 336q145 0 250.5 109
t105.5 260q0 149 -105.5 257.5t-250.5 108.5t-251 -108.5t-106 -257.5q0 -150 106 -259.5t251 -109.5z" />
    <glyph glyph-name="Ocircumflex" unicode="&#xd4;" horiz-adv-x="1669" 
d="M457 1524l221 315h317l224 -315h-232l-151 137l-150 -137h-229zM836 -25q-204 0 -381 99.5t-281 268t-104 362.5q0 145 61.5 279.5t165 232.5t245 156.5t294.5 58.5t294.5 -58.5t245 -156.5t165 -232.5t61.5 -279.5q0 -194 -104 -362.5t-281 -268t-381 -99.5zM836 336
q145 0 250.5 109t105.5 260q0 149 -105.5 257.5t-250.5 108.5t-251 -108.5t-106 -257.5q0 -150 106 -259.5t251 -109.5z" />
    <glyph glyph-name="Otilde" unicode="&#xd5;" horiz-adv-x="1669" 
d="M977 1518q-49 0 -105 21t-101 42t-66 21q-59 0 -76 -86l-185 26q17 148 77 218.5t171 70.5q48 0 104.5 -21t102.5 -42t66 -21q57 0 75 86l185 -27q-15 -147 -75.5 -217.5t-172.5 -70.5zM836 -25q-204 0 -381 99.5t-281 268t-104 362.5q0 145 61.5 279.5t165 232.5
t245 156.5t294.5 58.5t294.5 -58.5t245 -156.5t165 -232.5t61.5 -279.5q0 -194 -104 -362.5t-281 -268t-381 -99.5zM836 336q145 0 250.5 109t105.5 260q0 149 -105.5 257.5t-250.5 108.5t-251 -108.5t-106 -257.5q0 -150 106 -259.5t251 -109.5z" />
    <glyph glyph-name="Odieresis" unicode="&#xd6;" horiz-adv-x="1669" 
d="M606 1526q-76 0 -127 52t-51 126q0 72 51.5 124t126.5 52q72 0 124 -52.5t52 -123.5q0 -73 -52 -125.5t-124 -52.5zM1067 1526q-75 0 -126.5 52t-51.5 126q0 71 52 123.5t126 52.5q73 0 124.5 -52.5t51.5 -123.5q0 -74 -51.5 -126t-124.5 -52zM836 -25q-204 0 -381 99.5
t-281 268t-104 362.5q0 145 61.5 279.5t165 232.5t245 156.5t294.5 58.5t294.5 -58.5t245 -156.5t165 -232.5t61.5 -279.5q0 -194 -104 -362.5t-281 -268t-381 -99.5zM836 336q145 0 250.5 109t105.5 260q0 149 -105.5 257.5t-250.5 108.5t-251 -108.5t-106 -257.5
q0 -150 106 -259.5t251 -109.5z" />
    <glyph glyph-name="multiply" unicode="&#xd7;" horiz-adv-x="1175" 
d="M1065 438l-231 -231l-252 254l-248 -248l-217 217l248 248l-254 252l231 231l254 -252l244 244l217 -217l-244 -244z" />
    <glyph glyph-name="Oslash" unicode="&#xd8;" horiz-adv-x="1669" 
d="M1403 1188q94 -99 146.5 -223.5t52.5 -259.5q0 -194 -104 -362.5t-281 -268t-381 -99.5q-191 0 -365 91l-55 -66h-328l182 219q-95 98 -147.5 224t-52.5 262q0 145 61.5 279.5t165 232.5t245 156.5t294.5 58.5q190 0 364 -91l55 66h328zM479 705q0 -97 45 -179l434 523
q-61 22 -122 22q-145 0 -251 -108.5t-106 -257.5zM836 336q145 0 250.5 109t105.5 260q0 94 -45 176l-434 -523q61 -22 123 -22z" />
    <glyph glyph-name="Ugrave" unicode="&#xd9;" horiz-adv-x="1558" 
d="M745 1524l-311 278l340 58l230 -336h-259zM780 -25q-194 0 -346.5 82.5t-237.5 231t-85 336.5v782h397v-762q0 -135 76 -222t196 -87t196.5 87t76.5 222v762h397v-782q0 -188 -85 -336.5t-238 -231t-347 -82.5z" />
    <glyph glyph-name="Uacute" unicode="&#xda;" horiz-adv-x="1558" 
d="M537 1524l229 336l340 -58l-311 -278h-258zM780 -25q-194 0 -346.5 82.5t-237.5 231t-85 336.5v782h397v-762q0 -135 76 -222t196 -87t196.5 87t76.5 222v762h397v-782q0 -188 -85 -336.5t-238 -231t-347 -82.5z" />
    <glyph glyph-name="Ucircumflex" unicode="&#xdb;" horiz-adv-x="1558" 
d="M401 1524l222 315h317l223 -315h-231l-152 137l-149 -137h-230zM780 -25q-194 0 -346.5 82.5t-237.5 231t-85 336.5v782h397v-762q0 -135 76 -222t196 -87t196.5 87t76.5 222v762h397v-782q0 -188 -85 -336.5t-238 -231t-347 -82.5z" />
    <glyph glyph-name="Udieresis" unicode="&#xdc;" horiz-adv-x="1558" 
d="M551 1526q-76 0 -127 52t-51 126q0 72 51.5 124t126.5 52q72 0 124 -52.5t52 -123.5q0 -73 -52 -125.5t-124 -52.5zM1012 1526q-75 0 -126.5 52t-51.5 126q0 71 52 123.5t126 52.5q73 0 124.5 -52.5t51.5 -123.5q0 -74 -51.5 -126t-124.5 -52zM780 -25
q-194 0 -346.5 82.5t-237.5 231t-85 336.5v782h397v-762q0 -135 76 -222t196 -87t196.5 87t76.5 222v762h397v-782q0 -188 -85 -336.5t-238 -231t-347 -82.5z" />
    <glyph glyph-name="Yacute" unicode="&#xdd;" horiz-adv-x="1452" 
d="M483 1524l230 336l340 -58l-312 -278h-258zM528 0v463l-540 944h454l285 -571l301 571h436l-538 -944v-463h-398z" />
    <glyph glyph-name="Thorn" unicode="&#xde;" horiz-adv-x="1372" 
d="M123 0v1407h387v-209h287q237 0 387.5 -137.5t150.5 -353.5q0 -217 -151 -354.5t-387 -137.5h-277v-215h-397zM520 575h244q70 0 116 37.5t46 94.5t-46 94t-116 37h-244v-263z" />
    <glyph glyph-name="germandbls" unicode="&#xdf;" horiz-adv-x="1306" 
d="M104 0v1053q0 189 153 309.5t392 120.5t392 -120.5t153 -309.5q0 -103 -51.5 -187.5t-143.5 -128.5q123 -53 192 -147t69 -211q0 -168 -138 -273.5t-354 -105.5h-127v334h61q65 0 106.5 31.5t41.5 80.5t-41.5 81t-106.5 32h-61v301h2q61 0 101 30.5t40 76.5
q0 47 -38 76.5t-103 29.5q-63 0 -103 -33t-40 -92v-948h-396z" />
    <glyph glyph-name="agrave" unicode="&#xe0;" horiz-adv-x="1202" 
d="M848 1176h-258l-311 278l339 57zM616 1083q135 0 245.5 -53t177.5 -159t67 -246v-625h-379v76q-110 -101 -272 -101q-173 0 -290.5 95.5t-117.5 242.5q0 154 131.5 253.5t325.5 99.5q105 0 223 -48v7q0 76 -61 121t-156 45q-70 0 -126 -17t-130 -55l-121 239
q248 125 483 125zM551 209q71 0 120.5 29t55.5 75v101q-66 32 -168 32q-60 0 -98.5 -34t-38.5 -88q0 -51 36 -83t93 -32z" />
    <glyph glyph-name="aacute" unicode="&#xe1;" horiz-adv-x="1202" 
d="M950 1454l-311 -278h-258l229 335zM616 1083q135 0 245.5 -53t177.5 -159t67 -246v-625h-379v76q-110 -101 -272 -101q-173 0 -290.5 95.5t-117.5 242.5q0 154 131.5 253.5t325.5 99.5q105 0 223 -48v7q0 76 -61 121t-156 45q-70 0 -126 -17t-130 -55l-121 239
q248 125 483 125zM551 209q71 0 120.5 29t55.5 75v101q-66 32 -168 32q-60 0 -98.5 -34t-38.5 -88q0 -51 36 -83t93 -32z" />
    <glyph glyph-name="acircumflex" unicode="&#xe2;" horiz-adv-x="1202" 
d="M625 1313l-150 -137h-229l221 315h317l224 -315h-232zM616 1083q135 0 245.5 -53t177.5 -159t67 -246v-625h-379v76q-110 -101 -272 -101q-173 0 -290.5 95.5t-117.5 242.5q0 154 131.5 253.5t325.5 99.5q105 0 223 -48v7q0 76 -61 121t-156 45q-70 0 -126 -17t-130 -55
l-121 239q248 125 483 125zM551 209q71 0 120.5 29t55.5 75v101q-66 32 -168 32q-60 0 -98.5 -34t-38.5 -88q0 -51 36 -83t93 -32z" />
    <glyph glyph-name="atilde" unicode="&#xe3;" horiz-adv-x="1202" 
d="M494 1253q-59 0 -76 -86l-185 27q17 148 77 218.5t171 70.5q48 0 104.5 -21t102.5 -42t66 -21q57 0 75 86l185 -27q-15 -147 -75.5 -218t-172.5 -71q-49 0 -105 21t-101 42t-66 21zM616 1083q135 0 245.5 -53t177.5 -159t67 -246v-625h-379v76q-110 -101 -272 -101
q-173 0 -290.5 95.5t-117.5 242.5q0 154 131.5 253.5t325.5 99.5q105 0 223 -48v7q0 76 -61 121t-156 45q-70 0 -126 -17t-130 -55l-121 239q248 125 483 125zM551 209q71 0 120.5 29t55.5 75v101q-66 32 -168 32q-60 0 -98.5 -34t-38.5 -88q0 -51 36 -83t93 -32z" />
    <glyph glyph-name="adieresis" unicode="&#xe4;" horiz-adv-x="1202" 
d="M395 1178q-76 0 -127 52t-51 126q0 72 51.5 124t126.5 52q72 0 124 -52.5t52 -123.5q0 -73 -52 -125.5t-124 -52.5zM856 1178q-75 0 -126.5 52t-51.5 126q0 71 52 123.5t126 52.5q73 0 124.5 -52.5t51.5 -123.5q0 -74 -51.5 -126t-124.5 -52zM616 1083q135 0 245.5 -53
t177.5 -159t67 -246v-625h-379v76q-110 -101 -272 -101q-173 0 -290.5 95.5t-117.5 242.5q0 154 131.5 253.5t325.5 99.5q105 0 223 -48v7q0 76 -61 121t-156 45q-70 0 -126 -17t-130 -55l-121 239q248 125 483 125zM551 209q71 0 120.5 29t55.5 75v101q-66 32 -168 32
q-60 0 -98.5 -34t-38.5 -88q0 -51 36 -83t93 -32z" />
    <glyph glyph-name="aring" unicode="&#xe5;" horiz-adv-x="1202" 
d="M625 1178q-102 0 -175 72.5t-73 174.5t73 175t175 73q103 0 175 -72.5t72 -175.5t-72 -175t-175 -72zM625 1526q-41 0 -71 -30t-30 -71t30 -70.5t71 -29.5t70.5 29.5t29.5 70.5t-29.5 71t-70.5 30zM616 1083q135 0 245.5 -53t177.5 -159t67 -246v-625h-379v76
q-110 -101 -272 -101q-173 0 -290.5 95.5t-117.5 242.5q0 154 131.5 253.5t325.5 99.5q105 0 223 -48v7q0 76 -61 121t-156 45q-70 0 -126 -17t-130 -55l-121 239q248 125 483 125zM551 209q71 0 120.5 29t55.5 75v101q-66 32 -168 32q-60 0 -98.5 -34t-38.5 -88
q0 -51 36 -83t93 -32z" />
    <glyph glyph-name="ae" unicode="&#xe6;" horiz-adv-x="1880" 
d="M1286 270q124 0 236 88l217 -219q-71 -72 -193 -118t-243 -46q-237 0 -396 140q-128 -140 -391 -140q-206 0 -337.5 94.5t-131.5 243.5q0 154 131.5 253.5t325.5 99.5q105 0 223 -48v7q0 69 -57 107t-160 38q-134 0 -252 -59l-125 247q129 65 224.5 95t217.5 30
q103 0 189.5 -34.5t144.5 -96.5q150 131 377 131q255 0 398 -170.5t143 -476.5h-750q24 -76 79.5 -121t129.5 -45zM1286 788q-69 0 -122.5 -39t-80.5 -106h385q-22 67 -70 106t-112 39zM551 229q83 0 129.5 27.5t46.5 77.5v53q-73 39 -168 39q-57 0 -93 -29t-36 -73
q0 -42 33.5 -68.5t87.5 -26.5z" />
    <glyph glyph-name="ccedilla" unicode="&#xe7;" horiz-adv-x="1130" 
d="M1102 178q-150 -173 -373 -198l-29 -66q67 -3 108.5 -42.5t41.5 -98.5q0 -85 -65.5 -134t-170.5 -49q-57 0 -111 17.5t-91 44.5l63 139q57 -47 119 -47q31 0 52.5 13.5t21.5 37.5q0 21 -15.5 33t-42.5 12q-29 0 -55 -16l-53 49l47 111q-209 36 -351.5 191.5t-142.5 354.5
q0 148 81.5 275.5t220 202.5t298.5 75q137 0 249.5 -52t191.5 -144l-260 -213q-31 36 -83 59t-102 23q-89 0 -154 -66.5t-65 -157.5q0 -94 65 -161.5t156 -67.5q51 0 104 23.5t85 60.5z" />
    <glyph glyph-name="egrave" unicode="&#xe8;" horiz-adv-x="1208" 
d="M838 1176h-258l-312 278l340 57zM614 270q124 0 236 88l217 -219q-71 -72 -193 -118t-243 -46q-253 0 -414.5 156t-161.5 401q0 243 156.5 397t402.5 154q255 0 398 -170.5t143 -476.5h-749q24 -76 79 -121t129 -45zM614 788q-69 0 -122 -39t-80 -106h385
q-22 67 -70.5 106t-112.5 39z" />
    <glyph glyph-name="eacute" unicode="&#xe9;" horiz-adv-x="1208" 
d="M940 1454l-311 -278h-258l229 335zM614 270q124 0 236 88l217 -219q-71 -72 -193 -118t-243 -46q-253 0 -414.5 156t-161.5 401q0 243 156.5 397t402.5 154q255 0 398 -170.5t143 -476.5h-749q24 -76 79 -121t129 -45zM614 788q-69 0 -122 -39t-80 -106h385
q-22 67 -70.5 106t-112.5 39z" />
    <glyph glyph-name="ecircumflex" unicode="&#xea;" horiz-adv-x="1208" 
d="M614 1313l-149 -137h-229l221 315h317l223 -315h-231zM614 270q124 0 236 88l217 -219q-71 -72 -193 -118t-243 -46q-253 0 -414.5 156t-161.5 401q0 243 156.5 397t402.5 154q255 0 398 -170.5t143 -476.5h-749q24 -76 79 -121t129 -45zM614 788q-69 0 -122 -39
t-80 -106h385q-22 67 -70.5 106t-112.5 39z" />
    <glyph glyph-name="edieresis" unicode="&#xeb;" horiz-adv-x="1208" 
d="M385 1178q-76 0 -127 52t-51 126q0 72 51.5 124t126.5 52q72 0 124 -52.5t52 -123.5q0 -73 -52 -125.5t-124 -52.5zM846 1178q-75 0 -126.5 52t-51.5 126q0 71 52 123.5t126 52.5q73 0 124.5 -52.5t51.5 -123.5q0 -74 -51.5 -126t-124.5 -52zM614 270q124 0 236 88
l217 -219q-71 -72 -193 -118t-243 -46q-253 0 -414.5 156t-161.5 401q0 243 156.5 397t402.5 154q255 0 398 -170.5t143 -476.5h-749q24 -76 79 -121t129 -45zM614 788q-69 0 -122 -39t-80 -106h385q-22 67 -70.5 106t-112.5 39z" />
    <glyph glyph-name="igrave" unicode="&#xec;" horiz-adv-x="622" 
d="M182 1176l-311 278l340 57l229 -335h-258zM113 0v1059h395v-1059h-395z" />
    <glyph glyph-name="iacute" unicode="&#xed;" horiz-adv-x="622" 
d="M178 1176l230 335l340 -57l-312 -278h-258zM113 0v1059h395v-1059h-395z" />
    <glyph glyph-name="icircumflex" unicode="&#xee;" horiz-adv-x="622" 
d="M-68 1176l222 315h317l223 -315h-231l-152 137l-149 -137h-230zM113 0v1059h395v-1059h-395z" />
    <glyph glyph-name="idieresis" unicode="&#xef;" horiz-adv-x="622" 
d="M82 1178q-76 0 -127 52t-51 126q0 72 51.5 124t126.5 52q72 0 124 -52.5t52 -123.5q0 -73 -52 -125.5t-124 -52.5zM543 1178q-75 0 -126.5 52t-51.5 126q0 71 52 123.5t126 52.5q73 0 124.5 -52.5t51.5 -123.5q0 -74 -51.5 -126t-124.5 -52zM113 0v1059h395v-1059h-395z
" />
    <glyph glyph-name="eth" unicode="&#xf0;" horiz-adv-x="1300" 
d="M893 1268q179 -169 261.5 -326.5t82.5 -351.5q0 -270 -164 -442.5t-420 -172.5q-255 0 -418 151.5t-163 387.5q0 217 126 355.5t324 138.5q171 0 293 -138q-65 130 -227 263l-191 -86l-80 180l89 39q-25 17 -75.5 49t-58.5 37l344 147q15 -12 54 -42t59 -46l172 76
l80 -180zM655 305q91 0 148 54t57 139q0 84 -57 139t-150 55q-91 0 -147.5 -53.5t-56.5 -138.5q0 -86 57.5 -140.5t148.5 -54.5z" />
    <glyph glyph-name="ntilde" unicode="&#xf1;" horiz-adv-x="1286" 
d="M530 1253q-58 0 -75 -86l-185 27q17 148 77 218.5t171 70.5q48 0 104.5 -21t102.5 -42t66 -21q57 0 75 86l185 -27q-15 -147 -75.5 -218t-172.5 -71q-49 0 -105 21t-101.5 42t-66.5 21zM799 1083q170 0 279.5 -114.5t109.5 -294.5v-674h-377v582q0 77 -45 125.5
t-115 48.5q-66 0 -108.5 -45.5t-42.5 -116.5v-594h-396v1059h396v-107q50 62 127.5 96.5t171.5 34.5z" />
    <glyph glyph-name="ograve" unicode="&#xf2;" horiz-adv-x="1302" 
d="M618 1176l-311 278l340 57l230 -335h-259zM653 -25q-160 0 -298 75.5t-219 203.5t-81 276t81 275.5t219 202.5t298 75q159 0 296.5 -75t218.5 -202.5t81 -275.5t-81 -276t-218.5 -203.5t-296.5 -75.5zM653 303q92 0 160 67.5t68 159.5t-68 159t-160 67q-94 0 -161.5 -67
t-67.5 -159t67.5 -159.5t161.5 -67.5z" />
    <glyph glyph-name="oacute" unicode="&#xf3;" horiz-adv-x="1302" 
d="M410 1176l229 335l340 -57l-311 -278h-258zM653 -25q-160 0 -298 75.5t-219 203.5t-81 276t81 275.5t219 202.5t298 75q159 0 296.5 -75t218.5 -202.5t81 -275.5t-81 -276t-218.5 -203.5t-296.5 -75.5zM653 303q92 0 160 67.5t68 159.5t-68 159t-160 67q-94 0 -161.5 -67
t-67.5 -159t67.5 -159.5t161.5 -67.5z" />
    <glyph glyph-name="ocircumflex" unicode="&#xf4;" horiz-adv-x="1302" 
d="M274 1176l222 315h317l223 -315h-231l-152 137l-149 -137h-230zM653 -25q-160 0 -298 75.5t-219 203.5t-81 276t81 275.5t219 202.5t298 75q159 0 296.5 -75t218.5 -202.5t81 -275.5t-81 -276t-218.5 -203.5t-296.5 -75.5zM653 303q92 0 160 67.5t68 159.5t-68 159
t-160 67q-94 0 -161.5 -67t-67.5 -159t67.5 -159.5t161.5 -67.5z" />
    <glyph glyph-name="otilde" unicode="&#xf5;" horiz-adv-x="1302" 
d="M795 1169q-49 0 -105 21t-101.5 42t-66.5 21q-59 0 -76 -86l-184 27q17 148 77 218.5t171 70.5q48 0 104.5 -21t102 -42t65.5 -21q58 0 76 86l184 -27q-15 -147 -75 -218t-172 -71zM653 -25q-160 0 -298 75.5t-219 203.5t-81 276t81 275.5t219 202.5t298 75
q159 0 296.5 -75t218.5 -202.5t81 -275.5t-81 -276t-218.5 -203.5t-296.5 -75.5zM653 303q92 0 160 67.5t68 159.5t-68 159t-160 67q-94 0 -161.5 -67t-67.5 -159t67.5 -159.5t161.5 -67.5z" />
    <glyph glyph-name="odieresis" unicode="&#xf6;" horiz-adv-x="1302" 
d="M424 1178q-76 0 -127 52t-51 126q0 72 51.5 124t126.5 52q72 0 124 -52.5t52 -123.5q0 -73 -52 -125.5t-124 -52.5zM885 1178q-75 0 -126.5 52t-51.5 126q0 71 52 123.5t126 52.5q73 0 124.5 -52.5t51.5 -123.5q0 -74 -51.5 -126t-124.5 -52zM653 -25q-160 0 -298 75.5
t-219 203.5t-81 276t81 275.5t219 202.5t298 75q159 0 296.5 -75t218.5 -202.5t81 -275.5t-81 -276t-218.5 -203.5t-296.5 -75.5zM653 303q92 0 160 67.5t68 159.5t-68 159t-160 67q-94 0 -161.5 -67t-67.5 -159t67.5 -159.5t161.5 -67.5z" />
    <glyph glyph-name="divide" unicode="&#xf7;" horiz-adv-x="1247" 
d="M629 905q-86 0 -145.5 60t-59.5 145q0 79 60 138t145 59q81 0 138.5 -59t57.5 -138q0 -85 -57 -145t-139 -60zM113 532v306h1022v-306h-1022zM629 61q-86 0 -145.5 60t-59.5 145q0 79 60 138t145 59q81 0 138.5 -59t57.5 -138q0 -85 -57 -145t-139 -60z" />
    <glyph glyph-name="oslash" unicode="&#xf8;" horiz-adv-x="1302" 
d="M1096 897q153 -160 153 -367q0 -148 -81 -276t-218.5 -203.5t-296.5 -75.5q-156 0 -295 74l-43 -49h-245l141 162q-73 75 -114.5 170.5t-41.5 197.5q0 148 81 275.5t219 202.5t298 75q158 0 295 -73l43 49h246zM424 530q0 -50 22 -96l273 311q-37 11 -66 11
q-94 0 -161.5 -67t-67.5 -159zM653 303q92 0 160 67.5t68 159.5q0 47 -23 95l-270 -312q33 -10 65 -10z" />
    <glyph glyph-name="ugrave" unicode="&#xf9;" horiz-adv-x="1286" 
d="M862 1176h-258l-311 278l340 57zM786 1059h396v-1059h-396v106q-50 -62 -127.5 -96.5t-171.5 -34.5q-170 0 -279.5 115t-109.5 295v674h377v-582q0 -77 45 -125.5t115 -48.5q66 0 108.5 45.5t42.5 116.5v594z" />
    <glyph glyph-name="uacute" unicode="&#xfa;" horiz-adv-x="1286" 
d="M965 1454l-312 -278h-258l230 335zM786 1059h396v-1059h-396v106q-50 -62 -127.5 -96.5t-171.5 -34.5q-170 0 -279.5 115t-109.5 295v674h377v-582q0 -77 45 -125.5t115 -48.5q66 0 108.5 45.5t42.5 116.5v594z" />
    <glyph glyph-name="ucircumflex" unicode="&#xfb;" horiz-adv-x="1286" 
d="M639 1313l-150 -137h-229l221 315h318l223 -315h-231zM786 1059h396v-1059h-396v106q-50 -62 -127.5 -96.5t-171.5 -34.5q-170 0 -279.5 115t-109.5 295v674h377v-582q0 -77 45 -125.5t115 -48.5q66 0 108.5 45.5t42.5 116.5v594z" />
    <glyph glyph-name="udieresis" unicode="&#xfc;" horiz-adv-x="1286" 
d="M410 1178q-76 0 -127.5 52t-51.5 126q0 72 52 124t127 52q72 0 124 -52.5t52 -123.5q0 -73 -52 -125.5t-124 -52.5zM870 1178q-75 0 -126.5 52t-51.5 126q0 71 52 123.5t126 52.5q73 0 125 -52.5t52 -123.5q0 -74 -52 -126t-125 -52zM786 1059h396v-1059h-396v106
q-50 -62 -127.5 -96.5t-171.5 -34.5q-170 0 -279.5 115t-109.5 295v674h377v-582q0 -77 45 -125.5t115 -48.5q66 0 108.5 45.5t42.5 116.5v594z" />
    <glyph glyph-name="yacute" unicode="&#xfd;" horiz-adv-x="1243" 
d="M387 1176l229 335l340 -57l-311 -278h-258zM412 -369q-80 0 -173 24t-157 62l80 254q99 -59 149 -59q36 0 67 9.5t40 23.5l20 41l-428 1073h404l217 -653l205 653h397l-399 -1067q-65 -170 -176 -265.5t-246 -95.5z" />
    <glyph glyph-name="thorn" unicode="&#xfe;" 
d="M838 1083q214 0 349.5 -155t135.5 -398q0 -245 -135.5 -400t-349.5 -155q-204 0 -338 150v-477h-396v1784h396v-498q133 149 338 149zM713 303q103 0 168 63.5t65 163.5q0 99 -65.5 162.5t-167.5 63.5q-93 0 -153 -63.5t-60 -162.5q0 -100 59.5 -163.5t153.5 -63.5z" />
    <glyph glyph-name="ydieresis" unicode="&#xff;" horiz-adv-x="1243" 
d="M401 1178q-76 0 -127 52t-51 126q0 72 51.5 124t126.5 52q72 0 124.5 -52.5t52.5 -123.5q0 -73 -52.5 -125.5t-124.5 -52.5zM862 1178q-75 0 -126.5 52t-51.5 126q0 71 52 123.5t126 52.5q73 0 124.5 -52.5t51.5 -123.5q0 -74 -51.5 -126t-124.5 -52zM412 -369
q-80 0 -173 24t-157 62l80 254q99 -59 149 -59q36 0 67 9.5t40 23.5l20 41l-428 1073h404l217 -653l205 653h397l-399 -1067q-65 -170 -176 -265.5t-246 -95.5z" />
    <glyph glyph-name="Amacron" unicode="&#x100;" horiz-adv-x="1533" 
d="M1145 1739v-217h-756v217h756zM1083 0l-71 188h-490l-71 -188h-449l541 1407h448l541 -1407h-449zM635 481h264l-131 342z" />
    <glyph glyph-name="amacron" unicode="&#x101;" horiz-adv-x="1202" 
d="M1001 1391v-217h-755v217h755zM616 1083q135 0 245.5 -53t177.5 -159t67 -246v-625h-379v76q-110 -101 -272 -101q-173 0 -290.5 95.5t-117.5 242.5q0 154 131.5 253.5t325.5 99.5q105 0 223 -48v7q0 76 -61 121t-156 45q-70 0 -126 -17t-130 -55l-121 239
q248 125 483 125zM551 209q71 0 120.5 29t55.5 75v101q-66 32 -168 32q-60 0 -98.5 -34t-38.5 -88q0 -51 36 -83t93 -32z" />
    <glyph glyph-name="Abreve" unicode="&#x102;" horiz-adv-x="1533" 
d="M1118 1671q-71 -71 -162 -108t-188 -37q-202 0 -350 145l151 152q88 -88 199 -88t199 88zM1083 0l-71 188h-490l-71 -188h-449l541 1407h448l541 -1407h-449zM635 481h264l-131 342z" />
    <glyph glyph-name="abreve" unicode="&#x103;" horiz-adv-x="1202" 
d="M975 1323q-71 -71 -162 -108t-188 -37q-203 0 -351 145l152 152q89 -89 199 -89q109 0 198 89zM616 1083q135 0 245.5 -53t177.5 -159t67 -246v-625h-379v76q-110 -101 -272 -101q-173 0 -290.5 95.5t-117.5 242.5q0 154 131.5 253.5t325.5 99.5q105 0 223 -48v7
q0 76 -61 121t-156 45q-70 0 -126 -17t-130 -55l-121 239q248 125 483 125zM551 209q71 0 120.5 29t55.5 75v101q-66 32 -168 32q-60 0 -98.5 -34t-38.5 -88q0 -51 36 -83t93 -32z" />
    <glyph glyph-name="Aogonek" unicode="&#x104;" horiz-adv-x="1533" 
d="M1595 -115l45 -168q-78 -71 -190 -71q-102 0 -165.5 63.5t-63.5 169.5q0 69 30 121h-168l-71 188h-490l-71 -188h-449l541 1407h448l541 -1407q-35 0 -56.5 -20.5t-21.5 -53.5q0 -61 80 -61q38 0 61 20zM635 481h264l-131 342z" />
    <glyph glyph-name="aogonek" unicode="&#x105;" horiz-adv-x="1202" 
d="M1169 -115l45 -168q-78 -71 -190 -71q-102 0 -165.5 63.5t-63.5 169.5q0 69 30 121h-98v76q-110 -101 -272 -101q-173 0 -290.5 95.5t-117.5 242.5q0 154 131.5 253.5t325.5 99.5q105 0 223 -48v7q0 76 -61 121t-156 45q-70 0 -126 -17t-130 -55l-121 239
q248 125 483 125q135 0 245.5 -53t177.5 -159t67 -246v-625q-35 0 -56.5 -20.5t-21.5 -53.5q0 -61 80 -61q38 0 61 20zM551 209q71 0 120.5 29t55.5 75v101q-66 32 -168 32q-60 0 -98.5 -34t-38.5 -88q0 -51 36 -83t93 -32z" />
    <glyph glyph-name="Cacute" unicode="&#x106;" horiz-adv-x="1445" 
d="M541 1524l229 336l340 -58l-311 -278h-258zM836 -25q-204 0 -381 99.5t-281 268t-104 362.5q0 145 61.5 279.5t165 232.5t245 156.5t294.5 58.5q166 0 314.5 -66t256.5 -182l-293 -256q-51 66 -124 104.5t-154 38.5q-145 0 -251 -108.5t-106 -257.5q0 -150 106 -259.5
t251 -109.5q82 0 154.5 38t125.5 105l291 -254q-108 -117 -256.5 -183.5t-314.5 -66.5z" />
    <glyph glyph-name="cacute" unicode="&#x107;" horiz-adv-x="1130" 
d="M367 1176l229 335l340 -57l-311 -278h-258zM649 -25q-118 0 -228 44.5t-190 119.5t-128 177.5t-48 213.5q0 148 81.5 275.5t220 202.5t298.5 75q137 0 249.5 -52t191.5 -144l-260 -213q-31 36 -83 59t-102 23q-89 0 -154 -66.5t-65 -157.5q0 -94 65 -161.5t156 -67.5
q51 0 104 23.5t85 60.5l260 -209q-175 -203 -453 -203z" />
    <glyph glyph-name="Ccaron" unicode="&#x10c;" horiz-adv-x="1445" 
d="M627 1524l-221 315h229l149 -137l152 137h231l-223 -315h-317zM836 -25q-204 0 -381 99.5t-281 268t-104 362.5q0 145 61.5 279.5t165 232.5t245 156.5t294.5 58.5q166 0 314.5 -66t256.5 -182l-293 -256q-51 66 -124 104.5t-154 38.5q-145 0 -251 -108.5t-106 -257.5
q0 -150 106 -259.5t251 -109.5q82 0 154.5 38t125.5 105l291 -254q-108 -117 -256.5 -183.5t-314.5 -66.5z" />
    <glyph glyph-name="ccaron" unicode="&#x10d;" horiz-adv-x="1130" 
d="M453 1176l-222 315h230l149 -137l152 137h231l-223 -315h-317zM649 -25q-118 0 -228 44.5t-190 119.5t-128 177.5t-48 213.5q0 148 81.5 275.5t220 202.5t298.5 75q137 0 249.5 -52t191.5 -144l-260 -213q-31 36 -83 59t-102 23q-89 0 -154 -66.5t-65 -157.5
q0 -94 65 -161.5t156 -67.5q51 0 104 23.5t85 60.5l260 -209q-175 -203 -453 -203z" />
    <glyph glyph-name="Dcaron" unicode="&#x10e;" horiz-adv-x="1556" 
d="M489 1524l-221 315h230l149 -137l152 137h231l-223 -315h-318zM123 0v1407h524q243 0 434.5 -89t298.5 -249.5t107 -363.5q0 -152 -62.5 -283.5t-172.5 -224t-266.5 -145t-338.5 -52.5h-524zM520 360h193q160 0 262 97t102 248t-102 246.5t-262 95.5h-193v-687z" />
    <glyph glyph-name="dcaron" unicode="&#x10f;" 
d="M881 934v498h395v-1432h-395v125q-134 -150 -338 -150q-214 0 -350 155.5t-136 399.5q0 243 136 398t350 155q205 0 338 -149zM1571 1432q78 0 128 -66t50 -168q0 -85 -49.5 -173t-140.5 -163l-95 74q82 66 101 143q-67 0 -116.5 51.5t-49.5 122.5q0 73 50.5 126
t121.5 53zM668 303q94 0 153.5 63.5t59.5 163.5q0 99 -60 162.5t-153 63.5q-103 0 -168.5 -64t-65.5 -162q0 -100 65.5 -163.5t168.5 -63.5z" />
    <glyph glyph-name="Dcroat" unicode="&#x110;" horiz-adv-x="1675" 
d="M766 1407q243 0 434.5 -89t298.5 -249.5t107 -363.5q0 -152 -62.5 -283.5t-172.5 -224t-266.5 -145t-338.5 -52.5h-524v528h-160v355h160v524h524zM831 360q160 0 262.5 97t102.5 248q0 150 -102.5 246t-262.5 96h-192v-164h260l-2 -355h-258v-168h192z" />
    <glyph glyph-name="dcroat" unicode="&#x111;" horiz-adv-x="1443" 
d="M1393 1341v-184h-117v-1157h-395v125q-134 -150 -338 -150q-214 0 -350 155.5t-136 399.5q0 243 136 398t350 155q205 0 338 -149v223h-287v184h287v91h395v-91h117zM668 303q94 0 153.5 63.5t59.5 163.5q0 99 -60 162.5t-153 63.5q-103 0 -168.5 -64t-65.5 -162
q0 -100 65.5 -163.5t168.5 -63.5z" />
    <glyph glyph-name="Emacron" unicode="&#x112;" horiz-adv-x="1333" 
d="M1067 1739v-217h-756v217h756zM1255 1053h-735v-158h670v-354h-670v-187h735v-354h-1132v1407h1132v-354z" />
    <glyph glyph-name="emacron" unicode="&#x113;" horiz-adv-x="1208" 
d="M991 1391v-217h-755v217h755zM614 270q124 0 236 88l217 -219q-71 -72 -193 -118t-243 -46q-253 0 -414.5 156t-161.5 401q0 243 156.5 397t402.5 154q255 0 398 -170.5t143 -476.5h-749q24 -76 79 -121t129 -45zM614 788q-69 0 -122 -39t-80 -106h385q-22 67 -70.5 106
t-112.5 39z" />
    <glyph glyph-name="Edotaccent" unicode="&#x116;" horiz-adv-x="1333" 
d="M690 1526q-76 0 -127 52t-51 126q0 72 51.5 124t126.5 52q72 0 124 -52.5t52 -123.5q0 -73 -52 -125.5t-124 -52.5zM1255 1053h-735v-158h670v-354h-670v-187h735v-354h-1132v1407h1132v-354z" />
    <glyph glyph-name="edotaccent" unicode="&#x117;" horiz-adv-x="1208" 
d="M614 1178q-76 0 -127 52t-51 126q0 72 51.5 124t126.5 52q72 0 124.5 -52.5t52.5 -123.5q0 -73 -52.5 -125.5t-124.5 -52.5zM614 270q124 0 236 88l217 -219q-71 -72 -193 -118t-243 -46q-253 0 -414.5 156t-161.5 401q0 243 156.5 397t402.5 154q255 0 398 -170.5
t143 -476.5h-749q24 -76 79 -121t129 -45zM614 788q-69 0 -122 -39t-80 -106h385q-22 67 -70.5 106t-112.5 39z" />
    <glyph glyph-name="Eogonek" unicode="&#x118;" horiz-adv-x="1333" 
d="M1255 1053h-735v-158h670v-354h-670v-187h735v-354h-108q-35 0 -56.5 -20.5t-21.5 -53.5q0 -61 80 -61q38 0 61 20l45 -168q-78 -71 -190 -71q-102 0 -165.5 63.5t-63.5 169.5q0 69 30 121h-743v1407h1132v-354z" />
    <glyph glyph-name="eogonek" unicode="&#x119;" horiz-adv-x="1208" 
d="M1067 139q-41 -43 -109 -80q-27 -13 -65 -30q-12 -18 -12 -43q0 -62 80 -62q37 0 61 21l45 -168q-79 -72 -190 -72q-102 0 -166 64t-64 170q0 24 2 36h-18q-253 0 -414.5 156t-161.5 401q0 243 156.5 397t402.5 154q255 0 398 -170.5t143 -476.5h-749q24 -76 79 -121
t129 -45q124 0 236 88zM614 788q-69 0 -122 -39t-80 -106h385q-22 67 -70.5 106t-112.5 39z" />
    <glyph glyph-name="Ecaron" unicode="&#x11a;" horiz-adv-x="1333" 
d="M850 1524h-318l-221 315h230l149 -137l152 137h231zM1255 1053h-735v-158h670v-354h-670v-187h735v-354h-1132v1407h1132v-354z" />
    <glyph glyph-name="ecaron" unicode="&#x11b;" horiz-adv-x="1208" 
d="M774 1176h-317l-221 315h229l149 -137l152 137h231zM614 270q124 0 236 88l217 -219q-71 -72 -193 -118t-243 -46q-253 0 -414.5 156t-161.5 401q0 243 156.5 397t402.5 154q255 0 398 -170.5t143 -476.5h-749q24 -76 79 -121t129 -45zM614 788q-69 0 -122 -39t-80 -106
h385q-22 67 -70.5 106t-112.5 39z" />
    <glyph glyph-name="Gbreve" unicode="&#x11e;" horiz-adv-x="1517" 
d="M1196 1671q-71 -71 -162 -108t-188 -37q-202 0 -350 145l151 152q88 -88 199 -88q110 0 198 88zM768 530v293h659v-598q-109 -118 -262 -184t-319 -66q-155 0 -298.5 59t-248 157.5t-167 233.5t-62.5 280t62.5 279.5t167 232.5t248 156.5t298.5 58.5q166 0 319 -65.5
t262 -182.5l-292 -256q-53 68 -128.5 105.5t-160.5 37.5q-149 0 -258 -108.5t-109 -257.5q0 -151 109 -260t258 -109q105 0 196 57v137h-274z" />
    <glyph glyph-name="gbreve" unicode="&#x11f;" horiz-adv-x="1345" 
d="M1057 1323q-71 -71 -162 -108t-188 -37q-203 0 -351 145l152 152q89 -89 199 -89q109 0 198 89zM844 1059h397v-946q0 -204 -169 -334.5t-433 -130.5q-144 0 -275.5 39t-218.5 102l129 272q46 -38 129.5 -62t171.5 -24q118 0 193.5 45t75.5 113v84q-63 -66 -149.5 -102.5
t-178.5 -36.5q-194 0 -326.5 142.5t-132.5 361.5q0 108 36 202t97.5 159.5t146 102.5t179.5 37t186.5 -39.5t141.5 -101.5v117zM653 406q83 0 137 49.5t54 126.5q0 76 -54 125t-137 49t-136.5 -49t-53.5 -125q0 -77 53.5 -126.5t136.5 -49.5z" />
    <glyph glyph-name="Gcommaaccent" unicode="&#x122;" horiz-adv-x="1517" 
d="M768 530v293h659v-598q-109 -118 -262 -184t-319 -66q-155 0 -298.5 59t-248 157.5t-167 233.5t-62.5 280t62.5 279.5t167 232.5t248 156.5t298.5 58.5q166 0 319 -65.5t262 -182.5l-292 -256q-53 68 -128.5 105.5t-160.5 37.5q-149 0 -258 -108.5t-109 -257.5
q0 -151 109 -260t258 -109q105 0 196 57v137h-274zM844 -47q78 0 128 -66t50 -168q0 -85 -50 -172.5t-141 -162.5l-94 73q82 66 101 144q-67 0 -116.5 51.5t-49.5 122.5q0 73 50.5 125.5t121.5 52.5z" />
    <glyph glyph-name="gcommaaccent" unicode="&#x123;" horiz-adv-x="1345" 
d="M657 1178q-78 0 -128 66t-50 167q0 85 50 173t141 163l94 -74q-81 -65 -100 -143q67 0 116 -51.5t49 -122.5q0 -73 -50.5 -125.5t-121.5 -52.5zM844 1059h397v-946q0 -204 -169 -334.5t-433 -130.5q-144 0 -275.5 39t-218.5 102l129 272q46 -38 129.5 -62t171.5 -24
q118 0 193.5 45t75.5 113v84q-63 -66 -149.5 -102.5t-178.5 -36.5q-194 0 -326.5 142.5t-132.5 361.5q0 108 36 202t97.5 159.5t146 102.5t179.5 37t186.5 -39.5t141.5 -101.5v117zM653 406q83 0 137 49.5t54 126.5q0 76 -54 125t-137 49t-136.5 -49t-53.5 -125
q0 -77 53.5 -126.5t136.5 -49.5z" />
    <glyph glyph-name="Imacron" unicode="&#x12a;" horiz-adv-x="657" 
d="M-49 1522v217h756v-217h-756zM131 0v1407h397v-1407h-397z" />
    <glyph glyph-name="imacron" unicode="&#x12b;" horiz-adv-x="622" 
d="M-68 1174v217h756v-217h-756zM113 0v1059h395v-1059h-395z" />
    <glyph glyph-name="Iogonek" unicode="&#x12e;" horiz-adv-x="657" 
d="M530 -115l45 -168q-78 -71 -190 -71q-102 0 -165.5 63.5t-63.5 169.5q0 69 30 121h-55v1407h397v-1407h-61q-35 0 -56.5 -20.5t-21.5 -53.5q0 -61 80 -61q38 0 61 20z" />
    <glyph glyph-name="iogonek" unicode="&#x12f;" horiz-adv-x="622" 
d="M311 1178q-76 0 -127 52t-51 126q0 72 51.5 124t126.5 52q72 0 124 -52.5t52 -123.5q0 -73 -52 -125.5t-124 -52.5zM311 0q-35 0 -56.5 -20.5t-21.5 -53.5q0 -61 80 -61q39 0 62 20l45 -168q-78 -71 -191 -71q-102 0 -165.5 63.5t-63.5 169.5q0 127 104 199l9 -4v985h395
v-1059h-197z" />
    <glyph glyph-name="Idotaccent" unicode="&#x130;" horiz-adv-x="657" 
d="M330 1526q-76 0 -127 52t-51 126q0 72 51.5 124t126.5 52q72 0 124 -52.5t52 -123.5q0 -73 -52 -125.5t-124 -52.5zM131 0v1407h397v-1407h-397z" />
    <glyph glyph-name="dotlessi" unicode="&#x131;" horiz-adv-x="622" 
d="M113 0v1059h395v-1059h-395z" />
    <glyph glyph-name="Kcommaaccent" unicode="&#x136;" horiz-adv-x="1484" 
d="M123 0v1407h397v-555l473 555h469l-520 -588l561 -819h-475l-362 532l-146 -159v-373h-397zM754 -616l-95 73q82 66 101 144q-67 0 -116.5 51.5t-49.5 122.5q0 73 50.5 125.5t121.5 52.5q78 0 128 -66t50 -168q0 -85 -49.5 -172.5t-140.5 -162.5z" />
    <glyph glyph-name="kcommaaccent" unicode="&#x137;" horiz-adv-x="1208" 
d="M500 244v-244h-396v1432h396v-746l272 373h442l-370 -457l379 -602h-443l-194 350zM637 -47q78 0 128 -66t50 -168q0 -85 -49.5 -172.5t-140.5 -162.5l-95 73q82 66 101 144q-67 0 -116.5 51.5t-49.5 122.5q0 73 50.5 125.5t121.5 52.5z" />
    <glyph glyph-name="Lacute" unicode="&#x139;" horiz-adv-x="1222" 
d="M750 1802l-312 -278h-258l230 336zM520 354h656v-354h-1053v1407h397v-1053z" />
    <glyph glyph-name="lacute" unicode="&#x13a;" horiz-adv-x="620" 
d="M174 1548l229 336l340 -57l-311 -279h-258zM113 0v1432h395v-1432h-395z" />
    <glyph glyph-name="Lcaron" unicode="&#x13d;" horiz-adv-x="1222" 
d="M809 1077q-67 0 -116.5 51.5t-49.5 122.5q0 73 50.5 126t121.5 53q78 0 128 -66t50 -168q0 -85 -49.5 -173t-140.5 -163l-94 74q81 65 100 143zM520 354h656v-354h-1053v1407h397v-1053z" />
    <glyph glyph-name="lcaron" unicode="&#x13e;" horiz-adv-x="620" 
d="M113 0v1432h395v-1432h-395zM791 862l-95 74q82 66 101 143q-67 0 -116.5 51.5t-49.5 122.5q0 73 50.5 126t121.5 53q78 0 128 -66t50 -168q0 -85 -49.5 -173t-140.5 -163z" />
    <glyph glyph-name="Lslash" unicode="&#x141;" horiz-adv-x="1275" 
d="M573 354h656v-354h-1053v432l-139 -67v342l139 67v633h397v-436l213 104v-342l-213 -104v-275z" />
    <glyph glyph-name="lslash" unicode="&#x142;" horiz-adv-x="786" 
d="M750 1059v-342l-160 -80v-637h-395v442l-158 -77v342l158 77v648h395v-453z" />
    <glyph glyph-name="Nacute" unicode="&#x143;" horiz-adv-x="1589" 
d="M551 1524l229 336l340 -58l-311 -278h-258zM123 0v1407h397l549 -754v754h397v-1407h-397l-549 754v-754h-397z" />
    <glyph glyph-name="nacute" unicode="&#x144;" horiz-adv-x="1286" 
d="M987 1454l-311 -278h-258l229 335zM799 1083q170 0 279.5 -114.5t109.5 -294.5v-674h-377v582q0 77 -45 125.5t-115 48.5q-66 0 -108.5 -45.5t-42.5 -116.5v-594h-396v1059h396v-107q50 62 127.5 96.5t171.5 34.5z" />
    <glyph glyph-name="Ncommaaccent" unicode="&#x145;" horiz-adv-x="1589" 
d="M123 0v1407h397l549 -754v754h397v-1407h-397l-549 754v-754h-397zM782 -616l-94 73q81 65 100 144q-67 0 -116 51.5t-49 122.5q0 73 50.5 125.5t121.5 52.5q78 0 128 -66t50 -168q0 -85 -50 -172.5t-141 -162.5z" />
    <glyph glyph-name="ncommaaccent" unicode="&#x146;" horiz-adv-x="1286" 
d="M799 1083q170 0 279.5 -114.5t109.5 -294.5v-674h-377v582q0 77 -45 125.5t-115 48.5q-66 0 -108.5 -45.5t-42.5 -116.5v-594h-396v1059h396v-107q50 62 127.5 96.5t171.5 34.5zM662 -47q78 0 128 -66t50 -168q0 -85 -50 -172.5t-141 -162.5l-94 73q81 65 100 144
q-67 0 -116.5 51.5t-49.5 122.5q0 73 51 125.5t122 52.5z" />
    <glyph glyph-name="Ncaron" unicode="&#x147;" horiz-adv-x="1589" 
d="M637 1524l-221 315h229l150 -137l151 137h232l-224 -315h-317zM123 0v1407h397l549 -754v754h397v-1407h-397l-549 754v-754h-397z" />
    <glyph glyph-name="ncaron" unicode="&#x148;" horiz-adv-x="1286" 
d="M821 1176h-317l-221 315h229l150 -137l151 137h231zM799 1083q170 0 279.5 -114.5t109.5 -294.5v-674h-377v582q0 77 -45 125.5t-115 48.5q-66 0 -108.5 -45.5t-42.5 -116.5v-594h-396v1059h396v-107q50 62 127.5 96.5t171.5 34.5z" />
    <glyph glyph-name="Omacron" unicode="&#x14c;" horiz-adv-x="1669" 
d="M457 1522v217h755v-217h-755zM836 -25q-204 0 -381 99.5t-281 268t-104 362.5q0 145 61.5 279.5t165 232.5t245 156.5t294.5 58.5t294.5 -58.5t245 -156.5t165 -232.5t61.5 -279.5q0 -194 -104 -362.5t-281 -268t-381 -99.5zM836 336q145 0 250.5 109t105.5 260
q0 149 -105.5 257.5t-250.5 108.5t-251 -108.5t-106 -257.5q0 -150 106 -259.5t251 -109.5z" />
    <glyph glyph-name="omacron" unicode="&#x14d;" horiz-adv-x="1302" 
d="M274 1174v217h756v-217h-756zM653 -25q-160 0 -298 75.5t-219 203.5t-81 276t81 275.5t219 202.5t298 75q159 0 296.5 -75t218.5 -202.5t81 -275.5t-81 -276t-218.5 -203.5t-296.5 -75.5zM653 303q92 0 160 67.5t68 159.5t-68 159t-160 67q-94 0 -161.5 -67t-67.5 -159
t67.5 -159.5t161.5 -67.5z" />
    <glyph glyph-name="Ohungarumlaut" unicode="&#x150;" horiz-adv-x="1669" 
d="M422 1524l229 336l340 -58l-311 -278h-258zM950 1524l230 336l340 -58l-312 -278h-258zM836 -25q-204 0 -381 99.5t-281 268t-104 362.5q0 145 61.5 279.5t165 232.5t245 156.5t294.5 58.5t294.5 -58.5t245 -156.5t165 -232.5t61.5 -279.5q0 -194 -104 -362.5t-281 -268
t-381 -99.5zM836 336q145 0 250.5 109t105.5 260q0 149 -105.5 257.5t-250.5 108.5t-251 -108.5t-106 -257.5q0 -150 106 -259.5t251 -109.5z" />
    <glyph glyph-name="ohungarumlaut" unicode="&#x151;" horiz-adv-x="1302" 
d="M246 1176l229 335l340 -57l-311 -278h-258zM774 1176l230 335l339 -57l-311 -278h-258zM653 -25q-160 0 -298 75.5t-219 203.5t-81 276t81 275.5t219 202.5t298 75q159 0 296.5 -75t218.5 -202.5t81 -275.5t-81 -276t-218.5 -203.5t-296.5 -75.5zM653 303q92 0 160 67.5
t68 159.5t-68 159t-160 67q-94 0 -161.5 -67t-67.5 -159t67.5 -159.5t161.5 -67.5z" />
    <glyph glyph-name="OE" unicode="&#x152;" horiz-adv-x="2142" 
d="M2064 1053h-735v-158h670v-354h-670v-187h735v-354h-1228q-154 0 -295 55t-244.5 149t-165 225t-61.5 276t61.5 276t165 224t244.5 147.5t295 54.5h1228v-354zM836 360h96v687h-96q-147 0 -252 -97.5t-105 -244.5q0 -148 105 -246.5t252 -98.5z" />
    <glyph glyph-name="oe" unicode="&#x153;" horiz-adv-x="2043" 
d="M1450 270q124 0 236 88l217 -219q-71 -72 -193.5 -118t-243.5 -46q-248 0 -409 152q-81 -72 -185.5 -112t-218.5 -40q-160 0 -298 75.5t-219 203.5t-81 276t81 275.5t219 202.5t298 75q114 0 217.5 -38.5t184.5 -108.5q153 147 395 147q255 0 398 -170.5t143 -476.5h-750
q24 -76 79.5 -121t129.5 -45zM1450 788q-69 0 -122.5 -39t-80.5 -106h385q-22 67 -70 106t-112 39zM653 303q92 0 160 67.5t68 159.5t-68 159t-160 67q-94 0 -161.5 -67t-67.5 -159t67.5 -159.5t161.5 -67.5z" />
    <glyph glyph-name="Racute" unicode="&#x154;" horiz-adv-x="1427" 
d="M1026 1802l-311 -278h-258l229 336zM1393 0h-453l-297 424h-123v-424h-397v1407h674q236 0 387 -137.5t151 -354.5q0 -149 -73.5 -263t-204.5 -175zM520 1047v-263h244q70 0 116 37t46 94t-46 94.5t-116 37.5h-244z" />
    <glyph glyph-name="racute" unicode="&#x155;" horiz-adv-x="862" 
d="M793 1454l-312 -278h-258l230 335zM500 870q53 100 139 156.5t192 56.5v-327q-157 0 -244 -81t-87 -226v-449h-396v1059h396v-189z" />
    <glyph glyph-name="Rcommaaccent" unicode="&#x156;" horiz-adv-x="1427" 
d="M1057 477l336 -477h-453l-297 424h-123v-424h-397v1407h674q236 0 387 -137.5t151 -354.5q0 -149 -73.5 -263t-204.5 -175zM520 1047v-263h244q70 0 116 37t46 94t-46 94.5t-116 37.5h-244zM715 -47q78 0 128 -66t50 -168q0 -85 -50 -172.5t-141 -162.5l-94 73
q82 66 101 144q-67 0 -116.5 51.5t-49.5 122.5q0 73 50.5 125.5t121.5 52.5z" />
    <glyph glyph-name="rcommaaccent" unicode="&#x157;" horiz-adv-x="862" 
d="M500 870q53 100 139 156.5t192 56.5v-327q-157 0 -244 -81t-87 -226v-449h-396v1059h396v-189zM426 -47q78 0 128 -66t50 -168q0 -85 -49.5 -172.5t-140.5 -162.5l-95 73q82 66 101 144q-67 0 -116.5 51.5t-49.5 122.5q0 73 50.5 125.5t121.5 52.5z" />
    <glyph glyph-name="Rcaron" unicode="&#x158;" horiz-adv-x="1427" 
d="M860 1524h-317l-221 315h229l149 -137l152 137h231zM1393 0h-453l-297 424h-123v-424h-397v1407h674q236 0 387 -137.5t151 -354.5q0 -149 -73.5 -263t-204.5 -175zM520 1047v-263h244q70 0 116 37t46 94t-46 94.5t-116 37.5h-244z" />
    <glyph glyph-name="rcaron" unicode="&#x159;" horiz-adv-x="862" 
d="M627 1176h-318l-221 315h229l150 -137l151 137h232zM500 870q53 100 139 156.5t192 56.5v-327q-157 0 -244 -81t-87 -226v-449h-396v1059h396v-189z" />
    <glyph glyph-name="Sacute" unicode="&#x15a;" horiz-adv-x="1323" 
d="M395 1524l230 336l340 -58l-312 -278h-258zM688 -25q-193 0 -366.5 60.5t-305.5 177.5l222 264q218 -172 464 -172q81 0 123.5 26t42.5 72q0 48 -42 67t-201 56q-74 17 -127 31.5t-113 36t-101.5 44.5t-82 56t-64.5 71.5t-38.5 90t-14.5 113.5q0 210 152 336.5t403 126.5
q352 0 590 -191l-199 -280q-196 141 -401 141q-70 0 -107 -25.5t-37 -66.5q0 -53 48.5 -79t201.5 -59q107 -23 182.5 -45.5t146 -57t112.5 -78t67 -105t25 -140.5q0 -221 -156.5 -346t-423.5 -125z" />
    <glyph glyph-name="sacute" unicode="&#x15b;" horiz-adv-x="1036" 
d="M268 1176l230 335l340 -57l-312 -278h-258zM526 -25q-138 0 -272 42.5t-231 117.5l147 240q77 -54 180 -89.5t187 -35.5q54 0 77 13t23 40q0 26 -40 44t-120 34q-54 12 -84 19t-80 22t-78.5 30.5t-64 41.5t-54.5 56t-32.5 73.5t-13.5 95.5q0 158 120 261t322 103
q232 0 442 -139l-133 -242q-174 113 -309 113q-40 0 -66 -17.5t-26 -41.5q0 -21 24.5 -31.5t92.5 -26.5q23 -5 36 -8q49 -11 84 -20t81.5 -25.5t79 -34t66.5 -45t55 -59.5t34.5 -76t13.5 -96q0 -165 -123.5 -262t-337.5 -97z" />
    <glyph glyph-name="Scedilla" unicode="&#x15e;" horiz-adv-x="1323" 
d="M1268 446q0 -205 -136 -328.5t-372 -140.5l-29 -63q67 -3 108.5 -42.5t41.5 -98.5q0 -85 -65.5 -134t-170.5 -49q-57 0 -111.5 17.5t-91.5 44.5l64 139q57 -47 119 -47q31 0 52 13.5t21 37.5q0 45 -57 45q-29 0 -55 -16l-54 49l46 107q-335 32 -562 233l222 264
q218 -172 464 -172q81 0 123.5 26t42.5 72q0 48 -42 67t-201 56q-74 17 -127 31.5t-113 36t-101.5 44.5t-82 56t-64.5 71.5t-38.5 90t-14.5 113.5q0 210 152 336.5t403 126.5q352 0 590 -191l-199 -280q-196 141 -401 141q-70 0 -107 -25.5t-37 -66.5q0 -53 48.5 -79
t201.5 -59q107 -23 182.5 -45.5t146 -57t112.5 -78t67 -105t25 -140.5z" />
    <glyph glyph-name="scedilla" unicode="&#x15f;" horiz-adv-x="1036" 
d="M987 334q0 -148 -99 -241t-276 -113l-28 -66q67 -3 108 -42.5t41 -98.5q0 -85 -65 -134t-170 -49q-57 0 -111.5 17.5t-91.5 44.5l63 139q57 -47 119 -47q31 0 52.5 13.5t21.5 37.5q0 45 -57 45q-30 0 -56 -16l-53 49l45 109q-247 26 -407 153l147 240q77 -54 180 -89.5
t187 -35.5q54 0 77 13t23 40q0 26 -40 44t-120 34q-54 12 -84 19t-80 22t-78.5 30.5t-64 41.5t-54.5 56t-32.5 73.5t-13.5 95.5q0 158 120 261t322 103q232 0 442 -139l-133 -242q-174 113 -309 113q-40 0 -66 -17.5t-26 -41.5q0 -21 24.5 -31.5t92.5 -26.5q23 -5 36 -8
q49 -11 84 -20t81.5 -25.5t79 -34t66.5 -45t55 -59.5t34.5 -76t13.5 -96z" />
    <glyph glyph-name="Scaron" unicode="&#x160;" horiz-adv-x="1323" 
d="M481 1524l-221 315h229l150 -137l152 137h231l-223 -315h-318zM688 -25q-193 0 -366.5 60.5t-305.5 177.5l222 264q218 -172 464 -172q81 0 123.5 26t42.5 72q0 48 -42 67t-201 56q-74 17 -127 31.5t-113 36t-101.5 44.5t-82 56t-64.5 71.5t-38.5 90t-14.5 113.5
q0 210 152 336.5t403 126.5q352 0 590 -191l-199 -280q-196 141 -401 141q-70 0 -107 -25.5t-37 -66.5q0 -53 48.5 -79t201.5 -59q107 -23 182.5 -45.5t146 -57t112.5 -78t67 -105t25 -140.5q0 -221 -156.5 -346t-423.5 -125z" />
    <glyph glyph-name="scaron" unicode="&#x161;" horiz-adv-x="1036" 
d="M354 1176l-221 315h229l150 -137l152 137h231l-223 -315h-318zM526 -25q-138 0 -272 42.5t-231 117.5l147 240q77 -54 180 -89.5t187 -35.5q54 0 77 13t23 40q0 26 -40 44t-120 34q-54 12 -84 19t-80 22t-78.5 30.5t-64 41.5t-54.5 56t-32.5 73.5t-13.5 95.5
q0 158 120 261t322 103q232 0 442 -139l-133 -242q-174 113 -309 113q-40 0 -66 -17.5t-26 -41.5q0 -21 24.5 -31.5t92.5 -26.5q23 -5 36 -8q49 -11 84 -20t81.5 -25.5t79 -34t66.5 -45t55 -59.5t34.5 -76t13.5 -96q0 -165 -123.5 -262t-337.5 -97z" />
    <glyph glyph-name="uni0162" unicode="&#x162;" horiz-adv-x="1320" 
d="M860 0h-98l-37 -86q67 -3 108 -42.5t41 -98.5q0 -85 -65 -134t-170 -49q-57 0 -111.5 17.5t-91.5 44.5l64 139q57 -47 118 -47q31 0 52.5 13.5t21.5 37.5q0 45 -57 45q-29 0 -55 -16l-54 49l54 127h-117v1053h-416v354h1229v-354h-416v-1053z" />
    <glyph glyph-name="uni0163" unicode="&#x163;" horiz-adv-x="851" 
d="M602 -86q67 -3 108.5 -42.5t41.5 -98.5q0 -85 -65.5 -134t-170.5 -49q-57 0 -111.5 17.5t-91.5 44.5l64 139q57 -47 119 -47q31 0 52 13.5t21 37.5q0 45 -57 45q-29 0 -55 -16l-54 49l48 111q-127 23 -204 118t-77 232v414h-133v311h133v291h377v-291h209v-311h-209v-336
q0 -47 25 -78t65 -31q62 0 96 31l68 -250q-62 -62 -164 -92z" />
    <glyph glyph-name="Tcaron" unicode="&#x164;" horiz-adv-x="1320" 
d="M504 1524l-221 315h229l150 -137l151 137h231l-223 -315h-317zM463 0v1053h-416v354h1229v-354h-416v-1053h-397z" />
    <glyph glyph-name="tcaron" unicode="&#x165;" horiz-adv-x="851" 
d="M1049 1432q78 0 128 -66t50 -168q0 -85 -50 -173t-141 -163l-94 74q81 65 100 143q-67 0 -116 51.5t-49 122.5q0 73 50.5 126t121.5 53zM637 303q62 0 96 31l68 -250q-50 -48 -126.5 -78.5t-146.5 -30.5q-158 0 -258 100.5t-100 258.5v414h-133v311h133v291h377v-291h209
v-311h-209v-336q0 -47 25 -78t65 -31z" />
    <glyph glyph-name="Umacron" unicode="&#x16a;" horiz-adv-x="1558" 
d="M401 1522v217h756v-217h-756zM780 -25q-194 0 -346.5 82.5t-237.5 231t-85 336.5v782h397v-762q0 -135 76 -222t196 -87t196.5 87t76.5 222v762h397v-782q0 -188 -85 -336.5t-238 -231t-347 -82.5z" />
    <glyph glyph-name="umacron" unicode="&#x16b;" horiz-adv-x="1286" 
d="M1016 1391v-217h-756v217h756zM786 1059h396v-1059h-396v106q-50 -62 -127.5 -96.5t-171.5 -34.5q-170 0 -279.5 115t-109.5 295v674h377v-582q0 -77 45 -125.5t115 -48.5q66 0 108.5 45.5t42.5 116.5v594z" />
    <glyph glyph-name="Uring" unicode="&#x16e;" horiz-adv-x="1558" 
d="M780 1526q-102 0 -175 73t-73 175t73 174.5t175 72.5q103 0 175.5 -72t72.5 -175t-72.5 -175.5t-175.5 -72.5zM780 1673q41 0 71 30t30 71t-30 70.5t-71 29.5t-70.5 -29.5t-29.5 -70.5t29.5 -71t70.5 -30zM780 -25q-194 0 -346.5 82.5t-237.5 231t-85 336.5v782h397v-762
q0 -135 76 -222t196 -87t196.5 87t76.5 222v762h397v-782q0 -188 -85 -336.5t-238 -231t-347 -82.5z" />
    <glyph glyph-name="uring" unicode="&#x16f;" horiz-adv-x="1286" 
d="M639 1178q-102 0 -175 72.5t-73 174.5t73 175t175 73q103 0 175.5 -72.5t72.5 -175.5t-72.5 -175t-175.5 -72zM639 1526q-41 0 -70.5 -30t-29.5 -71t29.5 -70.5t70.5 -29.5t70.5 29.5t29.5 70.5t-29.5 71t-70.5 30zM786 1059h396v-1059h-396v106q-50 -62 -127.5 -96.5
t-171.5 -34.5q-170 0 -279.5 115t-109.5 295v674h377v-582q0 -77 45 -125.5t115 -48.5q66 0 108.5 45.5t42.5 116.5v594z" />
    <glyph glyph-name="Uhungarumlaut" unicode="&#x170;" horiz-adv-x="1558" 
d="M334 1524l229 336l340 -58l-311 -278h-258zM862 1524l230 336l340 -58l-312 -278h-258zM780 -25q-194 0 -346.5 82.5t-237.5 231t-85 336.5v782h397v-762q0 -135 76 -222t196 -87t196.5 87t76.5 222v762h397v-782q0 -188 -85 -336.5t-238 -231t-347 -82.5z" />
    <glyph glyph-name="uhungarumlaut" unicode="&#x171;" horiz-adv-x="1286" 
d="M782 1454l-311 -278h-258l229 335zM999 1176h-258l230 335l340 -57zM786 465v594h396v-1059h-396v106q-50 -62 -127.5 -96.5t-171.5 -34.5q-170 0 -279.5 115t-109.5 295v674h377v-582q0 -77 45 -125.5t115 -48.5q66 0 108.5 45.5t42.5 116.5z" />
    <glyph glyph-name="Uogonek" unicode="&#x172;" horiz-adv-x="1558" 
d="M1053 1407h397v-782q0 -273 -171.5 -452t-447.5 -196q-18 -21 -18 -51q0 -61 80 -61q38 0 61 20l45 -168q-78 -71 -190 -71q-102 0 -165.5 63.5t-63.5 169.5q0 61 26 115q-226 51 -360.5 221t-134.5 410v782h397v-762q0 -135 76 -222t196 -87t196.5 87t76.5 222v762z" />
    <glyph glyph-name="uogonek" unicode="&#x173;" horiz-adv-x="1286" 
d="M1245 -115l45 -168q-78 -71 -190 -71q-102 0 -166 63.5t-64 169.5q0 67 31 121h-115v106q-50 -62 -127.5 -96.5t-171.5 -34.5q-170 0 -279.5 115t-109.5 295v674h377v-582q0 -77 45 -125.5t115 -48.5q66 0 108.5 45.5t42.5 116.5v594h396v-1059q-35 0 -56.5 -20.5
t-21.5 -53.5q0 -61 80 -61q38 0 61 20z" />
    <glyph glyph-name="Wcircumflex" unicode="&#x174;" horiz-adv-x="2203" 
d="M725 1524l221 315h318l223 -315h-232l-151 137l-150 -137h-229zM408 0l-392 1407h428l172 -813l273 813h428l270 -813l172 813h428l-389 -1407h-401l-293 813l-295 -813h-401z" />
    <glyph glyph-name="wcircumflex" unicode="&#x175;" horiz-adv-x="1734" 
d="M489 1176l222 315h317l223 -315h-231l-152 137l-149 -137h-230zM379 0l-365 1059h379l158 -529l156 529h323l158 -529l155 529h379l-360 -1059h-350l-144 545l-139 -545h-350z" />
    <glyph glyph-name="Ycircumflex" unicode="&#x176;" horiz-adv-x="1452" 
d="M348 1524l221 315h318l223 -315h-231l-152 137l-149 -137h-230zM528 0v463l-540 944h454l285 -571l301 571h436l-538 -944v-463h-398z" />
    <glyph glyph-name="ycircumflex" unicode="&#x177;" horiz-adv-x="1243" 
d="M252 1176l221 315h318l223 -315h-232l-151 137l-150 -137h-229zM412 -369q-80 0 -173 24t-157 62l80 254q99 -59 149 -59q36 0 67 9.5t40 23.5l20 41l-428 1073h404l217 -653l205 653h397l-399 -1067q-65 -170 -176 -265.5t-246 -95.5z" />
    <glyph glyph-name="Ydieresis" unicode="&#x178;" horiz-adv-x="1452" 
d="M498 1526q-76 0 -127.5 52t-51.5 126q0 72 52 124t127 52q72 0 124 -52.5t52 -123.5q0 -73 -52 -125.5t-124 -52.5zM958 1526q-75 0 -126.5 52t-51.5 126q0 71 52 123.5t126 52.5q73 0 125 -52.5t52 -123.5q0 -74 -52 -126t-125 -52zM528 0v463l-540 944h454l285 -571
l301 571h436l-538 -944v-463h-398z" />
    <glyph glyph-name="Zacute" unicode="&#x179;" horiz-adv-x="1382" 
d="M459 1524l229 336l340 -58l-311 -278h-258zM84 0l-2 297l668 756h-652v354h1196v-297l-663 -756h674v-354h-1221z" />
    <glyph glyph-name="zacute" unicode="&#x17a;" horiz-adv-x="1114" 
d="M328 1176l229 335l340 -57l-311 -278h-258zM68 0v272l469 459h-455v328h967l-2 -273l-469 -458h475v-328h-985z" />
    <glyph glyph-name="Zdotaccent" unicode="&#x17b;" horiz-adv-x="1382" 
d="M702 1526q-76 0 -127 52t-51 126q0 72 51.5 124t126.5 52q72 0 124.5 -52.5t52.5 -123.5q0 -73 -52.5 -125.5t-124.5 -52.5zM84 0l-2 297l668 756h-652v354h1196v-297l-663 -756h674v-354h-1221z" />
    <glyph glyph-name="zdotaccent" unicode="&#x17c;" horiz-adv-x="1114" 
d="M571 1178q-76 0 -127 52t-51 126q0 72 51.5 124t126.5 52q72 0 124.5 -52.5t52.5 -123.5q0 -73 -52.5 -125.5t-124.5 -52.5zM68 0v272l469 459h-455v328h967l-2 -273l-469 -458h475v-328h-985z" />
    <glyph glyph-name="Zcaron" unicode="&#x17d;" horiz-adv-x="1382" 
d="M545 1524l-221 315h229l149 -137l152 137h231l-223 -315h-317zM84 0l-2 297l668 756h-652v354h1196v-297l-663 -756h674v-354h-1221z" />
    <glyph glyph-name="zcaron" unicode="&#x17e;" horiz-adv-x="1114" 
d="M414 1176l-221 315h229l149 -137l152 137h231l-223 -315h-317zM68 0v272l469 459h-455v328h967l-2 -273l-469 -458h475v-328h-985z" />
    <glyph glyph-name="uni0237" unicode="&#x237;" horiz-adv-x="622" 
d="M131 -365q-63 0 -131 14t-111 36l37 284q40 -16 97 -16q40 0 65 30.5t25 77.5v998h395v-1047q0 -166 -105.5 -271.5t-271.5 -105.5z" />
    <glyph glyph-name="circumflex" unicode="&#x2c6;" horiz-adv-x="1019" 
d="M129 1176l221 315h318l223 -315h-232l-151 137l-150 -137h-229z" />
    <glyph glyph-name="caron" unicode="&#x2c7;" horiz-adv-x="1019" 
d="M350 1176l-221 315h229l150 -137l151 137h232l-223 -315h-318z" />
    <glyph glyph-name="breve" unicode="&#x2d8;" horiz-adv-x="958" 
d="M479 1178q-202 0 -350 145l152 152q89 -89 198 -89q110 0 199 89l151 -152q-71 -71 -162 -108t-188 -37z" />
    <glyph glyph-name="dotaccent" unicode="&#x2d9;" horiz-adv-x="612" 
d="M307 1178q-76 0 -127 52t-51 126q0 72 51.5 124t126.5 52q72 0 124 -52.5t52 -123.5q0 -73 -52 -125.5t-124 -52.5z" />
    <glyph glyph-name="ring" unicode="&#x2da;" horiz-adv-x="753" 
d="M377 1178q-102 0 -175 72.5t-73 174.5t73 175t175 73q103 0 175.5 -72.5t72.5 -175.5t-72.5 -175t-175.5 -72zM377 1325q41 0 70.5 29.5t29.5 70.5t-29.5 71t-70.5 30t-71 -30t-30 -71t30 -70.5t71 -29.5z" />
    <glyph glyph-name="ogonek" unicode="&#x2db;" horiz-adv-x="677" 
d="M358 -354q-102 0 -165.5 63.5t-63.5 169.5q0 127 104 199l207 -78q-35 0 -56.5 -20.5t-21.5 -53.5q0 -61 80 -61q39 0 62 20l45 -168q-78 -71 -191 -71z" />
    <glyph glyph-name="tilde" unicode="&#x2dc;" horiz-adv-x="899" 
d="M592 1169q-49 0 -105 21t-101.5 42t-66.5 21q-58 0 -75 -86l-185 27q17 148 77 218.5t171 70.5q48 0 104.5 -21t102.5 -42t66 -21q57 0 75 86l185 -27q-15 -147 -75.5 -218t-172.5 -71z" />
    <glyph glyph-name="hungarumlaut" unicode="&#x2dd;" horiz-adv-x="1355" 
d="M129 1176l229 335l340 -57l-311 -278h-258zM657 1176l230 335l340 -57l-312 -278h-258z" />
    <glyph glyph-name="uni0326" unicode="&#x326;" horiz-adv-x="0" 
d="M-336 -616l-94 73q81 65 100 144q-67 0 -116.5 51.5t-49.5 122.5q0 73 50.5 125.5t121.5 52.5q78 0 128.5 -66.5t50.5 -167.5q0 -85 -50 -172.5t-141 -162.5z" />
    <glyph glyph-name="Wgrave" unicode="&#x1e80;" horiz-adv-x="2203" 
d="M977 1524l-311 278l340 58l229 -336h-258zM408 0l-392 1407h428l172 -813l273 813h428l270 -813l172 813h428l-389 -1407h-401l-293 813l-295 -813h-401z" />
    <glyph glyph-name="wgrave" unicode="&#x1e81;" horiz-adv-x="1734" 
d="M743 1176l-311 278l340 57l229 -335h-258zM379 0l-365 1059h379l158 -529l156 529h323l158 -529l155 529h379l-360 -1059h-350l-144 545l-139 -545h-350z" />
    <glyph glyph-name="Wacute" unicode="&#x1e82;" horiz-adv-x="2203" 
d="M967 1524l229 336l340 -58l-311 -278h-258zM408 0l-392 1407h428l172 -813l273 813h428l270 -813l172 813h428l-389 -1407h-401l-293 813l-295 -813h-401z" />
    <glyph glyph-name="wacute" unicode="&#x1e83;" horiz-adv-x="1734" 
d="M737 1176l230 335l340 -57l-312 -278h-258zM379 0l-365 1059h379l158 -529l156 529h323l158 -529l155 529h379l-360 -1059h-350l-144 545l-139 -545h-350z" />
    <glyph glyph-name="Wdieresis" unicode="&#x1e84;" horiz-adv-x="2203" 
d="M874 1526q-76 0 -127 52t-51 126q0 72 51.5 124t126.5 52q72 0 124.5 -52.5t52.5 -123.5q0 -73 -52.5 -125.5t-124.5 -52.5zM1335 1526q-75 0 -126.5 52t-51.5 126q0 71 52 123.5t126 52.5q73 0 124.5 -52.5t51.5 -123.5q0 -74 -51.5 -126t-124.5 -52zM408 0l-392 1407
h428l172 -813l273 813h428l270 -813l172 813h428l-389 -1407h-401l-293 813l-295 -813h-401z" />
    <glyph glyph-name="wdieresis" unicode="&#x1e85;" horiz-adv-x="1734" 
d="M639 1178q-76 0 -127 52t-51 126q0 72 51.5 124t126.5 52q72 0 124 -52.5t52 -123.5q0 -73 -52 -125.5t-124 -52.5zM1100 1178q-75 0 -126.5 52t-51.5 126q0 71 52 123.5t126 52.5q73 0 124.5 -52.5t51.5 -123.5q0 -74 -51.5 -126t-124.5 -52zM379 0l-365 1059h379
l158 -529l156 529h323l158 -529l155 529h379l-360 -1059h-350l-144 545l-139 -545h-350z" />
    <glyph glyph-name="uni1EB8" unicode="&#x1eb8;" horiz-adv-x="1333" 
d="M1255 1053h-735v-158h670v-354h-670v-187h735v-354h-1132v1407h1132v-354zM692 -131q72 0 124 -52.5t52 -123.5q0 -73 -52 -125.5t-124 -52.5q-76 0 -127 52t-51 126q0 72 51.5 124t126.5 52z" />
    <glyph glyph-name="uni1EB9" unicode="&#x1eb9;" horiz-adv-x="1208" 
d="M614 270q124 0 236 88l217 -219q-71 -72 -193 -118t-243 -46q-253 0 -414.5 156t-161.5 401q0 243 156.5 397t402.5 154q255 0 398 -170.5t143 -476.5h-749q24 -76 79 -121t129 -45zM614 788q-69 0 -122 -39t-80 -106h385q-22 67 -70.5 106t-112.5 39zM606 -131
q72 0 124 -52.5t52 -123.5q0 -73 -52 -125.5t-124 -52.5q-76 0 -127 52t-51 126q0 72 51.5 124t126.5 52z" />
    <glyph glyph-name="uni1EBC" unicode="&#x1ebc;" horiz-adv-x="1333" 
d="M559 1602q-59 0 -76 -86l-184 26q17 148 77 218.5t171 70.5q48 0 104.5 -21t102 -42t65.5 -21q58 0 76 86l184 -27q-15 -147 -75.5 -217.5t-172.5 -70.5q-49 0 -105 21t-101 42t-66 21zM1255 1053h-735v-158h670v-354h-670v-187h735v-354h-1132v1407h1132v-354z" />
    <glyph glyph-name="uni1EBD" unicode="&#x1ebd;" horiz-adv-x="1208" 
d="M483 1253q-58 0 -75 -86l-185 27q17 148 77 218.5t171 70.5q48 0 104.5 -21t102 -42t65.5 -21q58 0 76 86l185 -27q-15 -147 -75.5 -218t-172.5 -71q-49 0 -105 21t-101.5 42t-66.5 21zM614 270q124 0 236 88l217 -219q-71 -72 -193 -118t-243 -46q-253 0 -414.5 156
t-161.5 401q0 243 156.5 397t402.5 154q255 0 398 -170.5t143 -476.5h-749q24 -76 79 -121t129 -45zM614 788q-69 0 -122 -39t-80 -106h385q-22 67 -70.5 106t-112.5 39z" />
    <glyph glyph-name="Ygrave" unicode="&#x1ef2;" horiz-adv-x="1452" 
d="M692 1524l-311 278l340 58l229 -336h-258zM528 0v463l-540 944h454l285 -571l301 571h436l-538 -944v-463h-398z" />
    <glyph glyph-name="ygrave" unicode="&#x1ef3;" horiz-adv-x="1243" 
d="M596 1176l-311 278l340 57l229 -335h-258zM412 -369q-80 0 -173 24t-157 62l80 254q99 -59 149 -59q36 0 67 9.5t40 23.5l20 41l-428 1073h404l217 -653l205 653h397l-399 -1067q-65 -170 -176 -265.5t-246 -95.5z" />
    <glyph glyph-name="endash" unicode="&#x2013;" horiz-adv-x="1161" 
d="M78 410v319h1005v-319h-1005z" />
    <glyph glyph-name="emdash" unicode="&#x2014;" horiz-adv-x="1785" 
d="M78 410v319h1630v-319h-1630z" />
    <glyph glyph-name="quoteleft" unicode="&#x2018;" horiz-adv-x="638" 
d="M336 1442l129 -99q-108 -85 -137 -194q92 0 158.5 -69.5t66.5 -164.5q0 -98 -68.5 -168.5t-162.5 -70.5q-106 0 -174 88.5t-68 226.5q0 113 67.5 231.5t188.5 219.5z" />
    <glyph glyph-name="quoteright" unicode="&#x2019;" horiz-adv-x="638" 
d="M303 678l-129 98q108 85 137 195q-92 0 -158.5 69t-66.5 164q0 98 68.5 169t162.5 71q106 0 174 -89t68 -227q0 -112 -67 -230.5t-189 -219.5z" />
    <glyph glyph-name="quotedblleft" unicode="&#x201c;" horiz-adv-x="1253" 
d="M336 1442l129 -99q-108 -85 -137 -194q92 0 158.5 -69.5t66.5 -164.5q0 -98 -68.5 -168.5t-162.5 -70.5q-106 0 -174 88.5t-68 226.5q0 113 67.5 231.5t188.5 219.5zM950 1442l129 -99q-108 -85 -137 -194q92 0 158.5 -69.5t66.5 -164.5q0 -98 -68.5 -168.5t-162.5 -70.5
q-106 0 -174 88.5t-68 226.5q0 113 67.5 231.5t188.5 219.5z" />
    <glyph glyph-name="quotedblright" unicode="&#x201d;" horiz-adv-x="1253" 
d="M303 678l-129 98q108 85 137 195q-92 0 -158.5 69t-66.5 164q0 98 68.5 169t162.5 71q106 0 174 -89t68 -227q0 -112 -67 -230.5t-189 -219.5zM918 678l-130 98q109 86 138 195q-92 0 -159 69t-67 164q0 98 69 169t163 71q106 0 174 -89t68 -227q0 -112 -67 -230.5
t-189 -219.5z" />
    <glyph glyph-name="ellipsis" unicode="&#x2026;" horiz-adv-x="1873" 
d="M328 -25q-102 0 -172 71t-70 171q0 94 70.5 163t171.5 69q94 0 162.5 -69.5t68.5 -162.5q0 -100 -68 -171t-163 -71zM942 -25q-102 0 -172 71t-70 171q0 94 70.5 163t171.5 69q95 0 163.5 -69.5t68.5 -162.5q0 -100 -68.5 -171t-163.5 -71zM1556 -25q-102 0 -171.5 70.5
t-69.5 171.5q0 94 70 163t171 69q95 0 163.5 -69.5t68.5 -162.5q0 -100 -68.5 -171t-163.5 -71z" />
    <glyph glyph-name="perthousand" unicode="&#x2030;" horiz-adv-x="2568" 
d="M430 692q-162 0 -264.5 104t-102.5 261q0 154 101.5 259t265.5 105q165 0 267 -104.5t102 -259.5q0 -157 -103 -261t-266 -104zM256 0l989 1407h271l-990 -1407h-270zM430 911q53 0 86 38.5t33 107.5q0 66 -33.5 104.5t-85.5 38.5t-84.5 -38t-32.5 -105t33 -106.5
t84 -39.5zM1339 -23q-164 0 -266 105.5t-102 259.5q0 157 103 262t265 105q164 0 265.5 -105.5t101.5 -261.5t-103 -260.5t-264 -104.5zM2138 -23q-164 0 -266.5 105.5t-102.5 259.5q0 157 103.5 262t265.5 105q164 0 265.5 -105.5t101.5 -261.5t-103 -260.5t-264 -104.5z
M1339 199q53 0 86 38t33 105t-34 106t-85 39q-54 0 -86 -37.5t-32 -107.5q0 -66 33 -104.5t85 -38.5zM2138 199q53 0 86 38t33 105t-34 106t-85 39q-54 0 -86.5 -37.5t-32.5 -107.5q0 -66 33.5 -104.5t85.5 -38.5z" />
    <glyph glyph-name="Euro" unicode="&#x20ac;" horiz-adv-x="1445" 
d="M836 336q82 0 154.5 38t125.5 105l291 -254q-108 -117 -256.5 -183.5t-314.5 -66.5q-255 0 -460.5 150.5t-275.5 380.5h-123v158h95q-2 14 -2 41q0 39 2 57h-95v158h127q76 223 279 367.5t453 144.5q166 0 314.5 -66t256.5 -182l-293 -256q-51 66 -124 104.5t-154 38.5
q-85 0 -161 -40.5t-126 -110.5h383v-158h-449q-4 -36 -4 -57q0 -27 2 -41h451v-158h-395q51 -78 129.5 -124t169.5 -46z" />
    <glyph glyph-name="minus" unicode="&#x2212;" horiz-adv-x="1247" 
d="M113 530v306h1022v-306h-1022z" />
    <glyph glyph-name="a.alt" 
d="M881 1059h395v-1059h-395v125q-134 -150 -338 -150q-214 0 -350 155.5t-136 399.5q0 243 136 398t350 155q205 0 338 -149v125zM668 303q94 0 153.5 63.5t59.5 163.5q0 99 -60 162.5t-153 63.5q-103 0 -168.5 -64t-65.5 -162q0 -100 65.5 -163.5t168.5 -63.5z" />
    <glyph glyph-name="aacute.alt" 
d="M1032 1454l-311 -278h-258l229 335zM881 1059h395v-1059h-395v125q-134 -150 -338 -150q-214 0 -350 155.5t-136 399.5q0 243 136 398t350 155q205 0 338 -149v125zM668 303q94 0 153.5 63.5t59.5 163.5q0 99 -60 162.5t-153 63.5q-103 0 -168.5 -64t-65.5 -162
q0 -100 65.5 -163.5t168.5 -63.5z" />
    <glyph glyph-name="abreve.alt" 
d="M1057 1323q-71 -71 -162 -108t-188 -37q-203 0 -351 145l152 152q89 -89 199 -89q109 0 198 89zM881 1059h395v-1059h-395v125q-134 -150 -338 -150q-214 0 -350 155.5t-136 399.5q0 243 136 398t350 155q205 0 338 -149v125zM668 303q94 0 153.5 63.5t59.5 163.5
q0 99 -60 162.5t-153 63.5q-103 0 -168.5 -64t-65.5 -162q0 -100 65.5 -163.5t168.5 -63.5z" />
    <glyph glyph-name="acircumflex.alt" 
d="M707 1313l-150 -137h-229l221 315h317l224 -315h-232zM881 1059h395v-1059h-395v125q-134 -150 -338 -150q-214 0 -350 155.5t-136 399.5q0 243 136 398t350 155q205 0 338 -149v125zM668 303q94 0 153.5 63.5t59.5 163.5q0 99 -60 162.5t-153 63.5q-103 0 -168.5 -64
t-65.5 -162q0 -100 65.5 -163.5t168.5 -63.5z" />
    <glyph glyph-name="adieresis.alt" 
d="M477 1178q-76 0 -127 52t-51 126q0 72 51.5 124t126.5 52q72 0 124 -52.5t52 -123.5q0 -73 -52 -125.5t-124 -52.5zM938 1178q-75 0 -126.5 52t-51.5 126q0 71 52 123.5t126 52.5q73 0 124.5 -52.5t51.5 -123.5q0 -74 -51.5 -126t-124.5 -52zM881 1059h395v-1059h-395
v125q-134 -150 -338 -150q-214 0 -350 155.5t-136 399.5q0 243 136 398t350 155q205 0 338 -149v125zM668 303q94 0 153.5 63.5t59.5 163.5q0 99 -60 162.5t-153 63.5q-103 0 -168.5 -64t-65.5 -162q0 -100 65.5 -163.5t168.5 -63.5z" />
    <glyph glyph-name="agrave.alt" 
d="M930 1176h-258l-312 278l340 57zM881 1059h395v-1059h-395v125q-134 -150 -338 -150q-214 0 -350 155.5t-136 399.5q0 243 136 398t350 155q205 0 338 -149v125zM668 303q94 0 153.5 63.5t59.5 163.5q0 99 -60 162.5t-153 63.5q-103 0 -168.5 -64t-65.5 -162
q0 -100 65.5 -163.5t168.5 -63.5z" />
    <glyph glyph-name="amacron.alt" 
d="M1083 1391v-217h-755v217h755zM881 1059h395v-1059h-395v125q-134 -150 -338 -150q-214 0 -350 155.5t-136 399.5q0 243 136 398t350 155q205 0 338 -149v125zM668 303q94 0 153.5 63.5t59.5 163.5q0 99 -60 162.5t-153 63.5q-103 0 -168.5 -64t-65.5 -162
q0 -100 65.5 -163.5t168.5 -63.5z" />
    <glyph glyph-name="aogonek.alt" 
d="M1339 -115l45 -168q-78 -71 -190 -71q-102 0 -165.5 63.5t-63.5 169.5q0 69 30 121h-114v125q-134 -150 -338 -150q-214 0 -350 155.5t-136 399.5q0 243 136 398t350 155q205 0 338 -149v125h395v-1059q-35 0 -56.5 -20.5t-21.5 -53.5q0 -61 80 -61q38 0 61 20zM668 303
q94 0 153.5 63.5t59.5 163.5q0 99 -60 162.5t-153 63.5q-103 0 -168.5 -64t-65.5 -162q0 -100 65.5 -163.5t168.5 -63.5z" />
    <glyph glyph-name="aring.alt" 
d="M707 1178q-102 0 -175 72.5t-73 174.5t73 175t175 73q103 0 175 -72.5t72 -175.5t-72 -175t-175 -72zM707 1526q-41 0 -71 -30t-30 -71t30 -70.5t71 -29.5t70.5 29.5t29.5 70.5t-29.5 71t-70.5 30zM881 1059h395v-1059h-395v125q-134 -150 -338 -150q-214 0 -350 155.5
t-136 399.5q0 243 136 398t350 155q205 0 338 -149v125zM668 303q94 0 153.5 63.5t59.5 163.5q0 99 -60 162.5t-153 63.5q-103 0 -168.5 -64t-65.5 -162q0 -100 65.5 -163.5t168.5 -63.5z" />
    <glyph glyph-name="atilde.alt" 
d="M575 1253q-58 0 -75 -86l-185 27q17 148 77 218.5t171 70.5q48 0 104.5 -21t102.5 -42t66 -21q57 0 75 86l185 -27q-15 -147 -75.5 -218t-172.5 -71q-49 0 -105 21t-101.5 42t-66.5 21zM881 1059h395v-1059h-395v125q-134 -150 -338 -150q-214 0 -350 155.5t-136 399.5
q0 243 136 398t350 155q205 0 338 -149v125zM668 303q94 0 153.5 63.5t59.5 163.5q0 99 -60 162.5t-153 63.5q-103 0 -168.5 -64t-65.5 -162q0 -100 65.5 -163.5t168.5 -63.5z" />
    <glyph glyph-name="ascender" 
d="M104 0v1432h396v-1432h-396z" />
    <glyph glyph-name="descender" 
d="M104 -352v1411h396v-1411h-396z" />
    </font>
</defs>
</svg>
