<?xml version="1.0" standalone="no"?>
<!DOCTYPE svg PUBLIC "-//W3C//DTD SVG 1.1//EN" "http://www.w3.org/Graphics/SVG/1.1/DTD/svg11.dtd" >
<svg xmlns="http://www.w3.org/2000/svg" xmlns:xlink="http://www.w3.org/1999/xlink" version="1.1">
<metadata>
Created by FontForge 20170731 at Wed Jan  5 16:17:04 2022
 By Aleksey,,,
Copyright (c) 2016 by Chris Simpson.
</metadata>
<defs>
<font id="Metropolis-Bold" horiz-adv-x="1351" >
  <font-face 
    font-family="Metropolis"
    font-weight="700"
    font-stretch="normal"
    units-per-em="2048"
    panose-1="0 0 8 0 0 0 0 0 0 0"
    ascent="1628"
    descent="-420"
    x-height="1059"
    cap-height="1407"
    bbox="-440 -596 2421 2003"
    underline-thickness="40"
    underline-position="-312"
    unicode-range="U+0020-2212"
  />
<missing-glyph horiz-adv-x="1024" 
d="M840 1628v-2048h-650v2048h650zM682 1491h-338v-68h133v-75h-135v-68h340v68h-135v75h135v68zM547 1227h-205v-213h340v69h-135v144zM477 1157v-74h-67v74h67zM682 958h-340v-67h135v-76h-135v-67h205v143h135v67zM682 836h-68v-136h-272v-69h340v205zM682 586h-205v-115
h70v47h67v-96h-204v164h-68v-232h340v232zM682 231h-340v-231h340v231zM614 164v-96h-204v96h204zM682 -47h-340v-68h143l-143 -96v-68h340v68h-209l143 96h66v68z" />
    <glyph glyph-name=".notdef" horiz-adv-x="1024" 
d="M840 1628v-2048h-650v2048h650zM682 1491h-338v-68h133v-75h-135v-68h340v68h-135v75h135v68zM547 1227h-205v-213h340v69h-135v144zM477 1157v-74h-67v74h67zM682 958h-340v-67h135v-76h-135v-67h205v143h135v67zM682 836h-68v-136h-272v-69h340v205zM682 586h-205v-115
h70v47h67v-96h-204v164h-68v-232h340v232zM682 231h-340v-231h340v231zM614 164v-96h-204v96h204zM682 -47h-340v-68h143l-143 -96v-68h340v68h-209l143 96h66v68z" />
    <glyph glyph-name=".null" horiz-adv-x="0" 
 />
    <glyph glyph-name="nonmarkingreturn" horiz-adv-x="682" 
 />
    <glyph glyph-name="space" unicode=" " horiz-adv-x="571" 
 />
    <glyph glyph-name="exclam" unicode="!" horiz-adv-x="628" 
d="M217 496l-67 911h337l-67 -911h-203zM317 -25q-79 0 -134.5 56.5t-55.5 134.5q0 73 55.5 127.5t134.5 54.5q74 0 128.5 -54.5t54.5 -127.5q0 -78 -54 -134.5t-129 -56.5z" />
    <glyph glyph-name="quotedbl" unicode="&#x22;" horiz-adv-x="1056" 
d="M223 807q-96 324 -96 453q0 66 46.5 112.5t109.5 46.5t109 -46.5t46 -112.5q0 -129 -96 -453h-119zM715 807q-97 328 -97 453q0 66 46.5 112.5t109.5 46.5t109.5 -46.5t46.5 -112.5q0 -129 -96 -453h-119z" />
    <glyph glyph-name="numbersign" unicode="#" horiz-adv-x="1382" 
d="M1266 862h-199l-80 -319h197l-51 -215h-201l-82 -328h-221l82 328h-236l-82 -328h-219l82 328h-193l54 215h194l80 319h-198l53 215h198l84 330h220l-84 -330h235l84 330h221l-84 -330h199zM766 543l80 319h-236l-80 -319h236z" />
    <glyph glyph-name="dollar" unicode="$" horiz-adv-x="1296" 
d="M1219 422q0 -189 -127 -308.5t-353 -136.5v-129h-198v136q-292 38 -494 225l174 207q152 -130 320 -168v340q-105 27 -177 57t-133.5 76.5t-91.5 114t-30 157.5q0 174 118 291.5t314 142.5v127h198v-129q251 -25 441 -188l-158 -217q-127 104 -283 141v-327
q93 -21 161.5 -43.5t131.5 -56.5t102 -76t62 -101.5t23 -134.5zM414 1024q0 -51 29.5 -82.5t97.5 -54.5v278q-59 -15 -93 -53t-34 -88zM739 236q84 10 129 52t45 101q0 57 -39 90t-135 60v-303z" />
    <glyph glyph-name="percent" unicode="%" horiz-adv-x="1714" 
d="M426 700q-154 0 -252 103t-98 256q0 155 98 258.5t254 103.5t253 -103.5t97 -256.5q0 -154 -98.5 -257.5t-253.5 -103.5zM260 0l979 1407h217l-979 -1407h-217zM428 877q66 0 108 50.5t42 133.5q0 81 -42.5 131.5t-109.5 50.5q-65 0 -106 -50t-41 -132t42.5 -133
t106.5 -51zM1286 -23q-156 0 -254 104t-98 257t98.5 256.5t253.5 103.5t252.5 -104t97.5 -256q0 -154 -99 -257.5t-251 -103.5zM1286 156q67 0 108.5 49.5t41.5 132.5q0 82 -43 133t-107 51q-68 0 -109.5 -50t-41.5 -134q0 -81 42.5 -131.5t108.5 -50.5z" />
    <glyph glyph-name="ampersand" unicode="&#x26;" horiz-adv-x="1390" 
d="M1335 78l-245 -111l-150 156q-184 -148 -410 -148q-207 0 -340 110t-133 298q0 138 72 231.5t233 165.5q-56 82 -78 145.5t-22 141.5q0 148 116.5 253t283.5 105q171 0 284 -101.5t113 -254.5q0 -115 -74 -190.5t-248 -155.5q89 -105 217 -242q84 123 138 258l217 -102
q-99 -200 -195 -326zM666 1210q-62 0 -105 -40.5t-43 -102.5q0 -46 21.5 -88t68.5 -102q107 43 150 83t43 107q0 62 -37.5 102.5t-97.5 40.5zM567 203q101 0 215 86q-143 150 -288 319q-140 -83 -140 -205q0 -91 61 -145.5t152 -54.5z" />
    <glyph glyph-name="quotesingle" unicode="'" horiz-adv-x="565" 
d="M223 807q-96 324 -96 453q0 66 46.5 112.5t109.5 46.5t109 -46.5t46 -112.5q0 -129 -96 -453h-119z" />
    <glyph glyph-name="parenleft" unicode="(" horiz-adv-x="784" 
d="M563 -348q-219 157 -339 389t-120 502q0 272 119.5 502.5t339.5 388.5l152 -160q-163 -167 -238.5 -339.5t-75.5 -391.5q0 -218 76 -391t238 -338z" />
    <glyph glyph-name="parenright" unicode=")" horiz-adv-x="784" 
d="M223 -348l-151 162q161 165 236 338t75 391q0 219 -75 391.5t-236 339.5l151 160q219 -158 339 -389t120 -502q0 -270 -120.5 -501.5t-338.5 -389.5z" />
    <glyph glyph-name="asterisk" unicode="*" horiz-adv-x="815" 
d="M408 707q-32 0 -55 21t-23 50q0 42 20 127t23 109q-23 -18 -84.5 -76.5t-95.5 -79.5q-25 -14 -55.5 -4.5t-47.5 37.5q-15 29 -7.5 58.5t32.5 43.5q35 21 117.5 45.5t105.5 34.5q-23 10 -105.5 34.5t-117.5 45.5q-25 14 -32.5 44t7.5 58q17 29 47.5 38.5t55.5 -5.5
q34 -21 95.5 -79.5t84.5 -75.5q-4 26 -24.5 109.5t-20.5 125.5q0 30 23.5 51t56.5 21q32 0 54.5 -21.5t22.5 -50.5q0 -42 -20.5 -125.5t-24.5 -109.5q23 17 85 75.5t96 79.5q25 14 55 4.5t47 -37.5q15 -29 8.5 -59t-31.5 -43q-36 -21 -118 -45t-107 -35q24 -10 106.5 -34.5
t118.5 -45.5q25 -13 31.5 -43.5t-8.5 -58.5q-17 -29 -47 -38.5t-55 5.5q-34 21 -96 80t-85 76q3 -26 24 -110t21 -126q0 -29 -22.5 -50t-54.5 -21z" />
    <glyph glyph-name="plus" unicode="+" horiz-adv-x="1234" 
d="M1112 805v-244h-364v-373h-259v373h-366v244h366v373h259v-373h364z" />
    <glyph glyph-name="comma" unicode="," horiz-adv-x="600" 
d="M276 -299l-106 82q96 87 125 192q-73 0 -126.5 55t-53.5 130q0 77 54 132.5t130 55.5q86 0 140.5 -71.5t54.5 -184.5q0 -182 -218 -391z" />
    <glyph glyph-name="hyphen" unicode="-" horiz-adv-x="745" 
d="M92 436v254h561v-254h-561z" />
    <glyph glyph-name="period" unicode="." horiz-adv-x="593" 
d="M301 -25q-79 0 -134.5 56.5t-55.5 134.5q0 73 55.5 127.5t134.5 54.5q74 0 128 -54.5t54 -127.5q0 -78 -53.5 -134.5t-128.5 -56.5z" />
    <glyph glyph-name="slash" unicode="/" horiz-adv-x="946" 
d="M-49 -152l706 1674h316l-707 -1674h-315z" />
    <glyph glyph-name="zero" unicode="0" horiz-adv-x="1445" 
d="M723 -25q-183 0 -327 92.5t-224 259t-80 378.5q0 211 80 376.5t224 258t327 92.5t327.5 -92.5t225 -258.5t80.5 -376q0 -211 -80.5 -378t-225 -259.5t-327.5 -92.5zM723 250q142 0 231.5 128t89.5 327t-89.5 325.5t-231.5 126.5q-141 0 -231.5 -127t-90.5 -325
t90.5 -326.5t231.5 -128.5z" />
    <glyph glyph-name="one" unicode="1" horiz-adv-x="849" 
d="M389 0v1061l-239 -150l-121 213l422 283h241v-1407h-303z" />
    <glyph glyph-name="two" unicode="2" horiz-adv-x="1251" 
d="M90 0v246l518 401q122 96 171.5 171.5t49.5 152.5q0 85 -61.5 135.5t-151.5 50.5q-99 0 -181 -47t-163 -139l-192 186q217 275 545 275q225 0 370.5 -126t145.5 -323q0 -145 -74 -263t-254 -249l-256 -199h596v-272h-1063z" />
    <glyph glyph-name="three" unicode="3" horiz-adv-x="1241" 
d="M618 -27q-182 0 -326 64.5t-239 173.5l178 201q74 -80 170.5 -123t202.5 -43q115 0 180.5 47.5t65.5 124.5q0 165 -275 162h-161v258l161 -2q116 0 181 41t65 116q0 76 -65 122t-170 46q-175 0 -332 -164l-174 185q207 250 534 250q235 0 375.5 -107.5t140.5 -277.5
q0 -118 -72.5 -203.5t-191.5 -120.5q126 -29 210.5 -114t84.5 -216q0 -185 -149.5 -302.5t-393.5 -117.5z" />
    <glyph glyph-name="four" unicode="4" horiz-adv-x="1327" 
d="M766 0v287h-686l-29 233l651 885h367v-864h186v-254h-186v-287h-303zM369 541h397v544z" />
    <glyph glyph-name="five" unicode="5" horiz-adv-x="1265" 
d="M618 -27q-327 0 -544 217l178 213q172 -165 369 -165q116 0 186 61t70 154q0 92 -69.5 148t-184.5 56q-150 0 -273 -92l-203 82l21 760h932v-272h-654l-8 -312q123 86 275 86q94 0 178 -30t148 -85t101.5 -140.5t37.5 -190.5q0 -223 -153.5 -356.5t-406.5 -133.5z" />
    <glyph glyph-name="six" unicode="6" horiz-adv-x="1316" 
d="M750 909q131 0 238 -52.5t172 -155t65 -238.5q0 -215 -153.5 -351.5t-385.5 -136.5q-151 0 -266.5 52t-187.5 147t-108 222.5t-36 283.5q0 218 79.5 388.5t227 267t338.5 96.5q242 0 432 -152l-143 -229q-69 57 -136 85.5t-151 28.5q-136 0 -225 -104.5t-109 -284.5
q66 63 157.5 98t191.5 35zM670 231q108 0 175.5 64.5t67.5 153.5q0 98 -72 156.5t-179 58.5q-87 0 -154 -44t-98 -120q21 -134 83 -201.5t177 -67.5z" />
    <glyph glyph-name="seven" unicode="7" horiz-adv-x="1236" 
d="M233 0l560 1135h-697v272h1047v-227l-568 -1180h-342z" />
    <glyph glyph-name="eight" unicode="8" horiz-adv-x="1277" 
d="M639 -25q-157 0 -284 46.5t-204 139.5t-77 216q0 121 75 212t201 138q-111 47 -175 127.5t-64 194.5q0 119 75.5 208t194 132t258.5 43q143 0 262 -44.5t193.5 -133t74.5 -205.5q0 -218 -241 -322q128 -51 202 -141.5t74 -208.5q0 -124 -77.5 -217t-204.5 -139t-283 -46z
M639 831q90 6 159.5 55.5t69.5 123.5q0 73 -64 120.5t-165 47.5q-100 0 -163.5 -47.5t-63.5 -120.5q0 -77 68 -124.5t159 -54.5zM639 229q113 0 186.5 51t73.5 130q0 78 -80.5 129.5t-179.5 54.5q-62 -2 -120 -24t-98 -64.5t-40 -95.5q0 -79 72.5 -130t185.5 -51z" />
    <glyph glyph-name="nine" unicode="9" horiz-adv-x="1316" 
d="M631 1432q151 0 266.5 -52t187.5 -147t108 -222.5t36 -283.5q0 -218 -79.5 -388.5t-227 -267t-338.5 -96.5q-242 0 -432 152l143 229q69 -57 136 -85.5t151 -28.5q136 0 224.5 104.5t108.5 284.5q-66 -63 -157 -98t-191 -35q-131 0 -238 52.5t-172 155t-65 238.5
q0 215 153.5 351.5t385.5 136.5zM655 743q87 0 154 44t98 120q-21 134 -83 201.5t-177 67.5q-109 0 -176.5 -64.5t-67.5 -153.5q0 -98 72.5 -156.5t179.5 -58.5z" />
    <glyph glyph-name="colon" unicode=":" horiz-adv-x="593" 
d="M301 715q-79 0 -134.5 56t-55.5 134q0 73 55.5 127.5t134.5 54.5q74 0 128 -54.5t54 -127.5q0 -78 -53.5 -134t-128.5 -56zM301 -25q-79 0 -134.5 56.5t-55.5 134.5q0 73 55.5 127.5t134.5 54.5q74 0 128 -54.5t54 -127.5q0 -78 -53.5 -134.5t-128.5 -56.5z" />
    <glyph glyph-name="semicolon" unicode=";" horiz-adv-x="600" 
d="M305 715q-79 0 -134.5 56t-55.5 134q0 73 55.5 127.5t134.5 54.5q74 0 128 -54.5t54 -127.5q0 -78 -53.5 -134t-128.5 -56zM276 -299l-106 82q96 87 125 192q-73 0 -126.5 55t-53.5 130q0 77 54 132.5t130 55.5q86 0 140.5 -71.5t54.5 -184.5q0 -182 -218 -391z" />
    <glyph glyph-name="less" unicode="&#x3c;" horiz-adv-x="1214" 
d="M1069 168l-956 418v235l956 418v-242l-719 -295l719 -290v-244z" />
    <glyph glyph-name="equal" unicode="=" horiz-adv-x="1234" 
d="M123 803v244h989v-244h-989zM123 336v244h989v-244h-989z" />
    <glyph glyph-name="greater" unicode="&#x3e;" horiz-adv-x="1214" 
d="M145 168v244l719 290l-719 295v242l957 -418v-235z" />
    <glyph glyph-name="question" unicode="?" horiz-adv-x="1034" 
d="M346 483v336q141 6 231.5 57t90.5 125q0 67 -57 113.5t-148 46.5q-72 0 -139 -34.5t-119 -92.5l-172 176q198 222 481 222q203 0 332 -114t129 -288q0 -138 -102.5 -250t-260.5 -149v-148h-266zM479 -25q-79 0 -134.5 56.5t-55.5 134.5q0 73 55.5 127.5t134.5 54.5
q74 0 128.5 -54.5t54.5 -127.5q0 -78 -54 -134.5t-129 -56.5z" />
    <glyph glyph-name="at" unicode="@" horiz-adv-x="1802" 
d="M870 -238q-162 0 -307.5 61t-249 164t-164.5 245.5t-61 299.5q0 171 68.5 328t184 272t275 183.5t332.5 68.5q160 0 303 -58t243.5 -155t159 -227.5t58.5 -271.5q0 -127 -37 -229.5t-98 -164t-132.5 -94t-146.5 -32.5q-101 0 -165.5 43t-88.5 118q-59 -74 -137 -116.5
t-166 -42.5q-154 0 -249 102.5t-95 267.5q0 137 65 256t170.5 187.5t223.5 68.5q182 0 270 -147l25 119l246 -19q-17 -88 -36.5 -185t-30 -149t-20.5 -104t-14 -82.5t-4 -52.5q0 -54 30 -83.5t81 -29.5q91 0 157 95.5t66 273.5q0 130 -52 246t-141.5 201t-216.5 134.5
t-272 49.5q-157 0 -300 -61.5t-246.5 -165t-164.5 -245.5t-61 -296q0 -142 54 -270t147 -221t223.5 -147.5t277.5 -54.5q124 0 228.5 30.5t210.5 94.5l41 -63q-222 -142 -484 -142zM829 360q98 0 165.5 76t78.5 193q9 92 -34 146t-128 54q-108 0 -183 -84.5t-75 -199.5
q0 -86 48 -135.5t128 -49.5z" />
    <glyph glyph-name="A" unicode="A" horiz-adv-x="1538" 
d="M1171 0l-90 221h-626l-90 -221h-338l573 1407h338l573 -1407h-340zM559 477h418l-209 514z" />
    <glyph glyph-name="B" unicode="B" horiz-adv-x="1431" 
d="M152 0v1407h712q188 0 307 -99t119 -253q0 -211 -196 -314q123 -56 190.5 -149.5t67.5 -210.5q0 -168 -129.5 -274.5t-331.5 -106.5h-739zM453 840h335q85 0 139 43.5t54 111.5q0 66 -54.5 110t-138.5 44h-335v-309zM453 258h383q91 0 148.5 48.5t57.5 123.5t-57.5 123.5
t-148.5 48.5h-383v-344z" />
    <glyph glyph-name="C" unicode="C" horiz-adv-x="1425" 
d="M831 -25q-198 0 -370.5 99.5t-274.5 268t-102 362.5q0 145 60.5 279.5t161.5 232.5t239 156.5t286 58.5q157 0 299.5 -62.5t247.5 -173.5l-219 -197q-64 73 -149 115.5t-179 42.5q-116 0 -216.5 -61.5t-160 -166t-59.5 -224.5q0 -121 59.5 -226t160 -167t216.5 -62
q94 0 179 42.5t149 115.5l219 -197q-105 -110 -248 -173t-299 -63z" />
    <glyph glyph-name="D" unicode="D" horiz-adv-x="1558" 
d="M152 0v1407h503q234 0 418.5 -89t287.5 -249.5t103 -363.5q0 -204 -103 -364.5t-287.5 -250.5t-418.5 -90h-503zM453 274h241q201 0 330 121t129 310q0 187 -129 307.5t-330 120.5h-241v-859z" />
    <glyph glyph-name="E" unicode="E" horiz-adv-x="1312" 
d="M1223 1135h-781v-281h707v-272h-707v-310h781v-272h-1084v1407h1084v-272z" />
    <glyph glyph-name="F" unicode="F" horiz-adv-x="1298" 
d="M1223 1135h-781v-306h707v-272h-707v-557h-303v1407h1084v-272z" />
    <glyph glyph-name="G" unicode="G" horiz-adv-x="1521" 
d="M784 555v236h623v-580q-105 -110 -257.5 -173t-311.5 -63q-150 0 -289.5 59t-241 157.5t-162.5 233.5t-61 280t61 279.5t162.5 232.5t241 156.5t289.5 58.5q159 0 311.5 -63t257.5 -173l-219 -197q-63 72 -158 115t-192 43q-88 0 -170 -36.5t-141.5 -97.5t-95.5 -144.5
t-36 -173.5q0 -121 60 -226t162.5 -167t220.5 -62q148 0 274 90v215h-328z" />
    <glyph glyph-name="H" unicode="H" horiz-adv-x="1521" 
d="M1081 1407h301v-1407h-301v582h-641v-582h-301v1407h301v-553h641v553z" />
    <glyph glyph-name="I" unicode="I" horiz-adv-x="587" 
d="M143 0v1407h303v-1407h-303z" />
    <glyph glyph-name="J" unicode="J" horiz-adv-x="1116" 
d="M496 -25q-135 0 -268 65.5t-203 168.5l200 197q34 -69 101.5 -112.5t138.5 -43.5q93 0 153 65.5t60 167.5v924h303v-948q0 -213 -135.5 -348.5t-349.5 -135.5z" />
    <glyph glyph-name="K" unicode="K" horiz-adv-x="1431" 
d="M150 0v1407h301v-645l569 645h366l-548 -610l587 -797h-366l-432 582l-176 -189v-393h-301z" />
    <glyph glyph-name="L" unicode="L" horiz-adv-x="1187" 
d="M432 272h701v-272h-1004v1407h303v-1135z" />
    <glyph glyph-name="M" unicode="M" horiz-adv-x="1775" 
d="M152 0v1407h301l436 -795l434 795h303v-1407h-303v877l-434 -795l-436 795v-877h-301z" />
    <glyph glyph-name="N" unicode="N" horiz-adv-x="1585" 
d="M152 0v1407h301l677 -909v909h304v-1407h-304l-677 909v-909h-301z" />
    <glyph glyph-name="O" unicode="O" horiz-adv-x="1662" 
d="M831 -25q-198 0 -370.5 99.5t-274.5 268t-102 362.5q0 145 60.5 279.5t161.5 232.5t239 156.5t286 58.5q150 0 288.5 -58.5t239 -156.5t160.5 -232.5t60 -279.5t-60 -280t-160.5 -233.5t-239 -157.5t-288.5 -59zM831 250q117 0 218.5 62t161 167t59.5 226
q0 183 -130.5 317.5t-308.5 134.5q-116 0 -216.5 -61.5t-160 -166t-59.5 -224.5q0 -121 59.5 -226t160 -167t216.5 -62z" />
    <glyph glyph-name="P" unicode="P" 
d="M139 0v1407h633q230 0 380.5 -133.5t150.5 -341.5t-150.5 -341.5t-380.5 -133.5h-332v-457h-301zM440 733h299q113 0 182.5 54.5t69.5 144.5t-69.5 144t-182.5 54h-299v-397z" />
    <glyph glyph-name="Q" unicode="Q" horiz-adv-x="1662" 
d="M1579 705q0 -224 -133 -412l131 -115l-154 -178l-143 125q-199 -150 -449 -150q-198 0 -370.5 99.5t-274.5 268t-102 362.5q0 145 60.5 279.5t161.5 232.5t239 156.5t286 58.5q150 0 288.5 -58.5t239 -156.5t160.5 -232.5t60 -279.5zM831 250q123 0 226 67l-164 144
l154 178l170 -147q53 95 53 213q0 183 -130.5 317.5t-308.5 134.5q-116 0 -216.5 -61.5t-160 -166t-59.5 -224.5q0 -121 59.5 -226t160 -167t216.5 -62z" />
    <glyph glyph-name="R" unicode="R" horiz-adv-x="1388" 
d="M1329 0h-344l-321 457h-224v-457h-301v1407h633q230 0 380.5 -133.5t150.5 -341.5q0 -155 -86.5 -271.5t-233.5 -168.5zM440 1130v-397h299q113 0 182.5 54.5t69.5 144.5t-69.5 144t-182.5 54h-299z" />
    <glyph glyph-name="S" unicode="S" horiz-adv-x="1296" 
d="M672 -25q-183 0 -342.5 60t-282.5 174l174 207q214 -185 463 -185q110 0 169.5 44.5t59.5 113.5q0 71 -62.5 106t-234.5 74q-99 23 -168 44.5t-137.5 56t-109.5 76.5t-66.5 104.5t-25.5 142.5q0 195 145 317t375 122q324 0 551 -195l-158 -217q-195 156 -401 156
q-94 0 -150.5 -43.5t-56.5 -108.5q0 -73 64 -109t237 -75q98 -22 169.5 -44.5t138 -57t107.5 -77t65 -103t24 -136.5q0 -203 -146 -325t-401 -122z" />
    <glyph glyph-name="T" unicode="T" horiz-adv-x="1308" 
d="M504 0v1135h-438v272h1179v-272h-438v-1135h-303z" />
    <glyph glyph-name="U" unicode="U" horiz-adv-x="1546" 
d="M774 -25q-185 0 -330.5 80.5t-226 225t-80.5 327.5v799h301v-786q0 -163 94 -267t242 -104q146 0 240 104t94 267v786h303v-799q0 -278 -178.5 -455.5t-458.5 -177.5z" />
    <glyph glyph-name="V" unicode="V" horiz-adv-x="1538" 
d="M1174 1407h337l-573 -1407h-338l-573 1407h340l403 -991z" />
    <glyph glyph-name="W" unicode="W" horiz-adv-x="2207" 
d="M467 0l-426 1407h328l260 -944l311 944h328l311 -944l260 944h328l-426 -1407h-303l-332 967l-334 -967h-305z" />
    <glyph glyph-name="X" unicode="X" horiz-adv-x="1456" 
d="M1421 1407l-516 -700l516 -707h-358l-336 461l-340 -461h-350l514 700l-514 707h356l338 -461l338 461h352z" />
    <glyph glyph-name="Y" unicode="Y" horiz-adv-x="1421" 
d="M559 0v508l-551 899h352l351 -616l364 616h338l-549 -899v-508h-305z" />
    <glyph glyph-name="Z" unicode="Z" horiz-adv-x="1353" 
d="M98 0l-2 229l740 906h-723v272h1138v-229l-739 -906h748v-272h-1162z" />
    <glyph glyph-name="bracketleft" unicode="[" horiz-adv-x="788" 
d="M145 -291v1739h555v-195h-321v-1349h321v-195h-555z" />
    <glyph glyph-name="backslash" unicode="\" horiz-adv-x="946" 
d="M680 -152l-707 1674h316l706 -1674h-315z" />
    <glyph glyph-name="bracketright" unicode="]" horiz-adv-x="788" 
d="M88 -291v195h322v1349h-322v195h555v-1739h-555z" />
    <glyph glyph-name="asciicircum" unicode="^" horiz-adv-x="999" 
d="M88 846l309 561h207l305 -561h-213l-198 377l-199 -377h-211z" />
    <glyph glyph-name="underscore" unicode="_" horiz-adv-x="1212" 
d="M-4 -311v174h1221v-174h-1221z" />
    <glyph glyph-name="grave" unicode="`" horiz-adv-x="763" 
d="M432 1178l-303 270l268 49l238 -319h-203z" />
    <glyph glyph-name="a" unicode="a" horiz-adv-x="1189" 
d="M604 1083q209 0 337 -122.5t128 -327.5v-633h-289v106q-56 -63 -139 -97t-172 -34q-171 0 -285 94t-114 244q0 155 126.5 254t313.5 99q131 0 270 -54v21q0 92 -60 151.5t-183 59.5q-127 0 -275 -76l-100 199q229 116 442 116zM537 182q90 0 159.5 40.5t83.5 111.5v98
q-106 39 -227 39q-82 0 -138.5 -42.5t-56.5 -106.5q0 -63 50.5 -101.5t128.5 -38.5z" />
    <glyph glyph-name="b" unicode="b" 
d="M784 1083q213 0 350.5 -155.5t137.5 -397.5q0 -244 -137.5 -399.5t-350.5 -155.5q-109 0 -199.5 45.5t-154.5 129.5v-150h-299v1432h299v-521q133 172 354 172zM698 227q125 0 204 85t79 218q0 132 -79.5 216.5t-203.5 84.5q-108 0 -182 -72t-86 -188v-82
q12 -117 86 -189.5t182 -72.5z" />
    <glyph glyph-name="c" unicode="c" horiz-adv-x="1122" 
d="M649 -25q-154 0 -287 75.5t-211.5 203.5t-78.5 276t79 275.5t212.5 202.5t287.5 75q251 0 416 -180l-199 -170q-40 45 -99 71.5t-120 26.5q-117 0 -202 -88.5t-85 -210.5q0 -125 85.5 -215t203.5 -90q61 0 121 28.5t102 74.5l199 -168q-169 -187 -424 -187z" />
    <glyph glyph-name="d" unicode="d" 
d="M922 1432h299v-1432h-299v152q-134 -177 -357 -177q-213 0 -350 155.5t-137 399.5q0 243 137 398t350 155q224 0 357 -176v525zM651 227q119 0 195 85t76 218q0 132 -76 216.5t-195 84.5q-124 0 -203 -84.5t-79 -216.5q0 -134 79 -218.5t203 -84.5z" />
    <glyph glyph-name="e" unicode="e" horiz-adv-x="1214" 
d="M631 240q63 0 131.5 26.5t111.5 67.5l191 -195q-70 -73 -192 -118.5t-240 -45.5q-156 0 -284 70.5t-202.5 198.5t-74.5 288q0 238 155.5 394.5t388.5 156.5q247 0 387 -175t140 -476h-764q27 -88 93.5 -140t158.5 -52zM629 819q-85 0 -151 -46t-95 -126h473
q-22 80 -80.5 126t-146.5 46z" />
    <glyph glyph-name="f" unicode="f" horiz-adv-x="776" 
d="M485 1116v-57h230v-242h-230v-817h-286v817h-146v242h146v92q0 143 89 233.5t228 90.5q64 0 131 -25.5t113 -67.5l-72 -182q-35 35 -102 35q-42 0 -71.5 -33.5t-29.5 -85.5z" />
    <glyph glyph-name="g" unicode="g" horiz-adv-x="1329" 
d="M897 1059h301v-946q0 -204 -159.5 -334.5t-409.5 -130.5q-136 0 -261.5 39t-205.5 102l104 211q53 -46 138.5 -73t177.5 -27q145 0 230 61t85 164v117q-64 -77 -155.5 -120.5t-194.5 -43.5q-201 0 -335 142t-134 362q0 219 134 360t335 141q106 0 200.5 -46t149.5 -122
v144zM641 330q112 0 184 71t72 181t-71.5 179.5t-184.5 69.5t-184.5 -69.5t-71.5 -179.5t72 -181t184 -71z" />
    <glyph glyph-name="h" unicode="h" horiz-adv-x="1257" 
d="M743 1083q172 0 283 -114.5t111 -294.5v-674h-289v610q0 98 -56 159.5t-145 61.5q-94 0 -157.5 -59t-63.5 -145v-627h-299v1432h299v-502q51 70 134.5 111.5t182.5 41.5z" />
    <glyph glyph-name="i" unicode="i" horiz-adv-x="557" 
d="M281 1204q-69 0 -116.5 48t-47.5 116q0 64 48 112t116 48q65 0 112 -48t47 -112q0 -68 -46.5 -116t-112.5 -48zM129 0v1059h299v-1059h-299z" />
    <glyph glyph-name="j" unicode="j" horiz-adv-x="557" 
d="M281 1204q-69 0 -116.5 48t-47.5 116q0 64 48 112t116 48q65 0 112 -48t47 -112q0 -68 -46.5 -116t-112.5 -48zM98 -365q-123 0 -211 43l31 222q55 -19 111 -19q44 0 72 33t28 86v1059h299v-1090q0 -146 -92.5 -240t-237.5 -94z" />
    <glyph glyph-name="k" unicode="k" horiz-adv-x="1169" 
d="M1161 1059l-411 -469l407 -590h-344l-262 397l-127 -137v-260h-299v1432h299v-830l393 457h344z" />
    <glyph glyph-name="l" unicode="l" horiz-adv-x="559" 
d="M131 0v1432h299v-1432h-299z" />
    <glyph glyph-name="m" unicode="m" horiz-adv-x="1902" 
d="M1391 1083q167 0 279 -115.5t112 -293.5v-676h-287v625q0 92 -52.5 150t-135.5 58q-90 0 -147.5 -54t-57.5 -138v-641h-287v625q0 92 -52 150t-134 58q-91 0 -148 -53.5t-57 -138.5v-639h-299v1059h299v-139q39 76 114.5 119.5t172.5 43.5q108 0 197 -51t139 -141
q41 88 133.5 140t210.5 52z" />
    <glyph glyph-name="n" unicode="n" horiz-adv-x="1257" 
d="M743 1083q172 0 283 -114.5t111 -294.5v-674h-289v610q0 98 -56 159.5t-145 61.5q-94 0 -157.5 -59t-63.5 -145l-2 6v-633h-299v1059h299v-133q48 73 132.5 115t186.5 42z" />
    <glyph glyph-name="o" unicode="o" horiz-adv-x="1298" 
d="M651 -25q-155 0 -288.5 75.5t-212 203.5t-78.5 276t78.5 275.5t212 202.5t288.5 75q154 0 287 -75t211 -202.5t78 -275.5t-78 -276t-211 -203.5t-287 -75.5zM651 227q118 0 204.5 90t86.5 213t-86 212t-205 89q-120 0 -206.5 -89t-86.5 -212t86.5 -213t206.5 -90z" />
    <glyph glyph-name="p" unicode="p" 
d="M784 1083q213 0 350.5 -155.5t137.5 -397.5q0 -244 -137.5 -399.5t-350.5 -155.5q-109 0 -199.5 45.5t-154.5 129.5v-502h-299v1411h299v-148q133 172 354 172zM698 227q125 0 204 85t79 218q0 132 -79.5 216.5t-203.5 84.5q-108 0 -182 -72t-86 -188v-82
q12 -117 86 -189.5t182 -72.5z" />
    <glyph glyph-name="q" unicode="q" 
d="M922 1059h299v-1411h-299v504q-134 -177 -357 -177q-213 0 -350 155.5t-137 399.5q0 243 137 398t350 155q224 0 357 -176v152zM651 227q119 0 195 85t76 218q0 132 -76 216.5t-195 84.5q-124 0 -203 -84.5t-79 -216.5q0 -134 79 -218.5t203 -84.5z" />
    <glyph glyph-name="r" unicode="r" horiz-adv-x="833" 
d="M430 862q53 104 148 162.5t215 58.5v-252q-166 0 -264.5 -88t-98.5 -237v-506h-299v1059h299v-197z" />
    <glyph glyph-name="s" unicode="s" horiz-adv-x="1028" 
d="M528 -25q-129 0 -256 42t-221 118l129 207q164 -119 355 -119q60 0 98.5 22.5t38.5 57.5q0 16 -5.5 29t-20 24t-26.5 18t-39 16t-43 13.5t-53 14.5q-75 18 -124.5 33.5t-103.5 42t-85.5 58t-52 79t-21.5 108.5q-2 152 113 248t301 96q222 0 418 -131l-121 -213
q-155 95 -297 95q-55 0 -90 -18t-35 -46q0 -41 36 -61.5t150 -51.5q47 -12 79 -21.5t76 -26t73.5 -33.5t61.5 -43t51 -56t31.5 -71t12.5 -89q0 -156 -117.5 -249t-312.5 -93z" />
    <glyph glyph-name="t" unicode="t" horiz-adv-x="815" 
d="M688 262l72 -194q-46 -42 -113 -67.5t-131 -25.5q-139 0 -228 90.5t-89 233.5v518h-146v242h146v291h286v-291h230v-242h-230v-471q0 -52 29.5 -85.5t71.5 -33.5q67 0 102 35z" />
    <glyph glyph-name="u" unicode="u" horiz-adv-x="1257" 
d="M834 1059h299v-1059h-299v133q-48 -73 -133 -115.5t-187 -42.5q-172 0 -282.5 115t-110.5 295v674h289v-610q0 -98 55.5 -160t144.5 -62q94 0 157.5 59.5t63.5 145.5l3 -6v633z" />
    <glyph glyph-name="v" unicode="v" horiz-adv-x="1241" 
d="M485 0l-458 1059h313l285 -715l278 715h311l-452 -1059h-277z" />
    <glyph glyph-name="w" unicode="w" horiz-adv-x="1722" 
d="M397 0l-360 1059h293l200 -660l209 660h248l209 -660l201 660h293l-361 -1059h-268l-197 666l-198 -666h-269z" />
    <glyph glyph-name="x" unicode="x" horiz-adv-x="1159" 
d="M1128 0h-321l-229 319l-232 -319h-315l389 539l-373 520h324l211 -295l213 295h315l-371 -514z" />
    <glyph glyph-name="y" unicode="y" horiz-adv-x="1230" 
d="M373 -369q-66 0 -139.5 18.5t-127.5 47.5l64 205q83 -47 139 -47q91 0 125 57l37 78l-440 1069h309l278 -744l265 744h305l-434 -1112q-60 -154 -158 -235t-223 -81z" />
    <glyph glyph-name="z" unicode="z" horiz-adv-x="1089" 
d="M84 0v211l532 594h-518v254h908v-211l-533 -594h537v-254h-926z" />
    <glyph glyph-name="braceleft" unicode="{" horiz-adv-x="833" 
d="M737 -340q-259 21 -368 108t-109 263l2 248q0 94 -45 135t-149 41v180q105 0 149.5 41.5t44.5 134.5l-2 246q0 176 109 262t368 108l23 -182q-114 -15 -169 -37t-76 -61t-21 -113l2 -258q0 -178 -158 -231q158 -52 158 -234l-2 -256q0 -109 51.5 -150t214.5 -63z" />
    <glyph glyph-name="bar" unicode="|" horiz-adv-x="612" 
d="M203 -152v1674h207v-1674h-207z" />
    <glyph glyph-name="braceright" unicode="}" horiz-adv-x="833" 
d="M96 -340l-24 182q163 22 214.5 63t51.5 150l-2 256q0 181 160 234q-160 53 -160 231l2 258q0 74 -21 113t-76 61t-169 37l24 182q258 -22 366.5 -107.5t108.5 -262.5l-2 -246q0 -93 45.5 -134.5t151.5 -41.5v-180q-104 0 -150.5 -41t-46.5 -135l2 -248q0 -176 -108 -263
t-367 -108z" />
    <glyph glyph-name="asciitilde" unicode="~" horiz-adv-x="925" 
d="M600 602q-39 0 -81 16.5t-71 36t-61.5 36t-54.5 16.5q-66 0 -86 -109l-150 23q35 270 228 270q49 0 102.5 -26.5t97.5 -52.5t70 -26q66 0 86 107l147 -21q-15 -136 -70.5 -203t-156.5 -67z" />
    <glyph glyph-name="exclamdown" unicode="&#xa1;" horiz-adv-x="628" 
d="M311 1083q79 0 135 -56t56 -134q0 -73 -56 -127.5t-135 -54.5q-74 0 -128 54.5t-54 127.5q0 78 53.5 134t128.5 56zM412 563l67 -911h-338l68 911h203z" />
    <glyph glyph-name="cent" unicode="&#xa2;" horiz-adv-x="1122" 
d="M1073 162q-140 -156 -346 -182v-132h-201v140q-194 43 -324 196t-130 346t130 345t324 194v137h201v-127q203 -27 340 -176l-199 -170q-57 64 -141 88v-583q86 25 147 92zM362 532q0 -88 45.5 -162.5t118.5 -111.5v543q-73 -37 -118.5 -110t-45.5 -159z" />
    <glyph glyph-name="sterling" unicode="&#xa3;" horiz-adv-x="1339" 
d="M573 236h701v-236h-1180v125l176 111v284h-141v162h141v266q0 212 136 348t348 136q142 0 274 -65.5t197 -168.5l-199 -197q-29 69 -96 112.5t-144 43.5q-94 0 -153.5 -65t-59.5 -168v-242h334v-162h-334v-284z" />
    <glyph glyph-name="yen" unicode="&#xa5;" horiz-adv-x="1421" 
d="M1413 1407l-457 -748h263v-161h-355v-131h355v-162h-355v-205h-305v205h-356v162h356v131h-356v161h264l-459 748h352l351 -616l364 616h338z" />
    <glyph glyph-name="dieresis" unicode="&#xa8;" horiz-adv-x="978" 
d="M274 1196q-62 0 -103.5 42t-41.5 101t41.5 101.5t103.5 42.5q58 0 101 -42.5t43 -101.5q0 -58 -42.5 -100.5t-101.5 -42.5zM707 1196q-60 0 -102 42t-42 101t42 101.5t102 42.5t101.5 -42.5t41.5 -101.5t-41.5 -101t-101.5 -42z" />
    <glyph glyph-name="macron" unicode="&#xaf;" horiz-adv-x="964" 
d="M129 1190v176h707v-176h-707z" />
    <glyph glyph-name="acute" unicode="&#xb4;" horiz-adv-x="763" 
d="M129 1178l238 319l268 -49l-303 -270h-203z" />
    <glyph glyph-name="cedilla" unicode="&#xb8;" horiz-adv-x="673" 
d="M391 -88q68 0 111 -39t43 -100q0 -80 -62 -128t-159 -48q-115 0 -195 59l53 119q56 -47 125 -47q36 0 61 17t25 44q0 25 -17.5 40t-49.5 15q-35 0 -62 -18l-45 43l66 154h151z" />
    <glyph glyph-name="questiondown" unicode="&#xbf;" horiz-adv-x="1034" 
d="M555 1083q79 0 134.5 -56t55.5 -134q0 -73 -55.5 -127.5t-134.5 -54.5q-74 0 -128 54.5t-54 127.5q0 78 53.5 134t128.5 56zM688 575v-335q-141 -6 -231 -57.5t-90 -125.5q0 -67 56.5 -113t147.5 -46q72 0 139 34.5t119 92.5l172 -177q-197 -221 -481 -221
q-203 0 -332 114t-129 288q0 138 102.5 250t260.5 149v147h266z" />
    <glyph glyph-name="Agrave" unicode="&#xc0;" horiz-adv-x="1538" 
d="M879 1526h-203l-303 270l268 49zM1171 0l-90 221h-626l-90 -221h-338l573 1407h338l573 -1407h-340zM559 477h418l-209 514z" />
    <glyph glyph-name="Aacute" unicode="&#xc1;" horiz-adv-x="1538" 
d="M1169 1796l-303 -270h-202l237 319zM1171 0l-90 221h-626l-90 -221h-338l573 1407h338l573 -1407h-340zM559 477h418l-209 514z" />
    <glyph glyph-name="Acircumflex" unicode="&#xc2;" horiz-adv-x="1538" 
d="M770 1677l-154 -151h-184l215 301h248l217 -301h-186zM1171 0l-90 221h-626l-90 -221h-338l573 1407h338l573 -1407h-340zM559 477h418l-209 514z" />
    <glyph glyph-name="Atilde" unicode="&#xc3;" horiz-adv-x="1538" 
d="M639 1626q-34 0 -55 -25.5t-31 -82.5l-150 22q35 270 228 270q49 0 102.5 -26t97.5 -52t70 -26q66 0 86 106l148 -20q-30 -270 -228 -270q-49 0 -101.5 26t-96 52t-70.5 26zM1171 0l-90 221h-626l-90 -221h-338l573 1407h338l573 -1407h-340zM559 477h418l-209 514z" />
    <glyph glyph-name="Adieresis" unicode="&#xc4;" horiz-adv-x="1538" 
d="M555 1544q-62 0 -103.5 42.5t-41.5 101.5t41.5 101t103.5 42q59 0 101 -42.5t42 -100.5q0 -59 -42.5 -101.5t-100.5 -42.5zM987 1544q-60 0 -101.5 42.5t-41.5 101.5t41.5 101t101.5 42t101.5 -42t41.5 -101t-41.5 -101.5t-101.5 -42.5zM1171 0l-90 221h-626l-90 -221
h-338l573 1407h338l573 -1407h-340zM559 477h418l-209 514z" />
    <glyph glyph-name="Aring" unicode="&#xc5;" horiz-adv-x="1538" 
d="M770 1538q-97 0 -165 67t-68 164t68 165.5t165 68.5t165.5 -68.5t68.5 -165.5q0 -96 -68.5 -163.5t-165.5 -67.5zM770 1878q-44 0 -76 -32.5t-32 -76.5t32 -76t76 -32t76.5 32t32.5 76t-32.5 76.5t-76.5 32.5zM1171 0l-90 221h-626l-90 -221h-338l573 1407h338l573 -1407
h-340zM559 477h418l-209 514z" />
    <glyph glyph-name="AE" unicode="&#xc6;" horiz-adv-x="2205" 
d="M2116 1135h-781v-281h707v-272h-707v-310h781v-272h-1084v242h-516l-139 -242h-350l813 1407h1276v-272zM653 477h379v658z" />
    <glyph glyph-name="Ccedilla" unicode="&#xc7;" horiz-adv-x="1425" 
d="M831 250q94 0 179 42.5t149 115.5l219 -197q-95 -100 -223 -162t-268 -72l-27 -65q68 0 111 -39t43 -100q0 -80 -62 -128t-159 -48q-115 0 -195 59l53 119q56 -47 125 -47q36 0 61 17t25 44q0 25 -17.5 40t-49.5 15q-35 0 -62 -18l-45 43l47 113q-178 23 -327 125
t-236.5 260.5t-87.5 337.5q0 145 60.5 279.5t161.5 232.5t239 156.5t286 58.5q157 0 299.5 -62.5t247.5 -173.5l-219 -197q-64 73 -149 115.5t-179 42.5q-116 0 -216.5 -61.5t-160 -166t-59.5 -224.5q0 -121 59.5 -226t160 -167t216.5 -62z" />
    <glyph glyph-name="Egrave" unicode="&#xc8;" horiz-adv-x="1312" 
d="M874 1526h-202l-303 270l268 49zM1223 1135h-781v-281h707v-272h-707v-310h781v-272h-1084v1407h1084v-272z" />
    <glyph glyph-name="Eacute" unicode="&#xc9;" horiz-adv-x="1312" 
d="M977 1796l-303 -270h-203l238 319zM1223 1135h-781v-281h707v-272h-707v-310h781v-272h-1084v1407h1084v-272z" />
    <glyph glyph-name="Ecircumflex" unicode="&#xca;" horiz-adv-x="1312" 
d="M682 1677l-154 -151h-184l215 301h248l217 -301h-186zM1223 1135h-781v-281h707v-272h-707v-310h781v-272h-1084v1407h1084v-272z" />
    <glyph glyph-name="Edieresis" unicode="&#xcb;" horiz-adv-x="1312" 
d="M467 1544q-62 0 -103.5 42.5t-41.5 101.5t41.5 101t103.5 42q59 0 101 -42.5t42 -100.5q0 -59 -42.5 -101.5t-100.5 -42.5zM899 1544q-60 0 -101.5 42.5t-41.5 101.5t41.5 101t101.5 42t101.5 -42t41.5 -101t-41.5 -101.5t-101.5 -42.5zM1223 1135h-781v-281h707v-272
h-707v-310h781v-272h-1084v1407h1084v-272z" />
    <glyph glyph-name="Igrave" unicode="&#xcc;" horiz-adv-x="587" 
d="M195 1526l-304 270l269 49l237 -319h-202zM143 0v1407h303v-1407h-303z" />
    <glyph glyph-name="Iacute" unicode="&#xcd;" horiz-adv-x="587" 
d="M190 1526l238 319l268 -49l-303 -270h-203zM143 0v1407h303v-1407h-303z" />
    <glyph glyph-name="Icircumflex" unicode="&#xce;" horiz-adv-x="587" 
d="M-43 1526l215 301h248l217 -301h-186l-156 151l-154 -151h-184zM143 0v1407h303v-1407h-303z" />
    <glyph glyph-name="Idieresis" unicode="&#xcf;" horiz-adv-x="587" 
d="M80 1544q-62 0 -104 42.5t-42 101.5t42 101t104 42q58 0 100.5 -42.5t42.5 -100.5q0 -59 -42.5 -101.5t-100.5 -42.5zM512 1544q-60 0 -101.5 42.5t-41.5 101.5t41.5 101t101.5 42t101.5 -42t41.5 -101t-41.5 -101.5t-101.5 -42.5zM143 0v1407h303v-1407h-303z" />
    <glyph glyph-name="Eth" unicode="&#xd0;" horiz-adv-x="1642" 
d="M741 1407q234 0 418.5 -89t287.5 -249.5t103 -363.5q0 -204 -103 -364.5t-287.5 -250.5t-418.5 -90h-503v573h-154v273h154v561h503zM780 274q201 0 330 121t129 310q0 187 -129 307.5t-330 120.5h-241v-287h321l-2 -273h-319v-299h241z" />
    <glyph glyph-name="Ntilde" unicode="&#xd1;" horiz-adv-x="1585" 
d="M930 1522q-49 0 -101.5 26t-96 52t-70.5 26q-67 0 -87 -108l-149 22q17 135 72.5 202.5t154.5 67.5q49 0 103 -26t98 -52t70 -26q66 0 86 106l147 -20q-15 -136 -70.5 -203t-156.5 -67zM152 0v1407h301l677 -909v909h304v-1407h-304l-677 909v-909h-301z" />
    <glyph glyph-name="Ograve" unicode="&#xd2;" horiz-adv-x="1662" 
d="M735 1526l-303 270l268 49l238 -319h-203zM831 -25q-198 0 -370.5 99.5t-274.5 268t-102 362.5q0 145 60.5 279.5t161.5 232.5t239 156.5t286 58.5q150 0 288.5 -58.5t239 -156.5t160.5 -232.5t60 -279.5t-60 -280t-160.5 -233.5t-239 -157.5t-288.5 -59zM831 250
q117 0 218.5 62t161 167t59.5 226q0 183 -130.5 317.5t-308.5 134.5q-116 0 -216.5 -61.5t-160 -166t-59.5 -224.5q0 -121 59.5 -226t160 -167t216.5 -62z" />
    <glyph glyph-name="Oacute" unicode="&#xd3;" horiz-adv-x="1662" 
d="M725 1526l238 319l268 -49l-303 -270h-203zM831 -25q-198 0 -370.5 99.5t-274.5 268t-102 362.5q0 145 60.5 279.5t161.5 232.5t239 156.5t286 58.5q150 0 288.5 -58.5t239 -156.5t160.5 -232.5t60 -279.5t-60 -280t-160.5 -233.5t-239 -157.5t-288.5 -59zM831 250
q117 0 218.5 62t161 167t59.5 226q0 183 -130.5 317.5t-308.5 134.5q-116 0 -216.5 -61.5t-160 -166t-59.5 -224.5q0 -121 59.5 -226t160 -167t216.5 -62z" />
    <glyph glyph-name="Ocircumflex" unicode="&#xd4;" horiz-adv-x="1662" 
d="M494 1526l215 301h247l218 -301h-187l-156 151l-153 -151h-184zM831 -25q-198 0 -370.5 99.5t-274.5 268t-102 362.5q0 145 60.5 279.5t161.5 232.5t239 156.5t286 58.5q150 0 288.5 -58.5t239 -156.5t160.5 -232.5t60 -279.5t-60 -280t-160.5 -233.5t-239 -157.5
t-288.5 -59zM831 250q117 0 218.5 62t161 167t59.5 226q0 183 -130.5 317.5t-308.5 134.5q-116 0 -216.5 -61.5t-160 -166t-59.5 -224.5q0 -121 59.5 -226t160 -167t216.5 -62z" />
    <glyph glyph-name="Otilde" unicode="&#xd5;" horiz-adv-x="1662" 
d="M969 1522q-49 0 -102 26t-96.5 52t-70.5 26q-34 0 -55 -25.5t-31 -82.5l-149 22q17 135 72.5 202.5t154.5 67.5q49 0 103 -26t98 -52t70 -26q66 0 86 106l147 -20q-15 -136 -70.5 -203t-156.5 -67zM831 -25q-198 0 -370.5 99.5t-274.5 268t-102 362.5q0 145 60.5 279.5
t161.5 232.5t239 156.5t286 58.5q150 0 288.5 -58.5t239 -156.5t160.5 -232.5t60 -279.5t-60 -280t-160.5 -233.5t-239 -157.5t-288.5 -59zM831 250q117 0 218.5 62t161 167t59.5 226q0 183 -130.5 317.5t-308.5 134.5q-116 0 -216.5 -61.5t-160 -166t-59.5 -224.5
q0 -121 59.5 -226t160 -167t216.5 -62z" />
    <glyph glyph-name="Odieresis" unicode="&#xd6;" horiz-adv-x="1662" 
d="M616 1544q-62 0 -103.5 42.5t-41.5 101.5t41.5 101t103.5 42q59 0 101.5 -42.5t42.5 -100.5t-43 -101t-101 -43zM1049 1544q-60 0 -102 42.5t-42 101.5t42 101t102 42t101.5 -42t41.5 -101t-41.5 -101.5t-101.5 -42.5zM831 -25q-198 0 -370.5 99.5t-274.5 268t-102 362.5
q0 145 60.5 279.5t161.5 232.5t239 156.5t286 58.5q150 0 288.5 -58.5t239 -156.5t160.5 -232.5t60 -279.5t-60 -280t-160.5 -233.5t-239 -157.5t-288.5 -59zM831 250q117 0 218.5 62t161 167t59.5 226q0 183 -130.5 317.5t-308.5 134.5q-116 0 -216.5 -61.5t-160 -166
t-59.5 -224.5q0 -121 59.5 -226t160 -167t216.5 -62z" />
    <glyph glyph-name="multiply" unicode="&#xd7;" horiz-adv-x="1148" 
d="M1016 426l-182 -182l-265 262l-258 -258l-174 172l260 260l-264 262l182 182l265 -262l258 258l172 -174l-258 -258z" />
    <glyph glyph-name="Oslash" unicode="&#xd8;" horiz-adv-x="1662" 
d="M1380 1192q94 -99 146.5 -224.5t52.5 -262.5q0 -145 -60 -280t-160.5 -233.5t-239 -157.5t-288.5 -59q-207 0 -389 111l-73 -86h-267l183 215q-95 98 -148 225t-53 265q0 145 60.5 279.5t161.5 232.5t239 156.5t286 58.5q210 0 392 -111l73 86h267zM395 705
q0 -141 82 -263l561 660q-99 55 -207 55q-116 0 -216.5 -61.5t-160 -166t-59.5 -224.5zM831 250q117 0 218.5 62t161 167t59.5 226q0 141 -82 260l-561 -660q96 -55 204 -55z" />
    <glyph glyph-name="Ugrave" unicode="&#xd9;" horiz-adv-x="1546" 
d="M764 1526l-303 270l268 49l238 -319h-203zM774 -25q-185 0 -330.5 80.5t-226 225t-80.5 327.5v799h301v-786q0 -163 94 -267t242 -104q146 0 240 104t94 267v786h303v-799q0 -278 -178.5 -455.5t-458.5 -177.5z" />
    <glyph glyph-name="Uacute" unicode="&#xda;" horiz-adv-x="1546" 
d="M563 1526l238 319l268 -49l-303 -270h-203zM774 -25q-185 0 -330.5 80.5t-226 225t-80.5 327.5v799h301v-786q0 -163 94 -267t242 -104q146 0 240 104t94 267v786h303v-799q0 -278 -178.5 -455.5t-458.5 -177.5z" />
    <glyph glyph-name="Ucircumflex" unicode="&#xdb;" horiz-adv-x="1546" 
d="M436 1526l215 301h248l217 -301h-186l-156 151l-153 -151h-185zM774 -25q-185 0 -330.5 80.5t-226 225t-80.5 327.5v799h301v-786q0 -163 94 -267t242 -104q146 0 240 104t94 267v786h303v-799q0 -278 -178.5 -455.5t-458.5 -177.5z" />
    <glyph glyph-name="Udieresis" unicode="&#xdc;" horiz-adv-x="1546" 
d="M559 1544q-62 0 -103.5 42.5t-41.5 101.5t41.5 101t103.5 42q59 0 101 -42.5t42 -100.5q0 -59 -42.5 -101.5t-100.5 -42.5zM991 1544q-60 0 -101.5 42.5t-41.5 101.5t41.5 101t101.5 42t102 -42t42 -101t-42 -101.5t-102 -42.5zM774 -25q-185 0 -330.5 80.5t-226 225
t-80.5 327.5v799h301v-786q0 -163 94 -267t242 -104q146 0 240 104t94 267v786h303v-799q0 -278 -178.5 -455.5t-458.5 -177.5z" />
    <glyph glyph-name="Yacute" unicode="&#xdd;" horiz-adv-x="1421" 
d="M500 1526l237 319l269 -49l-304 -270h-202zM559 0v508l-551 899h352l351 -616l364 616h338l-549 -899v-508h-305z" />
    <glyph glyph-name="Thorn" unicode="&#xde;" 
d="M139 0v1407h297v-225h336q230 0 380.5 -133t150.5 -342q0 -208 -150.5 -342t-380.5 -134h-332v-231h-301zM440 510h299q113 0 182.5 53.5t69.5 143.5t-69.5 144t-182.5 54h-299v-395z" />
    <glyph glyph-name="germandbls" unicode="&#xdf;" horiz-adv-x="1255" 
d="M131 0v1063q0 178 139.5 291.5t358.5 113.5q220 0 358.5 -113t138.5 -292q0 -107 -51 -189.5t-145 -132.5q123 -56 190.5 -149.5t67.5 -210.5q0 -168 -129.5 -274.5t-331.5 -106.5h-147v258h90q92 0 150.5 48.5t58.5 123.5t-58.5 123.5t-150.5 48.5h-90v238h45
q83 0 137.5 47.5t54.5 116.5q0 71 -53 116t-139 45q-84 0 -138.5 -48.5t-54.5 -127.5v-989h-301z" />
    <glyph glyph-name="agrave" unicode="&#xe0;" horiz-adv-x="1189" 
d="M807 1178h-203l-303 270l268 49zM604 1083q209 0 337 -122.5t128 -327.5v-633h-289v106q-56 -63 -139 -97t-172 -34q-171 0 -285 94t-114 244q0 155 126.5 254t313.5 99q131 0 270 -54v21q0 92 -60 151.5t-183 59.5q-127 0 -275 -76l-100 199q229 116 442 116zM537 182
q90 0 159.5 40.5t83.5 111.5v98q-106 39 -227 39q-82 0 -138.5 -42.5t-56.5 -106.5q0 -63 50.5 -101.5t128.5 -38.5z" />
    <glyph glyph-name="aacute" unicode="&#xe1;" horiz-adv-x="1189" 
d="M909 1448l-303 -270h-203l238 319zM604 1083q209 0 337 -122.5t128 -327.5v-633h-289v106q-56 -63 -139 -97t-172 -34q-171 0 -285 94t-114 244q0 155 126.5 254t313.5 99q131 0 270 -54v21q0 92 -60 151.5t-183 59.5q-127 0 -275 -76l-100 199q229 116 442 116zM537 182
q90 0 159.5 40.5t83.5 111.5v98q-106 39 -227 39q-82 0 -138.5 -42.5t-56.5 -106.5q0 -63 50.5 -101.5t128.5 -38.5z" />
    <glyph glyph-name="acircumflex" unicode="&#xe2;" horiz-adv-x="1189" 
d="M614 1329l-153 -151h-185l216 301h247l217 -301h-186zM604 1083q209 0 337 -122.5t128 -327.5v-633h-289v106q-56 -63 -139 -97t-172 -34q-171 0 -285 94t-114 244q0 155 126.5 254t313.5 99q131 0 270 -54v21q0 92 -60 151.5t-183 59.5q-127 0 -275 -76l-100 199
q229 116 442 116zM537 182q90 0 159.5 40.5t83.5 111.5v98q-106 39 -227 39q-82 0 -138.5 -42.5t-56.5 -106.5q0 -63 50.5 -101.5t128.5 -38.5z" />
    <glyph glyph-name="atilde" unicode="&#xe3;" horiz-adv-x="1189" 
d="M483 1278q-66 0 -86 -109l-149 23q17 135 72.5 202.5t154.5 67.5q49 0 102.5 -26t97.5 -52t70 -26q66 0 86 106l148 -20q-15 -136 -70.5 -203t-156.5 -67q-49 0 -102 26t-96.5 52t-70.5 26zM604 1083q209 0 337 -122.5t128 -327.5v-633h-289v106q-56 -63 -139 -97
t-172 -34q-171 0 -285 94t-114 244q0 155 126.5 254t313.5 99q131 0 270 -54v21q0 92 -60 151.5t-183 59.5q-127 0 -275 -76l-100 199q229 116 442 116zM537 182q90 0 159.5 40.5t83.5 111.5v98q-106 39 -227 39q-82 0 -138.5 -42.5t-56.5 -106.5q0 -63 50.5 -101.5
t128.5 -38.5z" />
    <glyph glyph-name="adieresis" unicode="&#xe4;" horiz-adv-x="1189" 
d="M399 1196q-62 0 -103.5 42t-41.5 101t41.5 101.5t103.5 42.5q59 0 101.5 -42.5t42.5 -101.5q0 -58 -42.5 -100.5t-101.5 -42.5zM831 1196q-60 0 -101.5 42t-41.5 101t41.5 101.5t101.5 42.5t102 -42.5t42 -101.5t-42 -101t-102 -42zM604 1083q209 0 337 -122.5
t128 -327.5v-633h-289v106q-56 -63 -139 -97t-172 -34q-171 0 -285 94t-114 244q0 155 126.5 254t313.5 99q131 0 270 -54v21q0 92 -60 151.5t-183 59.5q-127 0 -275 -76l-100 199q229 116 442 116zM537 182q90 0 159.5 40.5t83.5 111.5v98q-106 39 -227 39
q-82 0 -138.5 -42.5t-56.5 -106.5q0 -63 50.5 -101.5t128.5 -38.5z" />
    <glyph glyph-name="aring" unicode="&#xe5;" horiz-adv-x="1189" 
d="M614 1190q-97 0 -165 67t-68 164t68 165.5t165 68.5t165.5 -68.5t68.5 -165.5q0 -96 -68.5 -163.5t-165.5 -67.5zM614 1530q-44 0 -76 -32.5t-32 -76.5t32 -76t76 -32t76.5 32t32.5 76t-32.5 76.5t-76.5 32.5zM604 1083q209 0 337 -122.5t128 -327.5v-633h-289v106
q-56 -63 -139 -97t-172 -34q-171 0 -285 94t-114 244q0 155 126.5 254t313.5 99q131 0 270 -54v21q0 92 -60 151.5t-183 59.5q-127 0 -275 -76l-100 199q229 116 442 116zM537 182q90 0 159.5 40.5t83.5 111.5v98q-106 39 -227 39q-82 0 -138.5 -42.5t-56.5 -106.5
q0 -63 50.5 -101.5t128.5 -38.5z" />
    <glyph glyph-name="ae" unicode="&#xe6;" horiz-adv-x="1921" 
d="M1339 240q63 0 132 26.5t112 67.5l191 -195q-70 -73 -192 -118.5t-241 -45.5q-124 0 -231.5 46.5t-185.5 130.5q-65 -84 -171 -130.5t-239 -46.5q-201 0 -322.5 92t-121.5 246q0 155 126.5 254t313.5 99q131 0 270 -54v21q0 92 -60 151.5t-183 59.5q-127 0 -275 -76
l-100 199q118 60 215 88t203 28q118 0 208.5 -41t145.5 -116q157 157 391 157q247 0 386.5 -175t139.5 -476h-764q27 -88 93.5 -140t158.5 -52zM1337 819q-85 0 -150.5 -46t-94.5 -126h473q-22 80 -80.5 126t-147.5 46zM545 182q102 0 168.5 52.5t66.5 132.5v65
q-106 39 -227 39q-82 0 -138.5 -42.5t-56.5 -106.5q0 -65 50.5 -102.5t136.5 -37.5z" />
    <glyph glyph-name="ccedilla" unicode="&#xe7;" horiz-adv-x="1122" 
d="M1073 162q-149 -162 -362 -185l-27 -65q68 0 111 -39t43 -100q0 -80 -62.5 -128t-159.5 -48q-114 0 -194 59l53 119q56 -47 125 -47q36 0 61 17t25 44q0 25 -18 40t-50 15q-34 0 -61 -18l-45 43l49 113q-136 21 -247.5 99t-176.5 196.5t-65 252.5q0 148 79 275.5
t212.5 202.5t287.5 75q251 0 416 -180l-199 -170q-40 45 -99 71.5t-120 26.5q-117 0 -202 -88.5t-85 -210.5q0 -125 85.5 -215t203.5 -90q61 0 121 28.5t102 74.5z" />
    <glyph glyph-name="egrave" unicode="&#xe8;" horiz-adv-x="1214" 
d="M809 1178h-203l-303 270l268 49zM631 240q63 0 131.5 26.5t111.5 67.5l191 -195q-70 -73 -192 -118.5t-240 -45.5q-156 0 -284 70.5t-202.5 198.5t-74.5 288q0 238 155.5 394.5t388.5 156.5q247 0 387 -175t140 -476h-764q27 -88 93.5 -140t158.5 -52zM629 819
q-85 0 -151 -46t-95 -126h473q-22 80 -80.5 126t-146.5 46z" />
    <glyph glyph-name="eacute" unicode="&#xe9;" horiz-adv-x="1214" 
d="M911 1448l-303 -270h-202l237 319zM631 240q63 0 131.5 26.5t111.5 67.5l191 -195q-70 -73 -192 -118.5t-240 -45.5q-156 0 -284 70.5t-202.5 198.5t-74.5 288q0 238 155.5 394.5t388.5 156.5q247 0 387 -175t140 -476h-764q27 -88 93.5 -140t158.5 -52zM629 819
q-85 0 -151 -46t-95 -126h473q-22 80 -80.5 126t-146.5 46z" />
    <glyph glyph-name="ecircumflex" unicode="&#xea;" horiz-adv-x="1214" 
d="M616 1329l-153 -151h-184l215 301h247l217 -301h-186zM631 240q63 0 131.5 26.5t111.5 67.5l191 -195q-70 -73 -192 -118.5t-240 -45.5q-156 0 -284 70.5t-202.5 198.5t-74.5 288q0 238 155.5 394.5t388.5 156.5q247 0 387 -175t140 -476h-764q27 -88 93.5 -140
t158.5 -52zM629 819q-85 0 -151 -46t-95 -126h473q-22 80 -80.5 126t-146.5 46z" />
    <glyph glyph-name="edieresis" unicode="&#xeb;" horiz-adv-x="1214" 
d="M401 1196q-62 0 -103.5 42t-41.5 101t41.5 101.5t103.5 42.5q59 0 101.5 -42.5t42.5 -101.5q0 -58 -42.5 -100.5t-101.5 -42.5zM834 1196q-60 0 -102 42t-42 101t42 101.5t102 42.5t101.5 -42.5t41.5 -101.5t-41.5 -101t-101.5 -42zM631 240q63 0 131.5 26.5t111.5 67.5
l191 -195q-70 -73 -192 -118.5t-240 -45.5q-156 0 -284 70.5t-202.5 198.5t-74.5 288q0 238 155.5 394.5t388.5 156.5q247 0 387 -175t140 -476h-764q27 -88 93.5 -140t158.5 -52zM629 819q-85 0 -151 -46t-95 -126h473q-22 80 -80.5 126t-146.5 46z" />
    <glyph glyph-name="igrave" unicode="&#xec;" horiz-adv-x="557" 
d="M178 1178l-303 270l268 49l238 -319h-203zM129 0v1059h299v-1059h-299z" />
    <glyph glyph-name="iacute" unicode="&#xed;" horiz-adv-x="557" 
d="M174 1178l238 319l268 -49l-303 -270h-203zM129 0v1059h299v-1059h-299z" />
    <glyph glyph-name="icircumflex" unicode="&#xee;" horiz-adv-x="557" 
d="M-59 1178l215 301h247l218 -301h-187l-155 151l-154 -151h-184zM129 0v1059h299v-1059h-299z" />
    <glyph glyph-name="idieresis" unicode="&#xef;" horiz-adv-x="557" 
d="M63 1196q-62 0 -103.5 42t-41.5 101t41.5 101.5t103.5 42.5q59 0 101.5 -42.5t42.5 -101.5q0 -58 -42.5 -100.5t-101.5 -42.5zM496 1196q-60 0 -102 42t-42 101t42 101.5t102 42.5t101.5 -42.5t41.5 -101.5t-41.5 -101t-101.5 -42zM129 0v1059h299v-1059h-299z" />
    <glyph glyph-name="eth" unicode="&#xf0;" horiz-adv-x="1294" 
d="M856 1260q181 -170 265.5 -331.5t84.5 -355.5q0 -173 -70.5 -309.5t-197.5 -212.5t-289 -76q-244 0 -400.5 151t-156.5 386q0 220 129 360t332 140q184 0 313 -148q-74 145 -248 289l-212 -94l-72 158l129 57q-85 57 -148 98l269 115q31 -24 129 -103l184 82l70 -157z
M651 229q117 0 190.5 75.5t73.5 195.5q0 115 -74 192.5t-194 77.5q-117 0 -190.5 -75.5t-73.5 -192.5q0 -120 75 -196.5t193 -76.5z" />
    <glyph glyph-name="ntilde" unicode="&#xf1;" horiz-adv-x="1257" 
d="M522 1278q-66 0 -86 -109l-149 23q17 135 72.5 202.5t154.5 67.5q49 0 102.5 -26t97.5 -52t70 -26q66 0 86 106l148 -20q-15 -136 -70.5 -203t-156.5 -67q-49 0 -102 26t-96.5 52t-70.5 26zM743 1083q172 0 283 -114.5t111 -294.5v-674h-289v610q0 98 -56 159.5
t-145 61.5q-94 0 -157.5 -59t-63.5 -145l-2 6v-633h-299v1059h299v-133q48 73 132.5 115t186.5 42z" />
    <glyph glyph-name="ograve" unicode="&#xf2;" horiz-adv-x="1298" 
d="M641 1178l-303 270l268 49l238 -319h-203zM651 -25q-155 0 -288.5 75.5t-212 203.5t-78.5 276t78.5 275.5t212 202.5t288.5 75q154 0 287 -75t211 -202.5t78 -275.5t-78 -276t-211 -203.5t-287 -75.5zM651 227q118 0 204.5 90t86.5 213t-86 212t-205 89
q-120 0 -206.5 -89t-86.5 -212t86.5 -213t206.5 -90z" />
    <glyph glyph-name="oacute" unicode="&#xf3;" horiz-adv-x="1298" 
d="M440 1178l238 319l268 -49l-303 -270h-203zM651 -25q-155 0 -288.5 75.5t-212 203.5t-78.5 276t78.5 275.5t212 202.5t288.5 75q154 0 287 -75t211 -202.5t78 -275.5t-78 -276t-211 -203.5t-287 -75.5zM651 227q118 0 204.5 90t86.5 213t-86 212t-205 89
q-120 0 -206.5 -89t-86.5 -212t86.5 -213t206.5 -90z" />
    <glyph glyph-name="ocircumflex" unicode="&#xf4;" horiz-adv-x="1298" 
d="M313 1178l215 301h248l217 -301h-186l-156 151l-153 -151h-185zM651 -25q-155 0 -288.5 75.5t-212 203.5t-78.5 276t78.5 275.5t212 202.5t288.5 75q154 0 287 -75t211 -202.5t78 -275.5t-78 -276t-211 -203.5t-287 -75.5zM651 227q118 0 204.5 90t86.5 213t-86 212
t-205 89q-120 0 -206.5 -89t-86.5 -212t86.5 -213t206.5 -90z" />
    <glyph glyph-name="otilde" unicode="&#xf5;" horiz-adv-x="1298" 
d="M788 1174q-49 0 -101.5 26t-96 52t-70.5 26q-66 0 -86 -109l-149 23q17 135 72.5 202.5t154.5 67.5q49 0 102.5 -26t97.5 -52t70 -26q66 0 86 106l148 -20q-30 -270 -228 -270zM651 -25q-155 0 -288.5 75.5t-212 203.5t-78.5 276t78.5 275.5t212 202.5t288.5 75
q154 0 287 -75t211 -202.5t78 -275.5t-78 -276t-211 -203.5t-287 -75.5zM651 227q118 0 204.5 90t86.5 213t-86 212t-205 89q-120 0 -206.5 -89t-86.5 -212t86.5 -213t206.5 -90z" />
    <glyph glyph-name="odieresis" unicode="&#xf6;" horiz-adv-x="1298" 
d="M436 1196q-62 0 -103.5 42t-41.5 101t41.5 101.5t103.5 42.5q58 0 101 -42.5t43 -101.5q0 -58 -42.5 -100.5t-101.5 -42.5zM868 1196q-60 0 -101.5 42t-41.5 101t41.5 101.5t101.5 42.5t102 -42.5t42 -101.5t-42 -101t-102 -42zM651 -25q-155 0 -288.5 75.5t-212 203.5
t-78.5 276t78.5 275.5t212 202.5t288.5 75q154 0 287 -75t211 -202.5t78 -275.5t-78 -276t-211 -203.5t-287 -75.5zM651 227q118 0 204.5 90t86.5 213t-86 212t-205 89q-120 0 -206.5 -89t-86.5 -212t86.5 -213t206.5 -90z" />
    <glyph glyph-name="divide" unicode="&#xf7;" horiz-adv-x="1234" 
d="M621 905q-70 0 -119 49.5t-49 118.5q0 65 49 113.5t119 48.5q67 0 114 -48.5t47 -113.5q0 -69 -47 -118.5t-114 -49.5zM123 563v244h989v-244h-989zM621 133q-70 0 -119 49.5t-49 118.5q0 65 49 113.5t119 48.5q67 0 114 -48.5t47 -113.5q0 -69 -47 -118.5t-114 -49.5z
" />
    <glyph glyph-name="oslash" unicode="&#xf8;" horiz-adv-x="1298" 
d="M1077 899q70 -75 110 -171t40 -198q0 -148 -78 -276t-211 -203.5t-287 -75.5q-158 0 -299 82l-49 -57h-217l137 160q-72 75 -111.5 170.5t-39.5 199.5q0 148 78.5 275.5t212 202.5t288.5 75q158 0 299 -82l49 58h218zM358 530q0 -88 48 -161l370 432q-55 30 -125 30
q-120 0 -206.5 -89t-86.5 -212zM651 227q118 0 204.5 90t86.5 213q0 88 -45 158l-371 -430q57 -31 125 -31z" />
    <glyph glyph-name="ugrave" unicode="&#xf9;" horiz-adv-x="1257" 
d="M817 1178h-203l-303 270l269 49zM834 1059h299v-1059h-299v133q-48 -73 -133 -115.5t-187 -42.5q-172 0 -282.5 115t-110.5 295v674h289v-610q0 -98 55.5 -160t144.5 -62q94 0 157.5 59.5t63.5 145.5l3 -6v633z" />
    <glyph glyph-name="uacute" unicode="&#xfa;" horiz-adv-x="1257" 
d="M920 1448l-304 -270h-202l237 319zM834 1059h299v-1059h-299v133q-48 -73 -133 -115.5t-187 -42.5q-172 0 -282.5 115t-110.5 295v674h289v-610q0 -98 55.5 -160t144.5 -62q94 0 157.5 59.5t63.5 145.5l3 -6v633z" />
    <glyph glyph-name="ucircumflex" unicode="&#xfb;" horiz-adv-x="1257" 
d="M625 1329l-154 -151h-184l215 301h248l217 -301h-187zM834 1059h299v-1059h-299v133q-48 -73 -133 -115.5t-187 -42.5q-172 0 -282.5 115t-110.5 295v674h289v-610q0 -98 55.5 -160t144.5 -62q94 0 157.5 59.5t63.5 145.5l3 -6v633z" />
    <glyph glyph-name="udieresis" unicode="&#xfc;" horiz-adv-x="1257" 
d="M410 1196q-62 0 -104 42t-42 101t42 101.5t104 42.5q58 0 100.5 -42.5t42.5 -101.5t-42.5 -101t-100.5 -42zM842 1196q-60 0 -102 42t-42 101t42 101.5t102 42.5t101.5 -42.5t41.5 -101.5t-41.5 -101t-101.5 -42zM834 1059h299v-1059h-299v133q-48 -73 -133 -115.5
t-187 -42.5q-172 0 -282.5 115t-110.5 295v674h289v-610q0 -98 55.5 -160t144.5 -62q94 0 157.5 59.5t63.5 145.5l3 -6v633z" />
    <glyph glyph-name="yacute" unicode="&#xfd;" horiz-adv-x="1230" 
d="M408 1178l237 319l268 -49l-303 -270h-202zM373 -369q-66 0 -139.5 18.5t-127.5 47.5l64 205q83 -47 139 -47q91 0 125 57l37 78l-440 1069h309l278 -744l265 744h305l-434 -1112q-60 -154 -158 -235t-223 -81z" />
    <glyph glyph-name="thorn" unicode="&#xfe;" 
d="M784 1083q213 0 350.5 -155.5t137.5 -397.5q0 -244 -137.5 -399.5t-350.5 -155.5q-109 0 -199.5 45.5t-154.5 129.5v-502h-299v1784h299v-521q133 172 354 172zM698 227q125 0 204 85t79 218q0 132 -79.5 216.5t-203.5 84.5q-108 0 -182 -72t-86 -188v-82
q12 -117 86 -189.5t182 -72.5z" />
    <glyph glyph-name="ydieresis" unicode="&#xff;" horiz-adv-x="1230" 
d="M403 1196q-62 0 -103.5 42t-41.5 101t41.5 101.5t103.5 42.5q59 0 101.5 -42.5t42.5 -101.5q0 -58 -42.5 -100.5t-101.5 -42.5zM836 1196q-60 0 -102 42t-42 101t42 101.5t102 42.5t101.5 -42.5t41.5 -101.5t-41.5 -101t-101.5 -42zM373 -369q-66 0 -139.5 18.5
t-127.5 47.5l64 205q83 -47 139 -47q91 0 125 57l37 78l-440 1069h309l278 -744l265 744h305l-434 -1112q-60 -154 -158 -235t-223 -81z" />
    <glyph glyph-name="Amacron" unicode="&#x100;" horiz-adv-x="1538" 
d="M1122 1714v-176h-706v176h706zM1171 0l-90 221h-626l-90 -221h-338l573 1407h338l573 -1407h-340zM559 477h418l-209 514z" />
    <glyph glyph-name="amacron" unicode="&#x101;" horiz-adv-x="1189" 
d="M967 1366v-176h-707v176h707zM604 1083q209 0 337 -122.5t128 -327.5v-633h-289v106q-56 -63 -139 -97t-172 -34q-171 0 -285 94t-114 244q0 155 126.5 254t313.5 99q131 0 270 -54v21q0 92 -60 151.5t-183 59.5q-127 0 -275 -76l-100 199q229 116 442 116zM537 182
q90 0 159.5 40.5t83.5 111.5v98q-106 39 -227 39q-82 0 -138.5 -42.5t-56.5 -106.5q0 -63 50.5 -101.5t128.5 -38.5z" />
    <glyph glyph-name="Abreve" unicode="&#x102;" horiz-adv-x="1538" 
d="M1100 1673q-66 -66 -152.5 -100.5t-177.5 -34.5q-192 0 -330 135l129 129q41 -40 95 -63t106 -23t106 23t95 63zM1171 0l-90 221h-626l-90 -221h-338l573 1407h338l573 -1407h-340zM559 477h418l-209 514z" />
    <glyph glyph-name="abreve" unicode="&#x103;" horiz-adv-x="1189" 
d="M944 1325q-66 -66 -152.5 -100.5t-177.5 -34.5q-191 0 -329 135l129 129q42 -40 95 -63t105 -23t106 23t95 63zM604 1083q209 0 337 -122.5t128 -327.5v-633h-289v106q-56 -63 -139 -97t-172 -34q-171 0 -285 94t-114 244q0 155 126.5 254t313.5 99q131 0 270 -54v21
q0 92 -60 151.5t-183 59.5q-127 0 -275 -76l-100 199q229 116 442 116zM537 182q90 0 159.5 40.5t83.5 111.5v98q-106 39 -227 39q-82 0 -138.5 -42.5t-56.5 -106.5q0 -63 50.5 -101.5t128.5 -38.5z" />
    <glyph glyph-name="Aogonek" unicode="&#x104;" horiz-adv-x="1538" 
d="M1587 -147l53 -140q-74 -67 -182 -67q-101 0 -164 61.5t-63 165.5q0 71 37 127h-97l-90 221h-626l-90 -221h-338l573 1407h338l573 -1407q-42 0 -68 -25.5t-26 -64.5q0 -41 25 -62.5t69 -21.5q49 0 76 27zM559 477h418l-209 514z" />
    <glyph glyph-name="aogonek" unicode="&#x105;" horiz-adv-x="1189" 
d="M1145 -147l53 -140q-74 -67 -182 -67q-101 0 -164.5 61.5t-63.5 165.5q0 71 37 127h-45v106q-56 -63 -139 -97t-172 -34q-171 0 -285 94t-114 244q0 155 126.5 254t313.5 99q131 0 270 -54v21q0 92 -60 151.5t-183 59.5q-127 0 -275 -76l-100 199q229 116 442 116
q209 0 337 -122.5t128 -327.5v-633q-42 0 -68 -25.5t-26 -64.5q0 -41 25 -62.5t69 -21.5q49 0 76 27zM537 182q90 0 159.5 40.5t83.5 111.5v98q-106 39 -227 39q-82 0 -138.5 -42.5t-56.5 -106.5q0 -63 50.5 -101.5t128.5 -38.5z" />
    <glyph glyph-name="Cacute" unicode="&#x106;" horiz-adv-x="1425" 
d="M573 1526l238 319l268 -49l-303 -270h-203zM831 -25q-198 0 -370.5 99.5t-274.5 268t-102 362.5q0 145 60.5 279.5t161.5 232.5t239 156.5t286 58.5q157 0 299.5 -62.5t247.5 -173.5l-219 -197q-64 73 -149 115.5t-179 42.5q-116 0 -216.5 -61.5t-160 -166t-59.5 -224.5
q0 -121 59.5 -226t160 -167t216.5 -62q94 0 179 42.5t149 115.5l219 -197q-105 -110 -248 -173t-299 -63z" />
    <glyph glyph-name="cacute" unicode="&#x107;" horiz-adv-x="1122" 
d="M397 1178l238 319l268 -49l-303 -270h-203zM649 -25q-154 0 -287 75.5t-211.5 203.5t-78.5 276t79 275.5t212.5 202.5t287.5 75q251 0 416 -180l-199 -170q-40 45 -99 71.5t-120 26.5q-117 0 -202 -88.5t-85 -210.5q0 -125 85.5 -215t203.5 -90q61 0 121 28.5t102 74.5
l199 -168q-169 -187 -424 -187z" />
    <glyph glyph-name="Ccaron" unicode="&#x10c;" horiz-adv-x="1425" 
d="M662 1526l-216 301h185l153 -154l156 154h186l-217 -301h-247zM831 -25q-198 0 -370.5 99.5t-274.5 268t-102 362.5q0 145 60.5 279.5t161.5 232.5t239 156.5t286 58.5q157 0 299.5 -62.5t247.5 -173.5l-219 -197q-64 73 -149 115.5t-179 42.5q-116 0 -216.5 -61.5
t-160 -166t-59.5 -224.5q0 -121 59.5 -226t160 -167t216.5 -62q94 0 179 42.5t149 115.5l219 -197q-105 -110 -248 -173t-299 -63z" />
    <glyph glyph-name="ccaron" unicode="&#x10d;" horiz-adv-x="1122" 
d="M485 1178l-215 301h185l153 -154l156 154h186l-217 -301h-248zM649 -25q-154 0 -287 75.5t-211.5 203.5t-78.5 276t79 275.5t212.5 202.5t287.5 75q251 0 416 -180l-199 -170q-40 45 -99 71.5t-120 26.5q-117 0 -202 -88.5t-85 -210.5q0 -125 85.5 -215t203.5 -90
q61 0 121 28.5t102 74.5l199 -168q-169 -187 -424 -187z" />
    <glyph glyph-name="Dcaron" unicode="&#x10e;" horiz-adv-x="1558" 
d="M532 1526l-215 301h185l153 -154l156 154h186l-217 -301h-248zM152 0v1407h503q234 0 418.5 -89t287.5 -249.5t103 -363.5q0 -204 -103 -364.5t-287.5 -250.5t-418.5 -90h-503zM453 274h241q201 0 330 121t129 310q0 187 -129 307.5t-330 120.5h-241v-859z" />
    <glyph glyph-name="dcaron" unicode="&#x10f;" 
d="M922 907v525h299v-1432h-299v152q-134 -177 -357 -177q-213 0 -350 155.5t-137 399.5q0 243 137 398t350 155q224 0 357 -176zM1495 1432q67 0 108.5 -55t41.5 -140q0 -139 -166 -305l-84 63q78 75 96 152q-55 0 -95 42t-40 99q0 60 40.5 102t98.5 42zM651 227
q119 0 195 85t76 218q0 132 -76 216.5t-195 84.5q-124 0 -203 -84.5t-79 -216.5q0 -134 79 -218.5t203 -84.5z" />
    <glyph glyph-name="Dcroat" unicode="&#x110;" horiz-adv-x="1642" 
d="M741 1407q234 0 418.5 -89t287.5 -249.5t103 -363.5q0 -204 -103 -364.5t-287.5 -250.5t-418.5 -90h-503v573h-154v273h154v561h503zM780 274q201 0 330 121t129 310q0 187 -129 307.5t-330 120.5h-241v-287h321l-2 -273h-319v-299h241z" />
    <glyph glyph-name="dcroat" unicode="&#x111;" horiz-adv-x="1404" 
d="M1343 1325v-151h-122v-1174h-299v152q-134 -177 -357 -177q-213 0 -350 155.5t-137 399.5q0 243 137 398t350 155q224 0 357 -176v267h-312v151h312v107h299v-107h122zM651 227q119 0 195 85t76 218q0 132 -76 216.5t-195 84.5q-124 0 -203 -84.5t-79 -216.5
q0 -134 79 -218.5t203 -84.5z" />
    <glyph glyph-name="Emacron" unicode="&#x112;" horiz-adv-x="1312" 
d="M1034 1714v-176h-706v176h706zM1223 1135h-781v-281h707v-272h-707v-310h781v-272h-1084v1407h1084v-272z" />
    <glyph glyph-name="emacron" unicode="&#x113;" horiz-adv-x="1214" 
d="M969 1366v-176h-707v176h707zM631 240q63 0 131.5 26.5t111.5 67.5l191 -195q-70 -73 -192 -118.5t-240 -45.5q-156 0 -284 70.5t-202.5 198.5t-74.5 288q0 238 155.5 394.5t388.5 156.5q247 0 387 -175t140 -476h-764q27 -88 93.5 -140t158.5 -52zM629 819
q-85 0 -151 -46t-95 -126h473q-22 80 -80.5 126t-146.5 46z" />
    <glyph glyph-name="Edotaccent" unicode="&#x116;" horiz-adv-x="1312" 
d="M682 1544q-62 0 -103.5 42.5t-41.5 101.5t41.5 101t103.5 42q58 0 100.5 -42.5t42.5 -100.5q0 -59 -42.5 -101.5t-100.5 -42.5zM1223 1135h-781v-281h707v-272h-707v-310h781v-272h-1084v1407h1084v-272z" />
    <glyph glyph-name="edotaccent" unicode="&#x117;" horiz-adv-x="1214" 
d="M616 1196q-62 0 -103.5 42t-41.5 101t41.5 101.5t103.5 42.5q58 0 101 -42.5t43 -101.5q0 -58 -42.5 -100.5t-101.5 -42.5zM631 240q63 0 131.5 26.5t111.5 67.5l191 -195q-70 -73 -192 -118.5t-240 -45.5q-156 0 -284 70.5t-202.5 198.5t-74.5 288q0 238 155.5 394.5
t388.5 156.5q247 0 387 -175t140 -476h-764q27 -88 93.5 -140t158.5 -52zM629 819q-85 0 -151 -46t-95 -126h473q-22 80 -80.5 126t-146.5 46z" />
    <glyph glyph-name="Eogonek" unicode="&#x118;" horiz-adv-x="1312" 
d="M1223 1135h-781v-281h707v-272h-707v-310h781v-272h-131q-42 0 -68.5 -25.5t-26.5 -64.5q0 -40 25.5 -62t69.5 -22q48 0 75 27l54 -140q-74 -67 -183 -67q-101 0 -164 61.5t-63 165.5q0 71 37 127h-709v1407h1084v-272z" />
    <glyph glyph-name="eogonek" unicode="&#x119;" horiz-adv-x="1212" 
d="M1065 139q-73 -76 -203 -123q-20 -20 -20 -57q0 -41 25 -62.5t69 -21.5q49 0 76 27l53 -140q-74 -67 -182 -67q-101 0 -164.5 61.5t-63.5 165.5q0 25 7 53h-29q-156 0 -284 70.5t-202.5 198.5t-74.5 288q0 238 155.5 394.5t388.5 156.5q247 0 387 -175t140 -476h-764
q27 -88 93.5 -140t158.5 -52q63 0 131.5 26.5t111.5 67.5zM629 819q-85 0 -151 -46t-95 -126h473q-22 80 -80.5 126t-146.5 46z" />
    <glyph glyph-name="Ecaron" unicode="&#x11a;" horiz-adv-x="1312" 
d="M807 1526h-248l-215 301h184l154 -154l156 154h186zM1223 1135h-781v-281h707v-272h-707v-310h781v-272h-1084v1407h1084v-272z" />
    <glyph glyph-name="ecaron" unicode="&#x11b;" horiz-adv-x="1214" 
d="M741 1178h-247l-215 301h184l153 -154l156 154h186zM631 240q63 0 131.5 26.5t111.5 67.5l191 -195q-70 -73 -192 -118.5t-240 -45.5q-156 0 -284 70.5t-202.5 198.5t-74.5 288q0 238 155.5 394.5t388.5 156.5q247 0 387 -175t140 -476h-764q27 -88 93.5 -140t158.5 -52z
M629 819q-85 0 -151 -46t-95 -126h473q-22 80 -80.5 126t-146.5 46z" />
    <glyph glyph-name="Gbreve" unicode="&#x11e;" horiz-adv-x="1521" 
d="M1167 1673q-66 -66 -152 -100.5t-177 -34.5q-192 0 -330 135l129 129q41 -40 95 -63t106 -23t105 23t95 63zM784 555v236h623v-580q-105 -110 -257.5 -173t-311.5 -63q-150 0 -289.5 59t-241 157.5t-162.5 233.5t-61 280t61 279.5t162.5 232.5t241 156.5t289.5 58.5
q159 0 311.5 -63t257.5 -173l-219 -197q-63 72 -158 115t-192 43q-88 0 -170 -36.5t-141.5 -97.5t-95.5 -144.5t-36 -173.5q0 -121 60 -226t162.5 -167t220.5 -62q148 0 274 90v215h-328z" />
    <glyph glyph-name="gbreve" unicode="&#x11f;" horiz-adv-x="1329" 
d="M1020 1325q-66 -66 -152.5 -100.5t-177.5 -34.5q-192 0 -330 135l129 129q41 -40 95 -63t106 -23t106 23t95 63zM897 1059h301v-946q0 -204 -159.5 -334.5t-409.5 -130.5q-136 0 -261.5 39t-205.5 102l104 211q53 -46 138.5 -73t177.5 -27q145 0 230 61t85 164v117
q-64 -77 -155.5 -120.5t-194.5 -43.5q-201 0 -335 142t-134 362q0 219 134 360t335 141q106 0 200.5 -46t149.5 -122v144zM641 330q112 0 184 71t72 181t-71.5 179.5t-184.5 69.5t-184.5 -69.5t-71.5 -179.5t72 -181t184 -71z" />
    <glyph glyph-name="Gcommaaccent" unicode="&#x122;" horiz-adv-x="1521" 
d="M784 555v236h623v-580q-105 -110 -257.5 -173t-311.5 -63q-150 0 -289.5 59t-241 157.5t-162.5 233.5t-61 280t61 279.5t162.5 232.5t241 156.5t289.5 58.5q159 0 311.5 -63t257.5 -173l-219 -197q-63 72 -158 115t-192 43q-88 0 -170 -36.5t-141.5 -97.5t-95.5 -144.5
t-36 -173.5q0 -121 60 -226t162.5 -167t220.5 -62q148 0 274 90v215h-328zM836 -96q67 0 108 -54.5t41 -140.5q0 -139 -166 -305l-84 64q78 75 96 151q-55 0 -95 42t-40 99q0 60 41 102t99 42z" />
    <glyph glyph-name="gcommaaccent" unicode="&#x123;" horiz-adv-x="1329" 
d="M651 1198q-67 0 -108 54.5t-41 140.5q0 139 166 305l84 -64q-79 -76 -97 -151q55 0 95.5 -42.5t40.5 -99.5q0 -60 -40.5 -101.5t-99.5 -41.5zM897 1059h301v-946q0 -204 -159.5 -334.5t-409.5 -130.5q-136 0 -261.5 39t-205.5 102l104 211q53 -46 138.5 -73t177.5 -27
q145 0 230 61t85 164v117q-64 -77 -155.5 -120.5t-194.5 -43.5q-201 0 -335 142t-134 362q0 219 134 360t335 141q106 0 200.5 -46t149.5 -122v144zM641 330q112 0 184 71t72 181t-71.5 179.5t-184.5 69.5t-184.5 -69.5t-71.5 -179.5t72 -181t184 -71z" />
    <glyph glyph-name="Imacron" unicode="&#x12a;" horiz-adv-x="587" 
d="M-59 1538v176h706v-176h-706zM143 0v1407h303v-1407h-303z" />
    <glyph glyph-name="imacron" unicode="&#x12b;" horiz-adv-x="557" 
d="M-76 1190v176h707v-176h-707zM129 0v1059h299v-1059h-299z" />
    <glyph glyph-name="Iogonek" unicode="&#x12e;" horiz-adv-x="587" 
d="M485 -147l54 -140q-74 -67 -183 -67q-101 0 -164 61.5t-63 165.5q0 71 37 127h-23v1407h303v-1407h-36q-42 0 -68.5 -25.5t-26.5 -64.5q0 -40 25.5 -62t69.5 -22q48 0 75 27z" />
    <glyph glyph-name="iogonek" unicode="&#x12f;" horiz-adv-x="557" 
d="M279 1196q-62 0 -104 42t-42 101t42 101.5t104 42.5q58 0 100.5 -42.5t42.5 -101.5t-42 -101t-101 -42zM279 0q-42 0 -68.5 -25.5t-26.5 -64.5q0 -40 25.5 -62t69.5 -22q48 0 75 27l54 -140q-74 -67 -183 -67q-101 0 -164 61.5t-63 165.5q0 129 106 188l25 -8v1006h299
v-1059h-149z" />
    <glyph glyph-name="Idotaccent" unicode="&#x130;" horiz-adv-x="587" 
d="M295 1544q-62 0 -103.5 42.5t-41.5 101.5t41.5 101t103.5 42q59 0 101 -42.5t42 -100.5q0 -59 -42.5 -101.5t-100.5 -42.5zM143 0v1407h303v-1407h-303z" />
    <glyph glyph-name="dotlessi" unicode="&#x131;" horiz-adv-x="557" 
d="M129 0v1059h299v-1059h-299z" />
    <glyph glyph-name="Kcommaaccent" unicode="&#x136;" horiz-adv-x="1431" 
d="M150 0v1407h301v-645l569 645h366l-548 -610l587 -797h-366l-432 582l-176 -189v-393h-301zM723 -596l-84 64q78 75 96 151q-55 0 -95 42t-40 99q0 60 40.5 102t98.5 42q67 0 108.5 -55t41.5 -140q0 -139 -166 -305z" />
    <glyph glyph-name="kcommaaccent" unicode="&#x137;" horiz-adv-x="1169" 
d="M1161 1059l-411 -469l407 -590h-344l-262 397l-127 -137v-260h-299v1432h299v-830l393 457h344zM608 -96q67 0 108.5 -55t41.5 -140q0 -139 -166 -305l-84 64q78 75 96 151q-55 0 -95 42t-40 99q0 60 40.5 102t98.5 42z" />
    <glyph glyph-name="Lacute" unicode="&#x139;" horiz-adv-x="1187" 
d="M678 1796l-303 -270h-203l238 319zM432 272h701v-272h-1004v1407h303v-1135z" />
    <glyph glyph-name="lacute" unicode="&#x13a;" horiz-adv-x="559" 
d="M174 1550l238 320l268 -49l-303 -271h-203zM131 0v1432h299v-1432h-299z" />
    <glyph glyph-name="Lcaron" unicode="&#x13d;" horiz-adv-x="1187" 
d="M702 1145q-55 0 -95 42t-40 99q0 60 41 102t99 42q67 0 108 -54.5t41 -140.5q0 -139 -166 -305l-84 63q78 75 96 152zM432 272h701v-272h-1004v1407h303v-1135z" />
    <glyph glyph-name="lcaron" unicode="&#x13e;" horiz-adv-x="559" 
d="M131 0v1432h299v-1432h-299zM688 932l-84 63q78 75 96 152q-55 0 -95 42t-40 99q0 60 41 102t99 42q67 0 108 -54.5t41 -140.5q0 -139 -166 -305z" />
    <glyph glyph-name="Lslash" unicode="&#x141;" horiz-adv-x="1263" 
d="M506 272h700v-272h-1003v485l-150 -75v268l150 74v655h303v-504l242 121v-266l-242 -121v-365z" />
    <glyph glyph-name="lslash" unicode="&#x142;" horiz-adv-x="722" 
d="M672 987v-266l-162 -82v-639h-299v489l-158 -79v268l158 80v674h299v-525z" />
    <glyph glyph-name="Nacute" unicode="&#x143;" horiz-adv-x="1585" 
d="M582 1526l237 319l268 -49l-303 -270h-202zM152 0v1407h301l677 -909v909h304v-1407h-304l-677 909v-909h-301z" />
    <glyph glyph-name="nacute" unicode="&#x144;" horiz-adv-x="1257" 
d="M948 1448l-303 -270h-203l238 319zM743 1083q172 0 283 -114.5t111 -294.5v-674h-289v610q0 98 -56 159.5t-145 61.5q-94 0 -157.5 -59t-63.5 -145l-2 6v-633h-299v1059h299v-133q48 73 132.5 115t186.5 42z" />
    <glyph glyph-name="Ncommaaccent" unicode="&#x145;" horiz-adv-x="1585" 
d="M152 0v1407h301l677 -909v909h304v-1407h-304l-677 909v-909h-301zM776 -596l-84 64q78 75 96 151q-55 0 -95 42t-40 99q0 60 41 102t99 42q67 0 108 -54.5t41 -140.5q0 -139 -166 -305z" />
    <glyph glyph-name="ncommaaccent" unicode="&#x146;" horiz-adv-x="1257" 
d="M743 1083q172 0 283 -114.5t111 -294.5v-674h-289v610q0 98 -56 159.5t-145 61.5q-94 0 -157.5 -59t-63.5 -145l-2 6v-633h-299v1059h299v-133q48 73 132.5 115t186.5 42zM653 -96q67 0 108.5 -55t41.5 -140q0 -139 -166 -305l-84 64q78 75 96 151q-55 0 -95 42t-40 99
q0 60 40.5 102t98.5 42z" />
    <glyph glyph-name="Ncaron" unicode="&#x147;" horiz-adv-x="1585" 
d="M670 1526l-215 301h184l154 -154l155 154h187l-217 -301h-248zM152 0v1407h301l677 -909v909h304v-1407h-304l-677 909v-909h-301z" />
    <glyph glyph-name="ncaron" unicode="&#x148;" horiz-adv-x="1257" 
d="M778 1178h-248l-215 301h185l153 -154l156 154h186zM743 1083q172 0 283 -114.5t111 -294.5v-674h-289v610q0 98 -56 159.5t-145 61.5q-94 0 -157.5 -59t-63.5 -145l-2 6v-633h-299v1059h299v-133q48 73 132.5 115t186.5 42z" />
    <glyph glyph-name="Omacron" unicode="&#x14c;" horiz-adv-x="1662" 
d="M477 1538v176h707v-176h-707zM831 -25q-198 0 -370.5 99.5t-274.5 268t-102 362.5q0 145 60.5 279.5t161.5 232.5t239 156.5t286 58.5q150 0 288.5 -58.5t239 -156.5t160.5 -232.5t60 -279.5t-60 -280t-160.5 -233.5t-239 -157.5t-288.5 -59zM831 250q117 0 218.5 62
t161 167t59.5 226q0 183 -130.5 317.5t-308.5 134.5q-116 0 -216.5 -61.5t-160 -166t-59.5 -224.5q0 -121 59.5 -226t160 -167t216.5 -62z" />
    <glyph glyph-name="omacron" unicode="&#x14d;" horiz-adv-x="1298" 
d="M297 1190v176h707v-176h-707zM651 -25q-155 0 -288.5 75.5t-212 203.5t-78.5 276t78.5 275.5t212 202.5t288.5 75q154 0 287 -75t211 -202.5t78 -275.5t-78 -276t-211 -203.5t-287 -75.5zM651 227q118 0 204.5 90t86.5 213t-86 212t-205 89q-120 0 -206.5 -89t-86.5 -212
t86.5 -213t206.5 -90z" />
    <glyph glyph-name="Ohungarumlaut" unicode="&#x150;" horiz-adv-x="1662" 
d="M469 1524l238 321l268 -49l-303 -272h-203zM950 1524l236 319l270 -49l-303 -270h-203zM831 -25q-198 0 -370.5 99.5t-274.5 268t-102 362.5q0 145 60.5 279.5t161.5 232.5t239 156.5t286 58.5q150 0 288.5 -58.5t239 -156.5t160.5 -232.5t60 -279.5t-60 -280
t-160.5 -233.5t-239 -157.5t-288.5 -59zM831 250q117 0 218.5 62t161 167t59.5 226q0 183 -130.5 317.5t-308.5 134.5q-116 0 -216.5 -61.5t-160 -166t-59.5 -224.5q0 -121 59.5 -226t160 -167t216.5 -62z" />
    <glyph glyph-name="ohungarumlaut" unicode="&#x151;" horiz-adv-x="1298" 
d="M295 1176l237 321l269 -49l-303 -272h-203zM776 1176l236 319l270 -49l-303 -270h-203zM651 -25q-155 0 -288.5 75.5t-212 203.5t-78.5 276t78.5 275.5t212 202.5t288.5 75q154 0 287 -75t211 -202.5t78 -275.5t-78 -276t-211 -203.5t-287 -75.5zM651 227q118 0 204.5 90
t86.5 213t-86 212t-205 89q-120 0 -206.5 -89t-86.5 -212t86.5 -213t206.5 -90z" />
    <glyph glyph-name="OE" unicode="&#x152;" horiz-adv-x="2129" 
d="M2040 1135h-780v-281h706v-272h-706v-310h780v-272h-1209q-149 0 -286.5 53.5t-238.5 145.5t-161.5 222t-60.5 275t60.5 277t161.5 227t238.5 151t286.5 56h1209v-272zM831 274h125v859h-125q-117 0 -217 -58t-159.5 -158.5t-59.5 -220.5q0 -181 128 -301.5t308 -120.5z
" />
    <glyph glyph-name="oe" unicode="&#x153;" horiz-adv-x="2088" 
d="M1507 240q63 0 132 26.5t112 67.5l191 -195q-70 -73 -192 -118.5t-241 -45.5q-130 0 -241.5 49.5t-188.5 139.5q-79 -88 -191.5 -138.5t-236.5 -50.5q-155 0 -288.5 75.5t-212 203.5t-78.5 276t78.5 275.5t212 202.5t288.5 75q124 0 234.5 -49t191.5 -135
q74 87 182 135.5t234 48.5q247 0 386.5 -175t139.5 -476h-764q27 -88 93.5 -140t158.5 -52zM651 227q118 0 204.5 90t86.5 213t-86 212t-205 89q-120 0 -206.5 -89t-86.5 -212t86.5 -213t206.5 -90zM1505 819q-85 0 -150.5 -46t-94.5 -126h473q-22 80 -80.5 126t-147.5 46z
" />
    <glyph glyph-name="Racute" unicode="&#x154;" horiz-adv-x="1388" 
d="M989 1796l-303 -270h-203l238 319zM1329 0h-344l-321 457h-224v-457h-301v1407h633q230 0 380.5 -133.5t150.5 -341.5q0 -155 -86.5 -271.5t-233.5 -168.5zM440 1130v-397h299q113 0 182.5 54.5t69.5 144.5t-69.5 144t-182.5 54h-299z" />
    <glyph glyph-name="racute" unicode="&#x155;" horiz-adv-x="833" 
d="M760 1448l-303 -270h-203l238 319zM430 862q53 104 148 162.5t215 58.5v-252q-166 0 -264.5 -88t-98.5 -237v-506h-299v1059h299v-197z" />
    <glyph glyph-name="Rcommaaccent" unicode="&#x156;" horiz-adv-x="1388" 
d="M983 492l346 -492h-344l-321 457h-224v-457h-301v1407h633q230 0 380.5 -133.5t150.5 -341.5q0 -155 -86.5 -271.5t-233.5 -168.5zM440 1130v-397h299q113 0 182.5 54.5t69.5 144.5t-69.5 144t-182.5 54h-299zM690 -96q67 0 108.5 -55t41.5 -140q0 -139 -166 -305l-84 64
q78 75 96 151q-55 0 -95 42t-40 99q0 60 40.5 102t98.5 42z" />
    <glyph glyph-name="rcommaaccent" unicode="&#x157;" horiz-adv-x="833" 
d="M430 862q53 104 148 162.5t215 58.5v-252q-166 0 -264.5 -88t-98.5 -237v-506h-299v1059h299v-197zM385 -96q67 0 108.5 -55t41.5 -140q0 -139 -166 -305l-84 64q78 75 96 151q-55 0 -95 42t-40 99q0 60 40.5 102t98.5 42z" />
    <glyph glyph-name="Rcaron" unicode="&#x158;" horiz-adv-x="1388" 
d="M819 1526h-248l-215 301h185l153 -154l156 154h186zM1329 0h-344l-321 457h-224v-457h-301v1407h633q230 0 380.5 -133.5t150.5 -341.5q0 -155 -86.5 -271.5t-233.5 -168.5zM440 1130v-397h299q113 0 182.5 54.5t69.5 144.5t-69.5 144t-182.5 54h-299z" />
    <glyph glyph-name="rcaron" unicode="&#x159;" horiz-adv-x="833" 
d="M590 1178h-248l-215 301h184l154 -154l156 154h186zM430 862q53 104 148 162.5t215 58.5v-252q-166 0 -264.5 -88t-98.5 -237v-506h-299v1059h299v-197z" />
    <glyph glyph-name="Sacute" unicode="&#x15a;" horiz-adv-x="1296" 
d="M418 1526l237 319l269 -49l-303 -270h-203zM672 -25q-183 0 -342.5 60t-282.5 174l174 207q214 -185 463 -185q110 0 169.5 44.5t59.5 113.5q0 71 -62.5 106t-234.5 74q-99 23 -168 44.5t-137.5 56t-109.5 76.5t-66.5 104.5t-25.5 142.5q0 195 145 317t375 122
q324 0 551 -195l-158 -217q-195 156 -401 156q-94 0 -150.5 -43.5t-56.5 -108.5q0 -73 64 -109t237 -75q98 -22 169.5 -44.5t138 -57t107.5 -77t65 -103t24 -136.5q0 -203 -146 -325t-401 -122z" />
    <glyph glyph-name="sacute" unicode="&#x15b;" horiz-adv-x="1028" 
d="M301 1178l238 319l268 -49l-303 -270h-203zM528 -25q-129 0 -256 42t-221 118l129 207q164 -119 355 -119q60 0 98.5 22.5t38.5 57.5q0 16 -5.5 29t-20 24t-26.5 18t-39 16t-43 13.5t-53 14.5q-75 18 -124.5 33.5t-103.5 42t-85.5 58t-52 79t-21.5 108.5q-2 152 113 248
t301 96q222 0 418 -131l-121 -213q-155 95 -297 95q-55 0 -90 -18t-35 -46q0 -41 36 -61.5t150 -51.5q47 -12 79 -21.5t76 -26t73.5 -33.5t61.5 -43t51 -56t31.5 -71t12.5 -89q0 -156 -117.5 -249t-312.5 -93z" />
    <glyph glyph-name="Scedilla" unicode="&#x15e;" horiz-adv-x="1296" 
d="M1219 422q0 -191 -130 -311.5t-358 -133.5l-26 -65q68 0 110.5 -39t42.5 -100q0 -80 -62 -128t-159 -48q-115 0 -195 59l54 119q56 -47 125 -47q36 0 61 17t25 44q0 25 -18 40t-50 15q-34 0 -61 -18l-46 43l48 111q-316 28 -533 229l174 207q214 -185 463 -185
q110 0 169.5 44.5t59.5 113.5q0 71 -62.5 106t-234.5 74q-99 23 -168 44.5t-137.5 56t-109.5 76.5t-66.5 104.5t-25.5 142.5q0 195 145 317t375 122q324 0 551 -195l-158 -217q-195 156 -401 156q-94 0 -150.5 -43.5t-56.5 -108.5q0 -73 64 -109t237 -75q98 -22 169.5 -44.5
t138 -57t107.5 -77t65 -103t24 -136.5z" />
    <glyph glyph-name="scedilla" unicode="&#x15f;" horiz-adv-x="1028" 
d="M958 317q0 -142 -97.5 -232t-264.5 -105l-27 -68q68 0 111 -39t43 -100q0 -80 -62 -128t-159 -48q-115 0 -195 59l53 119q56 -47 125 -47q36 0 61 17t25 44q0 25 -17.5 40t-49.5 15q-35 0 -62 -18l-45 43l47 111q-234 26 -393 155l129 207q164 -119 355 -119
q60 0 98.5 22.5t38.5 57.5q0 16 -5.5 29t-20 24t-26.5 18t-39 16t-43 13.5t-53 14.5q-75 18 -124.5 33.5t-103.5 42t-85.5 58t-52 79t-21.5 108.5q-2 152 113 248t301 96q222 0 418 -131l-121 -213q-155 95 -297 95q-55 0 -90 -18t-35 -46q0 -41 36 -61.5t150 -51.5
q47 -12 79 -21.5t76 -26t73.5 -33.5t61.5 -43t51 -56t31.5 -71t12.5 -89z" />
    <glyph glyph-name="Scaron" unicode="&#x160;" horiz-adv-x="1296" 
d="M506 1526l-215 301h184l154 -154l155 154h187l-217 -301h-248zM672 -25q-183 0 -342.5 60t-282.5 174l174 207q214 -185 463 -185q110 0 169.5 44.5t59.5 113.5q0 71 -62.5 106t-234.5 74q-99 23 -168 44.5t-137.5 56t-109.5 76.5t-66.5 104.5t-25.5 142.5q0 195 145 317
t375 122q324 0 551 -195l-158 -217q-195 156 -401 156q-94 0 -150.5 -43.5t-56.5 -108.5q0 -73 64 -109t237 -75q98 -22 169.5 -44.5t138 -57t107.5 -77t65 -103t24 -136.5q0 -203 -146 -325t-401 -122z" />
    <glyph glyph-name="scaron" unicode="&#x161;" horiz-adv-x="1028" 
d="M389 1178l-215 301h184l154 -154l156 154h186l-217 -301h-248zM528 -25q-129 0 -256 42t-221 118l129 207q164 -119 355 -119q60 0 98.5 22.5t38.5 57.5q0 16 -5.5 29t-20 24t-26.5 18t-39 16t-43 13.5t-53 14.5q-75 18 -124.5 33.5t-103.5 42t-85.5 58t-52 79
t-21.5 108.5q-2 152 113 248t301 96q222 0 418 -131l-121 -213q-155 95 -297 95q-55 0 -90 -18t-35 -46q0 -41 36 -61.5t150 -51.5q47 -12 79 -21.5t76 -26t73.5 -33.5t61.5 -43t51 -56t31.5 -71t12.5 -89q0 -156 -117.5 -249t-312.5 -93z" />
    <glyph glyph-name="uni0162" unicode="&#x162;" horiz-adv-x="1308" 
d="M807 0h-70l-35 -88q68 0 111 -39t43 -100q0 -80 -62 -128t-159 -48q-115 0 -195 59l54 119q56 -47 124 -47q36 0 61.5 17t25.5 44q0 25 -18 40t-50 15q-35 0 -62 -18l-45 43l56 131h-82v1135h-438v272h1179v-272h-438v-1135z" />
    <glyph glyph-name="uni0163" unicode="&#x163;" horiz-adv-x="815" 
d="M575 -88q68 0 111 -39t43 -100q0 -80 -62 -128t-159 -48q-115 0 -195 59l54 119q56 -47 125 -47q36 0 61 17t25 44q0 25 -18 40t-50 15q-34 0 -61 -18l-46 43l48 113q-114 20 -183 106t-69 211v518h-146v242h146v291h286v-291h230v-242h-230v-471q0 -52 29.5 -85.5
t71.5 -33.5q67 0 102 35l72 -194q-64 -58 -154 -80z" />
    <glyph glyph-name="Tcaron" unicode="&#x164;" horiz-adv-x="1308" 
d="M532 1526l-215 301h185l153 -154l156 154h186l-217 -301h-248zM504 0v1135h-438v272h1179v-272h-438v-1135h-303z" />
    <glyph glyph-name="tcaron" unicode="&#x165;" horiz-adv-x="815" 
d="M991 1432q67 0 108.5 -55t41.5 -140q0 -139 -166 -305l-84 63q78 75 96 152q-55 0 -95 42t-40 99q0 60 40.5 102t98.5 42zM586 227q67 0 102 35l72 -194q-46 -42 -113 -67.5t-131 -25.5q-139 0 -228 90.5t-89 233.5v518h-146v242h146v291h286v-291h230v-242h-230v-471
q0 -52 29.5 -85.5t71.5 -33.5z" />
    <glyph glyph-name="Umacron" unicode="&#x16a;" horiz-adv-x="1546" 
d="M420 1538v176h706v-176h-706zM774 -25q-185 0 -330.5 80.5t-226 225t-80.5 327.5v799h301v-786q0 -163 94 -267t242 -104q146 0 240 104t94 267v786h303v-799q0 -278 -178.5 -455.5t-458.5 -177.5z" />
    <glyph glyph-name="umacron" unicode="&#x16b;" horiz-adv-x="1257" 
d="M977 1366v-176h-707v176h707zM834 1059h299v-1059h-299v133q-48 -73 -133 -115.5t-187 -42.5q-172 0 -282.5 115t-110.5 295v674h289v-610q0 -98 55.5 -160t144.5 -62q94 0 157.5 59.5t63.5 145.5l3 -6v633z" />
    <glyph glyph-name="Uring" unicode="&#x16e;" horiz-adv-x="1546" 
d="M774 1538q-97 0 -165 67t-68 164t68 165.5t165 68.5t165.5 -68.5t68.5 -165.5q0 -96 -68.5 -163.5t-165.5 -67.5zM774 1661q44 0 76.5 32t32.5 76t-32.5 76.5t-76.5 32.5t-76 -32.5t-32 -76.5t32 -76t76 -32zM774 -25q-185 0 -330.5 80.5t-226 225t-80.5 327.5v799h301
v-786q0 -163 94 -267t242 -104q146 0 240 104t94 267v786h303v-799q0 -278 -178.5 -455.5t-458.5 -177.5z" />
    <glyph glyph-name="uring" unicode="&#x16f;" horiz-adv-x="1257" 
d="M625 1190q-97 0 -165.5 67.5t-68.5 163.5q0 97 68.5 165.5t165.5 68.5t165 -68.5t68 -165.5t-68 -164t-165 -67zM625 1530q-44 0 -76.5 -32.5t-32.5 -76.5t32.5 -76t76.5 -32t76 32t32 76t-32 76.5t-76 32.5zM834 1059h299v-1059h-299v133q-48 -73 -133 -115.5
t-187 -42.5q-172 0 -282.5 115t-110.5 295v674h289v-610q0 -98 55.5 -160t144.5 -62q94 0 157.5 59.5t63.5 145.5l3 -6v633z" />
    <glyph glyph-name="Uhungarumlaut" unicode="&#x170;" horiz-adv-x="1546" 
d="M391 1524l238 321l268 -49l-303 -272h-203zM872 1524l236 319l270 -49l-303 -270h-203zM774 -25q-185 0 -330.5 80.5t-226 225t-80.5 327.5v799h301v-786q0 -163 94 -267t242 -104q146 0 240 104t94 267v786h303v-799q0 -278 -178.5 -455.5t-458.5 -177.5z" />
    <glyph glyph-name="uhungarumlaut" unicode="&#x171;" horiz-adv-x="1257" 
d="M760 1448l-303 -272h-203l238 321zM938 1176h-203l236 319l270 -49zM834 426v633h299v-1059h-299v133q-48 -73 -133 -115.5t-187 -42.5q-172 0 -282.5 115t-110.5 295v674h289v-610q0 -98 55.5 -160t144.5 -62q94 0 157.5 59.5t63.5 145.5z" />
    <glyph glyph-name="Uogonek" unicode="&#x172;" horiz-adv-x="1546" 
d="M1108 1407h303v-799q0 -274 -173 -450.5t-447 -182.5q-27 -27 -27 -65q0 -41 25 -62.5t69 -21.5q49 0 76 27l53 -140q-74 -67 -182 -67q-101 0 -164 61.5t-63 165.5q0 65 32 121q-215 47 -344 213.5t-129 400.5v799h301v-786q0 -163 94 -267t242 -104q146 0 240 104
t94 267v786z" />
    <glyph glyph-name="uogonek" unicode="&#x173;" horiz-adv-x="1257" 
d="M1206 -147l54 -140q-74 -67 -183 -67q-101 0 -164 61.5t-63 165.5q0 71 37 127h-53v133q-48 -73 -133 -115.5t-187 -42.5q-172 0 -282.5 115t-110.5 295v674h289v-610q0 -98 55.5 -160t144.5 -62q94 0 157.5 59.5t63.5 145.5l3 -6v633h299v-1059h-3q-42 0 -68 -25.5
t-26 -64.5q0 -41 25 -62.5t69 -21.5q49 0 76 27z" />
    <glyph glyph-name="Wcircumflex" unicode="&#x174;" horiz-adv-x="2207" 
d="M768 1526l215 301h248l217 -301h-186l-156 151l-154 -151h-184zM467 0l-426 1407h328l260 -944l311 944h328l311 -944l260 944h328l-426 -1407h-303l-332 967l-334 -967h-305z" />
    <glyph glyph-name="wcircumflex" unicode="&#x175;" horiz-adv-x="1722" 
d="M526 1178l215 301h248l217 -301h-186l-156 151l-153 -151h-185zM397 0l-360 1059h293l200 -660l209 660h248l209 -660l201 660h293l-361 -1059h-268l-197 666l-198 -666h-269z" />
    <glyph glyph-name="Ycircumflex" unicode="&#x176;" horiz-adv-x="1421" 
d="M373 1526l215 301h248l217 -301h-187l-155 151l-154 -151h-184zM559 0v508l-551 899h352l351 -616l364 616h338l-549 -899v-508h-305z" />
    <glyph glyph-name="ycircumflex" unicode="&#x177;" horiz-adv-x="1230" 
d="M281 1178l215 301h247l218 -301h-187l-156 151l-153 -151h-184zM373 -369q-66 0 -139.5 18.5t-127.5 47.5l64 205q83 -47 139 -47q91 0 125 57l37 78l-440 1069h309l278 -744l265 744h305l-434 -1112q-60 -154 -158 -235t-223 -81z" />
    <glyph glyph-name="Ydieresis" unicode="&#x178;" horiz-adv-x="1421" 
d="M496 1544q-62 0 -104 42.5t-42 101.5t42 101t104 42q58 0 100.5 -42.5t42.5 -100.5q0 -59 -42.5 -101.5t-100.5 -42.5zM928 1544q-60 0 -102 42.5t-42 101.5t42 101t102 42t101.5 -42t41.5 -101t-41.5 -101.5t-101.5 -42.5zM559 0v508l-551 899h352l351 -616l364 616h338
l-549 -899v-508h-305z" />
    <glyph glyph-name="Zacute" unicode="&#x179;" horiz-adv-x="1353" 
d="M475 1526l238 319l268 -49l-303 -270h-203zM98 0l-2 229l740 906h-723v272h1138v-229l-739 -906h748v-272h-1162z" />
    <glyph glyph-name="zacute" unicode="&#x17a;" horiz-adv-x="1089" 
d="M348 1178l238 319l268 -49l-303 -270h-203zM84 0v211l532 594h-518v254h908v-211l-533 -594h537v-254h-926z" />
    <glyph glyph-name="Zdotaccent" unicode="&#x17b;" horiz-adv-x="1353" 
d="M686 1544q-62 0 -103.5 42.5t-41.5 101.5t41.5 101t103.5 42q58 0 100.5 -42.5t42.5 -100.5q0 -59 -42.5 -101.5t-100.5 -42.5zM98 0l-2 229l740 906h-723v272h1138v-229l-739 -906h748v-272h-1162z" />
    <glyph glyph-name="zdotaccent" unicode="&#x17c;" horiz-adv-x="1089" 
d="M559 1196q-62 0 -103.5 42t-41.5 101t41.5 101.5t103.5 42.5q58 0 100.5 -42.5t42.5 -101.5t-42 -101t-101 -42zM84 0v211l532 594h-518v254h908v-211l-533 -594h537v-254h-926z" />
    <glyph glyph-name="Zcaron" unicode="&#x17d;" horiz-adv-x="1353" 
d="M563 1526l-215 301h184l154 -154l156 154h186l-217 -301h-248zM98 0l-2 229l740 906h-723v272h1138v-229l-739 -906h748v-272h-1162z" />
    <glyph glyph-name="zcaron" unicode="&#x17e;" horiz-adv-x="1089" 
d="M436 1178l-215 301h185l153 -154l156 154h186l-217 -301h-248zM84 0v211l532 594h-518v254h908v-211l-533 -594h537v-254h-926z" />
    <glyph glyph-name="uni0237" unicode="&#x237;" horiz-adv-x="557" 
d="M98 -365q-123 0 -211 43l31 222q55 -19 111 -19q44 0 72 33t28 86v1059h299v-1090q0 -146 -92.5 -240t-237.5 -94z" />
    <glyph glyph-name="circumflex" unicode="&#x2c6;" horiz-adv-x="937" 
d="M129 1178l215 301h248l217 -301h-186l-156 151l-154 -151h-184z" />
    <glyph glyph-name="caron" unicode="&#x2c7;" horiz-adv-x="937" 
d="M344 1178l-215 301h184l154 -154l156 154h186l-217 -301h-248z" />
    <glyph glyph-name="breve" unicode="&#x2d8;" horiz-adv-x="917" 
d="M459 1190q-192 0 -330 135l129 129q41 -40 95 -63t106 -23t105 23t95 63l129 -129q-66 -66 -152 -100.5t-177 -34.5z" />
    <glyph glyph-name="dotaccent" unicode="&#x2d9;" horiz-adv-x="546" 
d="M274 1196q-62 0 -103.5 42t-41.5 101t41.5 101.5t103.5 42.5q58 0 101 -42.5t43 -101.5q0 -58 -42.5 -100.5t-101.5 -42.5z" />
    <glyph glyph-name="ring" unicode="&#x2da;" horiz-adv-x="724" 
d="M362 1190q-97 0 -165 67t-68 164t68 165.5t165 68.5t165.5 -68.5t68.5 -165.5q0 -96 -68.5 -163.5t-165.5 -67.5zM362 1313q44 0 76.5 32t32.5 76t-32.5 76.5t-76.5 32.5t-76 -32.5t-32 -76.5t32 -76t76 -32z" />
    <glyph glyph-name="ogonek" unicode="&#x2db;" horiz-adv-x="667" 
d="M356 -354q-101 0 -164 61.5t-63 165.5q0 128 107 188l174 -61q-42 0 -68.5 -25.5t-26.5 -64.5q0 -40 25.5 -62t69.5 -22q48 0 75 27l54 -140q-74 -67 -183 -67z" />
    <glyph glyph-name="tilde" unicode="&#x2dc;" horiz-adv-x="909" 
d="M592 1174q-49 0 -101.5 26t-96 52t-70.5 26q-66 0 -86 -109l-150 23q17 135 72.5 202.5t154.5 67.5q49 0 103 -26t98 -52t70 -26q66 0 86 106l147 -20q-15 -136 -70.5 -203t-156.5 -67z" />
    <glyph glyph-name="hungarumlaut" unicode="&#x2dd;" horiz-adv-x="1245" 
d="M129 1176l238 321l268 -49l-303 -272h-203zM610 1176l236 319l270 -49l-303 -270h-203z" />
    <glyph glyph-name="uni0326" unicode="&#x326;" horiz-adv-x="0" 
d="M-317 -596l-84 64q78 75 96 151q-55 0 -95 42t-40 99q0 60 40.5 102t98.5 42q67 0 108 -54.5t41 -140.5q0 -140 -165 -305z" />
    <glyph glyph-name="Wgrave" unicode="&#x1e80;" horiz-adv-x="2207" 
d="M1006 1526l-304 270l269 49l237 -319h-202zM467 0l-426 1407h328l260 -944l311 944h328l311 -944l260 944h328l-426 -1407h-303l-332 967l-334 -967h-305z" />
    <glyph glyph-name="wgrave" unicode="&#x1e81;" horiz-adv-x="1722" 
d="M764 1178l-303 270l268 49l238 -319h-203zM397 0l-360 1059h293l200 -660l209 660h248l209 -660l201 660h293l-361 -1059h-268l-197 666l-198 -666h-269z" />
    <glyph glyph-name="Wacute" unicode="&#x1e82;" horiz-adv-x="2207" 
d="M999 1526l238 319l268 -49l-303 -270h-203zM467 0l-426 1407h328l260 -944l311 944h328l311 -944l260 944h328l-426 -1407h-303l-332 967l-334 -967h-305z" />
    <glyph glyph-name="wacute" unicode="&#x1e83;" horiz-adv-x="1722" 
d="M760 1178l237 319l269 -49l-303 -270h-203zM397 0l-360 1059h293l200 -660l209 660h248l209 -660l201 660h293l-361 -1059h-268l-197 666l-198 -666h-269z" />
    <glyph glyph-name="Wdieresis" unicode="&#x1e84;" horiz-adv-x="2207" 
d="M891 1544q-62 0 -104 42.5t-42 101.5t42 101t104 42q59 0 101 -42.5t42 -100.5q0 -59 -42.5 -101.5t-100.5 -42.5zM1323 1544q-60 0 -101.5 42.5t-41.5 101.5t41.5 101t101.5 42t101.5 -42t41.5 -101t-41.5 -101.5t-101.5 -42.5zM467 0l-426 1407h328l260 -944l311 944
h328l311 -944l260 944h328l-426 -1407h-303l-332 967l-334 -967h-305z" />
    <glyph glyph-name="wdieresis" unicode="&#x1e85;" horiz-adv-x="1722" 
d="M649 1196q-62 0 -103.5 42t-41.5 101t41.5 101.5t103.5 42.5q59 0 101.5 -42.5t42.5 -101.5q0 -58 -42.5 -100.5t-101.5 -42.5zM1081 1196q-60 0 -101.5 42t-41.5 101t41.5 101.5t101.5 42.5t102 -42.5t42 -101.5t-42 -101t-102 -42zM397 0l-360 1059h293l200 -660
l209 660h248l209 -660l201 660h293l-361 -1059h-268l-197 666l-198 -666h-269z" />
    <glyph glyph-name="uni1EB8" unicode="&#x1eb8;" horiz-adv-x="1312" 
d="M1223 1135h-781v-281h707v-272h-707v-310h781v-272h-1084v1407h1084v-272zM684 -145q58 0 100.5 -42.5t42.5 -101.5t-42.5 -101t-100.5 -42q-62 0 -103.5 42t-41.5 101t41.5 101.5t103.5 42.5z" />
    <glyph glyph-name="uni1EB9" unicode="&#x1eb9;" horiz-adv-x="1212" 
d="M631 240q63 0 131.5 26.5t111.5 67.5l191 -195q-70 -73 -192 -118.5t-240 -45.5q-156 0 -284 70.5t-202.5 198.5t-74.5 288q0 238 155.5 394.5t388.5 156.5q247 0 387 -175t140 -476h-764q27 -88 93.5 -140t158.5 -52zM629 819q-85 0 -151 -46t-95 -126h473
q-22 80 -80.5 126t-146.5 46zM612 -145q58 0 101 -42.5t43 -101.5q0 -58 -42.5 -100.5t-101.5 -42.5q-62 0 -103.5 42t-41.5 101t41.5 101.5t103.5 42.5z" />
    <glyph glyph-name="uni1EBC" unicode="&#x1ebc;" horiz-adv-x="1312" 
d="M551 1626q-34 0 -55 -25.5t-31 -82.5l-150 22q35 270 228 270q49 0 102.5 -26t97.5 -52t70 -26q66 0 86 106l148 -20q-30 -270 -228 -270q-49 0 -101.5 26t-96 52t-70.5 26zM1223 1135h-781v-281h707v-272h-707v-310h781v-272h-1084v1407h1084v-272z" />
    <glyph glyph-name="uni1EBD" unicode="&#x1ebd;" horiz-adv-x="1214" 
d="M485 1278q-66 0 -86 -109l-149 23q17 135 72.5 202.5t154.5 67.5q49 0 103 -26t98 -52t70 -26q66 0 86 106l147 -20q-15 -136 -70.5 -203t-156.5 -67q-49 0 -102 26t-96.5 52t-70.5 26zM631 240q63 0 131.5 26.5t111.5 67.5l191 -195q-70 -73 -192 -118.5t-240 -45.5
q-156 0 -284 70.5t-202.5 198.5t-74.5 288q0 238 155.5 394.5t388.5 156.5q247 0 387 -175t140 -476h-764q27 -88 93.5 -140t158.5 -52zM629 819q-85 0 -151 -46t-95 -126h473q-22 80 -80.5 126t-146.5 46z" />
    <glyph glyph-name="Ygrave" unicode="&#x1ef2;" horiz-adv-x="1421" 
d="M700 1526l-303 270l269 49l237 -319h-203zM559 0v508l-551 899h352l351 -616l364 616h338l-549 -899v-508h-305z" />
    <glyph glyph-name="ygrave" unicode="&#x1ef3;" horiz-adv-x="1230" 
d="M608 1178l-303 270l268 49l238 -319h-203zM373 -369q-66 0 -139.5 18.5t-127.5 47.5l64 205q83 -47 139 -47q91 0 125 57l37 78l-440 1069h309l278 -744l265 744h305l-434 -1112q-60 -154 -158 -235t-223 -81z" />
    <glyph glyph-name="endash" unicode="&#x2013;" horiz-adv-x="1169" 
d="M92 438v250h985v-250h-985z" />
    <glyph glyph-name="emdash" unicode="&#x2014;" horiz-adv-x="1794" 
d="M92 438v250h1610v-250h-1610z" />
    <glyph glyph-name="quoteleft" unicode="&#x2018;" horiz-adv-x="600" 
d="M324 1415l106 -82q-96 -87 -125 -192q73 0 126.5 -55t53.5 -130q0 -77 -54 -132.5t-130 -55.5q-86 0 -140.5 71.5t-54.5 184.5q0 182 218 391z" />
    <glyph glyph-name="quoteright" unicode="&#x2019;" horiz-adv-x="600" 
d="M276 772l-106 82q96 87 125 193q-73 0 -126.5 54.5t-53.5 129.5q0 77 54 132.5t130 55.5q86 0 140.5 -71.5t54.5 -184.5q0 -182 -218 -391z" />
    <glyph glyph-name="quotedblleft" unicode="&#x201c;" horiz-adv-x="1132" 
d="M324 1415l106 -82q-96 -87 -125 -192q73 0 126.5 -55t53.5 -130q0 -77 -54 -132.5t-130 -55.5q-86 0 -140.5 71.5t-54.5 184.5q0 182 218 391zM856 1415l107 -82q-96 -87 -125 -192q73 0 126.5 -55t53.5 -130q0 -77 -54 -132.5t-130 -55.5q-86 0 -140.5 71.5t-54.5 184.5
q0 183 217 391z" />
    <glyph glyph-name="quotedblright" unicode="&#x201d;" horiz-adv-x="1132" 
d="M276 772l-106 82q96 87 125 193q-73 0 -126.5 54.5t-53.5 129.5q0 77 54 132.5t130 55.5q86 0 140.5 -71.5t54.5 -184.5q0 -182 -218 -391zM809 772l-107 82q96 87 125 193q-73 0 -126.5 54.5t-53.5 129.5q0 77 54 132.5t130 55.5q86 0 140.5 -71.5t54.5 -184.5
q0 -183 -217 -391z" />
    <glyph glyph-name="ellipsis" unicode="&#x2026;" horiz-adv-x="1660" 
d="M301 -25q-79 0 -134.5 56.5t-55.5 134.5q0 73 55.5 127.5t134.5 54.5q74 0 128 -54.5t54 -127.5q0 -78 -53.5 -134.5t-128.5 -56.5zM834 -25q-79 0 -135 56.5t-56 134.5q0 73 56 127.5t135 54.5q74 0 128 -54.5t54 -127.5q0 -78 -53.5 -134.5t-128.5 -56.5zM1366 -25
q-79 0 -134.5 56.5t-55.5 134.5q0 73 55.5 127.5t134.5 54.5q74 0 128 -54.5t54 -127.5q0 -78 -53.5 -134.5t-128.5 -56.5z" />
    <glyph glyph-name="perthousand" unicode="&#x2030;" horiz-adv-x="2498" 
d="M426 700q-154 0 -252 103t-98 256q0 155 98 258.5t254 103.5t253 -103.5t97 -256.5q0 -154 -98.5 -257.5t-253.5 -103.5zM260 0l979 1407h217l-979 -1407h-217zM428 877q66 0 108 50.5t42 133.5q0 81 -42.5 131.5t-109.5 50.5q-65 0 -106 -50t-41 -132t42.5 -133
t106.5 -51zM1286 -23q-156 0 -254 104t-98 257t98.5 256.5t253.5 103.5t252.5 -104t97.5 -256q0 -154 -99 -257.5t-251 -103.5zM2071 -23q-155 0 -254 104t-99 257t99 256.5t254 103.5q156 0 253 -103.5t97 -256.5q0 -154 -98.5 -257.5t-251.5 -103.5zM1286 156
q67 0 108.5 49.5t41.5 132.5q0 82 -43 133t-107 51q-68 0 -109.5 -50t-41.5 -134q0 -81 42.5 -131.5t108.5 -50.5zM2071 156q67 0 108 49.5t41 132.5q0 82 -42.5 133t-106.5 51q-67 0 -108.5 -50t-41.5 -134q0 -81 42.5 -131.5t107.5 -50.5z" />
    <glyph glyph-name="Euro" unicode="&#x20ac;" horiz-adv-x="1425" 
d="M831 250q94 0 179 42.5t149 115.5l219 -197q-105 -110 -248 -173t-299 -63q-245 0 -444 148t-270 375h-150v149h119q-2 18 -2 58q0 27 4 81h-121v150h158q78 217 273 356.5t433 139.5q157 0 299.5 -62.5t247.5 -173.5l-219 -197q-64 73 -149 115.5t-179 42.5
q-115 0 -213.5 -60t-158.5 -161h487v-150h-543q-8 -36 -8 -81q0 -22 4 -58h547v-149h-502q57 -111 161.5 -179.5t225.5 -68.5z" />
    <glyph glyph-name="minus" unicode="&#x2212;" horiz-adv-x="1234" 
d="M123 561v244h989v-244h-989z" />
    <glyph glyph-name="a.alt" 
d="M922 1059h299v-1059h-299v152q-134 -177 -357 -177q-213 0 -350 155.5t-137 399.5q0 243 137 398t350 155q224 0 357 -176v152zM651 227q119 0 195 85t76 218q0 132 -76 216.5t-195 84.5q-124 0 -203 -84.5t-79 -216.5q0 -134 79 -218.5t203 -84.5z" />
    <glyph glyph-name="aacute.alt" 
d="M985 1448l-303 -270h-203l238 319zM922 1059h299v-1059h-299v152q-134 -177 -357 -177q-213 0 -350 155.5t-137 399.5q0 243 137 398t350 155q224 0 357 -176v152zM651 227q119 0 195 85t76 218q0 132 -76 216.5t-195 84.5q-124 0 -203 -84.5t-79 -216.5
q0 -134 79 -218.5t203 -84.5z" />
    <glyph glyph-name="abreve.alt" 
d="M1020 1325q-66 -66 -152.5 -100.5t-177.5 -34.5q-192 0 -330 135l129 129q41 -40 95 -63t106 -23t106 23t95 63zM922 1059h299v-1059h-299v152q-134 -177 -357 -177q-213 0 -350 155.5t-137 399.5q0 243 137 398t350 155q224 0 357 -176v152zM651 227q119 0 195 85
t76 218q0 132 -76 216.5t-195 84.5q-124 0 -203 -84.5t-79 -216.5q0 -134 79 -218.5t203 -84.5z" />
    <glyph glyph-name="acircumflex.alt" 
d="M690 1329l-153 -151h-185l215 301h248l217 -301h-186zM922 1059h299v-1059h-299v152q-134 -177 -357 -177q-213 0 -350 155.5t-137 399.5q0 243 137 398t350 155q224 0 357 -176v152zM651 227q119 0 195 85t76 218q0 132 -76 216.5t-195 84.5q-124 0 -203 -84.5
t-79 -216.5q0 -134 79 -218.5t203 -84.5z" />
    <glyph glyph-name="adieresis.alt" 
d="M475 1196q-62 0 -103.5 42t-41.5 101t41.5 101.5t103.5 42.5q58 0 100.5 -42.5t42.5 -101.5t-42 -101t-101 -42zM907 1196q-60 0 -101.5 42t-41.5 101t41.5 101.5t101.5 42.5t102 -42.5t42 -101.5t-42 -101t-102 -42zM922 1059h299v-1059h-299v152q-134 -177 -357 -177
q-213 0 -350 155.5t-137 399.5q0 243 137 398t350 155q224 0 357 -176v152zM651 227q119 0 195 85t76 218q0 132 -76 216.5t-195 84.5q-124 0 -203 -84.5t-79 -216.5q0 -134 79 -218.5t203 -84.5z" />
    <glyph glyph-name="agrave.alt" 
d="M883 1178h-203l-303 270l268 49zM922 1059h299v-1059h-299v152q-134 -177 -357 -177q-213 0 -350 155.5t-137 399.5q0 243 137 398t350 155q224 0 357 -176v152zM651 227q119 0 195 85t76 218q0 132 -76 216.5t-195 84.5q-124 0 -203 -84.5t-79 -216.5q0 -134 79 -218.5
t203 -84.5z" />
    <glyph glyph-name="amacron.alt" 
d="M1042 1366v-176h-706v176h706zM922 1059h299v-1059h-299v152q-134 -177 -357 -177q-213 0 -350 155.5t-137 399.5q0 243 137 398t350 155q224 0 357 -176v152zM651 227q119 0 195 85t76 218q0 132 -76 216.5t-195 84.5q-124 0 -203 -84.5t-79 -216.5q0 -134 79 -218.5
t203 -84.5z" />
    <glyph glyph-name="aogonek.alt" 
d="M1296 -147l54 -140q-74 -67 -183 -67q-101 0 -164 61.5t-63 165.5q0 71 37 127h-55v152q-134 -177 -357 -177q-213 0 -350 155.5t-137 399.5q0 243 137 398t350 155q224 0 357 -176v152h299v-1059q-42 0 -68.5 -25.5t-26.5 -64.5q0 -40 25.5 -62t69.5 -22q48 0 75 27z
M651 227q119 0 195 85t76 218q0 132 -76 216.5t-195 84.5q-124 0 -203 -84.5t-79 -216.5q0 -134 79 -218.5t203 -84.5z" />
    <glyph glyph-name="aring.alt" 
d="M690 1190q-97 0 -165 67t-68 164t68 165.5t165 68.5t165.5 -68.5t68.5 -165.5q0 -96 -68.5 -163.5t-165.5 -67.5zM690 1530q-44 0 -76 -32.5t-32 -76.5t32 -76t76 -32t76.5 32t32.5 76t-32.5 76.5t-76.5 32.5zM922 1059h299v-1059h-299v152q-134 -177 -357 -177
q-213 0 -350 155.5t-137 399.5q0 243 137 398t350 155q224 0 357 -176v152zM651 227q119 0 195 85t76 218q0 132 -76 216.5t-195 84.5q-124 0 -203 -84.5t-79 -216.5q0 -134 79 -218.5t203 -84.5z" />
    <glyph glyph-name="atilde.alt" 
d="M559 1278q-66 0 -86 -109l-149 23q17 135 72.5 202.5t154.5 67.5q49 0 102.5 -26t97.5 -52t70 -26q66 0 86 106l148 -20q-30 -270 -228 -270q-49 0 -101.5 26t-96 52t-70.5 26zM922 1059h299v-1059h-299v152q-134 -177 -357 -177q-213 0 -350 155.5t-137 399.5
q0 243 137 398t350 155q224 0 357 -176v152zM651 227q119 0 195 85t76 218q0 132 -76 216.5t-195 84.5q-124 0 -203 -84.5t-79 -216.5q0 -134 79 -218.5t203 -84.5z" />
    <glyph glyph-name="ascender" 
d="M131 0v1432h299v-1432h-299z" />
    <glyph glyph-name="descender" 
d="M131 -352v1411h299v-1411h-299z" />
    </font>
</defs>
</svg>
