<?xml version="1.0" standalone="no"?>
<!DOCTYPE svg PUBLIC "-//W3C//DTD SVG 1.1//EN" "http://www.w3.org/Graphics/SVG/1.1/DTD/svg11.dtd" >
<svg xmlns="http://www.w3.org/2000/svg" xmlns:xlink="http://www.w3.org/1999/xlink" version="1.1">
<metadata>
Created by FontForge 20170731 at Wed Jan  5 16:17:03 2022
 By Aleksey,,,
Copyright (c) 2016 by Chris Simpson.
</metadata>
<defs>
<font id="Metropolis-ExtraBold" horiz-adv-x="1366" >
  <font-face 
    font-family="Metropolis Extra Bold"
    font-weight="800"
    font-stretch="normal"
    units-per-em="2048"
    panose-1="0 0 9 0 0 0 0 0 0 0"
    ascent="1628"
    descent="-420"
    x-height="1059"
    cap-height="1407"
    bbox="-467 -606 2464 2013"
    underline-thickness="40"
    underline-position="-312"
    unicode-range="U+0020-2212"
  />
<missing-glyph horiz-adv-x="1024" 
d="M840 1628v-2048h-650v2048h650zM682 1491h-338v-68h133v-75h-135v-68h340v68h-135v75h135v68zM547 1227h-205v-213h340v69h-135v144zM477 1157v-74h-67v74h67zM682 958h-340v-67h135v-76h-135v-67h205v143h135v67zM682 836h-68v-136h-272v-69h340v205zM682 586h-205v-115
h70v47h67v-96h-204v164h-68v-232h340v232zM682 231h-340v-231h340v231zM614 164v-96h-204v96h204zM682 -47h-340v-68h143l-143 -96v-68h340v68h-209l143 96h66v68z" />
    <glyph glyph-name=".notdef" horiz-adv-x="1024" 
d="M840 1628v-2048h-650v2048h650zM682 1491h-338v-68h133v-75h-135v-68h340v68h-135v75h135v68zM547 1227h-205v-213h340v69h-135v144zM477 1157v-74h-67v74h67zM682 958h-340v-67h135v-76h-135v-67h205v143h135v67zM682 836h-68v-136h-272v-69h340v205zM682 586h-205v-115
h70v47h67v-96h-204v164h-68v-232h340v232zM682 231h-340v-231h340v231zM614 164v-96h-204v96h204zM682 -47h-340v-68h143l-143 -96v-68h340v68h-209l143 96h66v68z" />
    <glyph glyph-name=".null" horiz-adv-x="0" 
 />
    <glyph glyph-name="nonmarkingreturn" horiz-adv-x="682" 
 />
    <glyph glyph-name="space" unicode=" " horiz-adv-x="565" 
 />
    <glyph glyph-name="exclam" unicode="!" horiz-adv-x="651" 
d="M213 528l-78 879h389l-75 -879h-236zM332 -25q-92 0 -154.5 62.5t-62.5 152.5q0 84 63 145.5t154 61.5q84 0 145.5 -61.5t61.5 -145.5q0 -89 -61 -152t-146 -63z" />
    <glyph glyph-name="quotedbl" unicode="&#x22;" horiz-adv-x="1126" 
d="M231 782q-110 336 -110 469q0 74 52 127.5t124 53.5t124 -53.5t52 -127.5q0 -130 -111 -469h-131zM764 782q-111 339 -111 469q0 74 52 127.5t124 53.5t124.5 -53.5t52.5 -127.5q0 -130 -111 -469h-131z" />
    <glyph glyph-name="numbersign" unicode="#" horiz-adv-x="1384" 
d="M1264 844h-185l-71 -285h184l-59 -246h-187l-80 -313h-248l80 313h-211l-79 -313h-250l80 313h-179l60 246h180l72 285h-185l60 246h186l80 317h250l-80 -317h211l80 317h248l-80 -317h184zM760 559l71 285h-210l-72 -285h211z" />
    <glyph glyph-name="dollar" unicode="$" horiz-adv-x="1308" 
d="M1243 434q0 -196 -130 -317t-359 -140v-129h-213v136q-302 39 -508 227l196 235q216 -178 463 -178q96 0 147.5 35t51.5 94t-51.5 85.5t-218.5 66.5q-102 23 -171.5 44t-142 56t-115 77.5t-69.5 107t-27 147.5q0 182 121 301.5t324 142.5v129h213v-129q257 -26 450 -186
l-178 -250q-197 150 -401 150q-83 0 -129.5 -34.5t-46.5 -88.5q0 -63 56.5 -94t219.5 -66q102 -22 175.5 -44.5t142 -57t110 -77.5t66 -104t24.5 -139z" />
    <glyph glyph-name="percent" unicode="%" horiz-adv-x="1740" 
d="M428 696q-158 0 -258 103.5t-100 259.5q0 154 100 258t258 104q161 0 260.5 -104.5t99.5 -257.5q0 -156 -100.5 -259.5t-259.5 -103.5zM258 0l985 1407h242l-983 -1407h-244zM428 895q60 0 97.5 44.5t37.5 119.5q0 74 -38 119t-97 45q-58 0 -95.5 -44.5t-37.5 -119.5
q0 -73 38 -118.5t95 -45.5zM1313 -23q-160 0 -260.5 104.5t-100.5 258.5q0 156 101 260.5t260 104.5t258.5 -105.5t99.5 -259.5t-101 -258.5t-257 -104.5zM1313 176q60 0 97.5 44.5t37.5 119.5q0 74 -38.5 119t-96.5 45q-61 0 -98 -43.5t-37 -120.5q0 -74 38 -119t97 -45z
" />
    <glyph glyph-name="ampersand" unicode="&#x26;" horiz-adv-x="1396" 
d="M1352 86l-281 -125q-75 78 -139 148q-182 -134 -400 -134q-214 0 -348.5 110.5t-134.5 301.5q0 138 69.5 228.5t229.5 164.5q-54 79 -74 139t-20 138q0 151 121 259.5t291 108.5q184 0 301.5 -103.5t117.5 -262.5q0 -108 -69.5 -182.5t-243.5 -159.5q17 -19 52 -58.5
t67.5 -75.5t64.5 -71q73 110 127 240l246 -119q-99 -192 -192 -316q28 -31 62 -67.5t79.5 -85t73.5 -78.5zM674 1186q-54 0 -91.5 -37t-37.5 -92q0 -44 19 -81t63 -89q94 38 131 73.5t37 96.5q0 57 -34 93t-87 36zM578 233q87 0 176 64q-147 159 -256 285
q-105 -70 -105 -170q0 -81 53.5 -130t131.5 -49z" />
    <glyph glyph-name="quotesingle" unicode="'" horiz-adv-x="593" 
d="M231 782q-110 336 -110 469q0 74 52 127.5t124 53.5t124 -53.5t52 -127.5q0 -130 -111 -469h-131z" />
    <glyph glyph-name="parenleft" unicode="(" horiz-adv-x="802" 
d="M565 -348q-223 153 -346 385t-123 506q0 275 123 506.5t346 384.5l174 -185q-157 -164 -229 -329.5t-72 -376.5q0 -210 72 -376t229 -329z" />
    <glyph glyph-name="parenright" unicode=")" horiz-adv-x="802" 
d="M238 -348l-175 186q158 163 230 329t72 376q0 212 -72 377.5t-230 328.5l175 185q223 -153 346 -384.5t123 -506.5q0 -274 -123 -506t-346 -385z" />
    <glyph glyph-name="asterisk" unicode="*" horiz-adv-x="806" 
d="M406 686q-37 0 -63 24t-26 56q0 40 21 121.5t24 105.5q-20 -16 -79.5 -74.5t-92.5 -78.5q-28 -17 -60.5 -6t-51.5 43q-18 31 -10 65t36 49q33 20 114 41t106 31q-23 9 -104.5 31.5t-115.5 42.5q-28 15 -36 48t10 66q18 32 51.5 42.5t60.5 -5.5q34 -20 94.5 -80.5
t77.5 -74.5q-4 25 -25.5 106t-21.5 121q0 33 26 56.5t62 23.5q35 0 60.5 -24t25.5 -56q0 -39 -22.5 -120t-26.5 -107q23 17 82 75.5t92 77.5q28 17 62 6t51 -43q18 -31 10.5 -65t-35.5 -49q-33 -20 -114.5 -41t-106.5 -31q24 -10 106 -32t115 -42q28 -15 35.5 -49t-10.5 -66
q-17 -31 -51.5 -41.5t-61.5 5.5q-33 20 -92 79.5t-80 75.5q4 -26 27 -107t23 -120q0 -32 -25.5 -56t-60.5 -24z" />
    <glyph glyph-name="plus" unicode="+" horiz-adv-x="1241" 
d="M1122 821v-274h-354v-367h-293v367h-358v274h358v365h293v-365h354z" />
    <glyph glyph-name="comma" unicode="," horiz-adv-x="618" 
d="M291 -309l-119 90q103 89 131 194q-83 0 -143 62t-60 147q0 88 61 150.5t146 62.5q97 0 158 -79.5t61 -204.5q0 -102 -60 -210t-175 -212z" />
    <glyph glyph-name="hyphen" unicode="-" horiz-adv-x="741" 
d="M86 422v289h571v-289h-571z" />
    <glyph glyph-name="period" unicode="." horiz-adv-x="618" 
d="M315 -25q-92 0 -154.5 62.5t-62.5 152.5q0 84 63 145.5t154 61.5q84 0 145.5 -61.5t61.5 -145.5q0 -89 -61 -152t-146 -63z" />
    <glyph glyph-name="slash" unicode="/" horiz-adv-x="976" 
d="M-53 -152l700 1674h363l-701 -1674h-362z" />
    <glyph glyph-name="zero" unicode="0" horiz-adv-x="1458" 
d="M729 -25q-140 0 -260.5 54t-205.5 150t-133 232t-48 294q0 210 82 376t230 258.5t335 92.5q188 0 335.5 -92.5t229.5 -258t82 -376.5q0 -212 -82 -378.5t-229.5 -259t-335.5 -92.5zM729 293q127 0 208 116t81 296t-81 294.5t-208 114.5q-126 0 -206.5 -114.5
t-80.5 -294.5t80.5 -296t206.5 -116z" />
    <glyph glyph-name="one" unicode="1" horiz-adv-x="890" 
d="M397 0v1012l-237 -148l-140 244l447 299h278v-1407h-348z" />
    <glyph glyph-name="two" unicode="2" horiz-adv-x="1265" 
d="M86 0v285l520 389q114 86 158.5 150.5t44.5 131.5q0 70 -54 114t-132 44q-94 0 -173 -43.5t-163 -132.5l-219 217q231 277 563 277q236 0 386 -129.5t150 -331.5q0 -145 -72 -261.5t-251 -238.5l-221 -158h559v-313h-1096z" />
    <glyph glyph-name="three" unicode="3" horiz-adv-x="1253" 
d="M627 -27q-188 0 -337 63.5t-247 172.5l201 231q75 -75 169.5 -114t194.5 -39q103 0 161 39t58 102q0 68 -57 100.5t-188 32.5l-166 -2v295h166q105 -1 161 32t56 95q0 64 -57.5 100.5t-153.5 36.5q-168 0 -320 -149l-196 213q215 250 553 250q244 0 387 -108t143 -277
q0 -117 -70 -202.5t-190 -119.5q126 -30 208.5 -115t82.5 -213q0 -188 -153 -306t-406 -118z" />
    <glyph glyph-name="four" unicode="4" horiz-adv-x="1345" 
d="M754 0v268h-682l-31 267l637 870h426v-846h178v-291h-178v-268h-350zM403 559h351v483z" />
    <glyph glyph-name="five" unicode="5" horiz-adv-x="1277" 
d="M621 -27q-340 0 -560 213l201 248q175 -158 359 -158q107 0 169 52.5t62 130.5t-61.5 126t-165.5 48q-143 0 -258 -88l-232 90l21 772h966v-313h-645l-8 -256q114 82 266 82q126 0 230.5 -51t169.5 -154.5t65 -243.5q0 -228 -157.5 -363t-421.5 -135z" />
    <glyph glyph-name="six" unicode="6" horiz-adv-x="1329" 
d="M772 920q131 0 238 -53t172 -157t65 -241q0 -145 -73 -258.5t-198.5 -174.5t-281.5 -61q-154 0 -273 51.5t-194 145.5t-113 221.5t-38 284.5q0 337 183 545.5t489 208.5q251 0 442 -148l-162 -264q-66 54 -131.5 80t-146.5 26q-123 0 -202 -83t-102 -234q64 52 150 81.5
t176 29.5zM674 272q96 0 155.5 53t59.5 130q0 85 -65 134.5t-158 49.5q-73 0 -131 -36t-89 -99q18 -120 70.5 -176t157.5 -56z" />
    <glyph glyph-name="seven" unicode="7" horiz-adv-x="1239" 
d="M217 0l547 1094h-676v313h1079v-264l-557 -1143h-393z" />
    <glyph glyph-name="eight" unicode="8" horiz-adv-x="1290" 
d="M645 -25q-162 0 -292.5 46t-210 139.5t-79.5 220.5q0 118 71.5 207.5t193.5 138.5q-228 103 -228 320q0 120 77.5 209.5t199.5 132.5t268 43q148 0 271 -44t199.5 -133t76.5 -208q0 -216 -229 -320q126 -54 196 -142.5t70 -203.5q0 -128 -80.5 -221.5t-211.5 -139
t-292 -45.5zM645 846q81 5 141 47t60 104q0 63 -56 104.5t-145 41.5t-144 -41.5t-55 -104.5t59 -104.5t140 -46.5zM645 266q100 0 164.5 42.5t64.5 111.5q0 65 -69 107.5t-160 47.5q-91 -5 -159 -47t-68 -108q0 -69 63 -111.5t164 -42.5z" />
    <glyph glyph-name="nine" unicode="9" horiz-adv-x="1329" 
d="M635 1432q154 0 273 -51.5t194 -145.5t113 -221.5t38 -284.5q0 -222 -81 -392.5t-234 -266t-356 -95.5q-252 0 -443 148l162 264q66 -54 132 -80t147 -26q123 0 201.5 83t101.5 234q-64 -52 -150 -81.5t-176 -29.5q-131 0 -238 53t-172 157t-65 241q0 145 73 258.5
t198.5 174.5t281.5 61zM664 768q73 0 130.5 36t88.5 99q-18 120 -70.5 176t-157.5 56q-96 0 -155.5 -53t-59.5 -130q0 -84 65 -134t159 -50z" />
    <glyph glyph-name="colon" unicode=":" horiz-adv-x="618" 
d="M315 678q-92 0 -154.5 62.5t-62.5 152.5q0 84 63 145.5t154 61.5q84 0 145.5 -61.5t61.5 -145.5q0 -89 -61 -152t-146 -63zM315 -25q-92 0 -154.5 62.5t-62.5 152.5q0 84 63 145.5t154 61.5q84 0 145.5 -61.5t61.5 -145.5q0 -89 -61 -152t-146 -63z" />
    <glyph glyph-name="semicolon" unicode=";" horiz-adv-x="618" 
d="M317 678q-92 0 -154.5 62.5t-62.5 152.5q0 84 63 145.5t154 61.5q84 0 145.5 -61.5t61.5 -145.5q0 -89 -61 -152t-146 -63zM291 -309l-119 90q103 89 131 194q-83 0 -143 62t-60 147q0 88 61 150.5t146 62.5q97 0 158 -79.5t61 -204.5q0 -102 -60 -210t-175 -212z" />
    <glyph glyph-name="less" unicode="&#x3c;" horiz-adv-x="1218" 
d="M1077 164l-964 401v277l964 401v-274l-698 -267l698 -262v-276z" />
    <glyph glyph-name="equal" unicode="=" horiz-adv-x="1241" 
d="M117 793v274h1005v-274h-1005zM117 319v275h1005v-275h-1005z" />
    <glyph glyph-name="greater" unicode="&#x3e;" horiz-adv-x="1218" 
d="M141 164v276l699 262l-699 267v274l965 -401v-277z" />
    <glyph glyph-name="question" unicode="?" horiz-adv-x="1032" 
d="M336 512v322q129 3 211 46t82 107q0 56 -50.5 93.5t-129.5 37.5q-61 0 -122.5 -28t-107.5 -74l-194 201q94 100 218 157.5t269 57.5q208 0 339.5 -115.5t131.5 -296.5q0 -138 -97 -249t-249 -148v-111h-301zM487 -25q-92 0 -154.5 62.5t-62.5 152.5q0 84 63 145.5
t154 61.5q84 0 145.5 -61.5t61.5 -145.5q0 -89 -61 -152t-146 -63z" />
    <glyph glyph-name="at" unicode="@" horiz-adv-x="1800" 
d="M868 -238q-163 0 -308.5 60.5t-248.5 163.5t-163 245.5t-60 300.5q0 171 68.5 328t184 272t275 183.5t332.5 68.5q163 0 306.5 -57.5t243 -154t157 -225.5t57.5 -269q0 -130 -39 -234.5t-102 -167.5t-137.5 -96t-151.5 -33q-200 0 -260 160q-56 -74 -131.5 -114.5
t-161.5 -40.5q-156 0 -251 104t-95 272q0 136 64 254.5t168.5 187t222.5 68.5q177 0 264 -139l24 113l283 -23q-21 -109 -44 -223t-34 -166t-18.5 -99.5t-7.5 -76.5q0 -49 28.5 -78t75.5 -29q88 0 150.5 94.5t62.5 266.5q0 129 -50.5 243.5t-139 198t-215.5 132t-273 48.5
q-210 0 -387.5 -103.5t-280 -279.5t-102.5 -382q0 -114 34 -219.5t97 -190.5t148 -148.5t193.5 -98t227.5 -34.5q228 0 437 125l43 -65q-224 -142 -486 -142zM834 387q86 0 146 67.5t69 170.5q6 80 -33 129t-111 49q-99 0 -164 -75.5t-65 -176.5q0 -76 43.5 -120t114.5 -44z
" />
    <glyph glyph-name="A" unicode="A" horiz-adv-x="1536" 
d="M1128 0l-81 205h-558l-81 -205h-394l557 1407h394l557 -1407h-394zM598 479h340l-170 432z" />
    <glyph glyph-name="B" unicode="B" horiz-adv-x="1443" 
d="M137 0v1407h735q194 0 317.5 -100t123.5 -254q0 -104 -51 -186t-144 -128q122 -54 190 -148.5t68 -209.5q0 -168 -133.5 -274.5t-343.5 -106.5h-762zM485 850h301q72 0 119 37t47 94t-47 93t-119 36h-301v-260zM485 297h355q77 0 126.5 40t49.5 101q0 62 -50 102t-126 40
h-355v-283z" />
    <glyph glyph-name="C" unicode="C" horiz-adv-x="1435" 
d="M834 -25q-151 0 -290.5 59t-241.5 157.5t-163 233.5t-61 280t61 279.5t163 232.5t241.5 156.5t290.5 58.5q161 0 306.5 -64.5t252.5 -177.5l-256 -227q-57 70 -136 110.5t-167 40.5q-161 0 -279.5 -121.5t-118.5 -287.5q0 -167 118.5 -289.5t279.5 -122.5q89 0 168 40
t137 111l254 -225q-106 -114 -251.5 -179t-307.5 -65z" />
    <glyph glyph-name="D" unicode="D" horiz-adv-x="1556" 
d="M137 0v1407h514q179 0 332 -52t261.5 -144t169.5 -223t61 -283q0 -204 -104.5 -364.5t-293 -250.5t-426.5 -90h-514zM487 317h218q180 0 295.5 109.5t115.5 278.5t-115.5 277t-295.5 108h-218v-773z" />
    <glyph glyph-name="E" unicode="E" horiz-adv-x="1323" 
d="M1239 1094h-758v-220h688v-313h-688v-248h758v-313h-1108v1407h1108v-313z" />
    <glyph glyph-name="F" unicode="F" horiz-adv-x="1316" 
d="M1239 1094h-758v-252h688v-314h-688v-528h-350v1407h1108v-313z" />
    <glyph glyph-name="G" unicode="G" horiz-adv-x="1519" 
d="M776 543v264h641v-588q-107 -115 -259.5 -179.5t-315.5 -64.5q-204 0 -380.5 99.5t-280 268t-103.5 362.5q0 145 61.5 279.5t164 232.5t244 156.5t294.5 58.5q163 0 315.5 -64t259.5 -178l-256 -227q-57 70 -142.5 110.5t-176.5 40.5q-164 0 -285 -121.5t-121 -287.5
q0 -167 121 -289.5t285 -122.5q125 0 235 74v176h-301z" />
    <glyph glyph-name="H" unicode="H" horiz-adv-x="1538" 
d="M1057 1407h350v-1407h-350v561h-576v-561h-350v1407h350v-533h576v533z" />
    <glyph glyph-name="I" unicode="I" horiz-adv-x="622" 
d="M137 0v1407h350v-1407h-350z" />
    <glyph glyph-name="J" unicode="J" horiz-adv-x="1118" 
d="M500 -25q-139 0 -275.5 66t-208.5 168l228 223q32 -61 91.5 -100t121.5 -39q83 0 136.5 55.5t53.5 143.5v915h350v-948q0 -212 -139.5 -348t-357.5 -136z" />
    <glyph glyph-name="K" unicode="K" horiz-adv-x="1458" 
d="M135 0v1407h350v-600l523 600h415l-534 -598l575 -809h-422l-395 557l-162 -174v-383h-350z" />
    <glyph glyph-name="L" unicode="L" horiz-adv-x="1206" 
d="M475 313h678v-313h-1026v1407h348v-1094z" />
    <glyph glyph-name="M" unicode="M" horiz-adv-x="1785" 
d="M137 0v1407h350l406 -733l405 733h351v-1407h-351v815l-405 -733l-406 733v-815h-350z" />
    <glyph glyph-name="N" unicode="N" horiz-adv-x="1587" 
d="M137 0v1407h350l613 -832v832h350v-1407h-350l-613 831v-831h-350z" />
    <glyph glyph-name="O" unicode="O" horiz-adv-x="1665" 
d="M834 -25q-151 0 -290.5 59t-241.5 157.5t-163 233.5t-61 280t61 279.5t163 232.5t241.5 156.5t290.5 58.5q152 0 292 -58.5t241.5 -156.5t162.5 -232.5t61 -279.5t-61 -280t-162.5 -233.5t-241.5 -157.5t-292 -59zM834 293q161 0 279 122.5t118 289.5q0 166 -118 287.5
t-279 121.5t-279.5 -121.5t-118.5 -287.5q0 -167 118.5 -289.5t279.5 -122.5z" />
    <glyph glyph-name="P" unicode="P" horiz-adv-x="1361" 
d="M131 0v1407h653q233 0 384 -135t151 -348t-151 -348.5t-384 -135.5h-303v-440h-350zM481 760h271q91 0 148.5 45.5t57.5 118.5t-57.5 118t-148.5 45h-271v-327z" />
    <glyph glyph-name="Q" unicode="Q" horiz-adv-x="1665" 
d="M1591 705q0 -219 -129 -400l125 -108l-170 -197l-137 119q-203 -144 -446 -144q-151 0 -290.5 59t-241.5 157.5t-163 233.5t-61 280t61 279.5t163 232.5t241.5 156.5t290.5 58.5q152 0 292 -58.5t241.5 -156.5t162.5 -232.5t61 -279.5zM834 293q103 0 188 51l-145 127
l170 197l149 -129q35 78 35 166q0 166 -118 287.5t-279 121.5t-279.5 -121.5t-118.5 -287.5q0 -167 118.5 -289.5t279.5 -122.5z" />
    <glyph glyph-name="R" unicode="R" horiz-adv-x="1409" 
d="M1360 0h-397l-310 440h-172v-440h-350v1407h653q233 0 384 -135t151 -348q0 -152 -80.5 -268.5t-218.5 -172.5zM481 1087v-327h271q91 0 148.5 45.5t57.5 118.5t-57.5 118t-148.5 45h-271z" />
    <glyph glyph-name="S" unicode="S" horiz-adv-x="1308" 
d="M680 -25q-188 0 -354 60.5t-293 175.5l196 235q216 -178 463 -178q96 0 147.5 35t51.5 94t-51.5 85.5t-218.5 66.5q-102 23 -171.5 44t-142 56t-115 77.5t-69.5 107t-27 147.5q0 202 148.5 326.5t390.5 124.5q337 0 569 -193l-178 -250q-197 150 -401 150
q-83 0 -129.5 -34.5t-46.5 -88.5q0 -63 56.5 -94t219.5 -66q102 -22 175.5 -44.5t142 -57t110 -77.5t66 -104t24.5 -139q0 -212 -151 -335.5t-412 -123.5z" />
    <glyph glyph-name="T" unicode="T" horiz-adv-x="1314" 
d="M483 0v1094h-428v313h1205v-313h-426v-1094h-351z" />
    <glyph glyph-name="U" unicode="U" horiz-adv-x="1552" 
d="M776 -25q-189 0 -338 81t-232 227.5t-83 332.5v791h350v-774q0 -149 85.5 -244.5t217.5 -95.5q134 0 219.5 95.5t85.5 244.5v774h349v-791q0 -140 -48.5 -259t-134 -203t-207 -131.5t-264.5 -47.5z" />
    <glyph glyph-name="V" unicode="V" horiz-adv-x="1536" 
d="M1128 1407h394l-557 -1407h-394l-557 1407h394l360 -911z" />
    <glyph glyph-name="W" unicode="W" horiz-adv-x="2205" 
d="M438 0l-409 1407h379l215 -879l292 879h377l291 -879l215 879h379l-408 -1407h-352l-313 891l-313 -891h-353z" />
    <glyph glyph-name="X" unicode="X" horiz-adv-x="1466" 
d="M1444 1407l-506 -700l506 -707h-410l-303 422l-305 -422h-403l507 700l-507 707h411l301 -420l305 420h404z" />
    <glyph glyph-name="Y" unicode="Y" horiz-adv-x="1435" 
d="M543 0v485l-545 922h403l318 -594l332 594h389l-545 -922v-485h-352z" />
    <glyph glyph-name="Z" unicode="Z" horiz-adv-x="1368" 
d="M90 0v262l703 832h-689v313h1168v-262l-701 -832h711v-313h-1192z" />
    <glyph glyph-name="bracketleft" unicode="[" horiz-adv-x="802" 
d="M137 -309v1739h582v-222h-313v-1296h313v-221h-582z" />
    <glyph glyph-name="backslash" unicode="\" horiz-adv-x="976" 
d="M670 -152l-701 1674h363l700 -1674h-362z" />
    <glyph glyph-name="bracketright" unicode="]" horiz-adv-x="802" 
d="M84 -309v221h311v1296h-311v222h580v-1739h-580z" />
    <glyph glyph-name="asciicircum" unicode="^" horiz-adv-x="997" 
d="M82 846l299 561h235l299 -561h-239l-178 352l-179 -352h-237z" />
    <glyph glyph-name="underscore" unicode="_" horiz-adv-x="1212" 
d="M-4 -319v188h1221v-188h-1221z" />
    <glyph glyph-name="grave" unicode="`" horiz-adv-x="794" 
d="M436 1176l-307 274l305 53l232 -327h-230z" />
    <glyph glyph-name="a" unicode="a" horiz-adv-x="1196" 
d="M610 1083q209 0 343 -123t134 -331v-629h-333v90q-55 -55 -132.5 -85t-160.5 -30q-171 0 -287.5 94.5t-116.5 243.5q0 153 129.5 253t319.5 100q119 0 248 -52v15q0 86 -62.5 140t-169.5 54q-70 0 -130 -19t-136 -59l-109 218q238 120 463 120zM545 188q79 0 139 35.5
t70 93.5v113q-93 35 -199 35q-71 0 -119.5 -40t-48.5 -101t44 -98.5t114 -37.5z" />
    <glyph glyph-name="b" unicode="b" 
d="M811 1083q214 0 349.5 -155t135.5 -398q0 -245 -135.5 -400t-349.5 -155q-104 0 -193 42t-153 118v-135h-348v1432h348v-508q134 159 346 159zM707 264q113 0 184.5 74.5t71.5 191.5q0 116 -72 190.5t-184 74.5q-107 0 -174.5 -74.5t-67.5 -190.5q0 -117 67.5 -191.5
t174.5 -74.5z" />
    <glyph glyph-name="c" unicode="c" horiz-adv-x="1126" 
d="M649 -25q-156 0 -291 75.5t-215 203.5t-80 276t80.5 275.5t216.5 202.5t293 75q261 0 428 -188l-229 -190q-36 39 -91.5 64.5t-109.5 25.5q-103 0 -178.5 -78.5t-75.5 -184.5q0 -109 75.5 -188.5t178.5 -79.5q56 0 113 26t94 68l229 -188q-170 -195 -438 -195z" />
    <glyph glyph-name="d" unicode="d" 
d="M901 1432h348v-1432h-348v135q-64 -76 -153 -118t-193 -42q-214 0 -349.5 155t-135.5 400q0 243 135.5 398t349.5 155q212 0 346 -159v508zM659 264q107 0 174.5 74.5t67.5 191.5q0 116 -67.5 190.5t-174.5 74.5q-112 0 -184 -74.5t-72 -190.5q0 -117 71.5 -191.5
t184.5 -74.5z" />
    <glyph glyph-name="e" unicode="e" horiz-adv-x="1212" 
d="M623 256q62 0 127 24.5t112 65.5l205 -207q-70 -72 -192.5 -118t-241.5 -46q-121 0 -227 41.5t-181.5 114.5t-118.5 177t-43 224q0 241 156.5 396t396.5 155q251 0 392 -173t141 -476h-756q25 -81 86 -129.5t144 -48.5zM623 805q-78 0 -138 -43t-88 -117h430
q-22 74 -75 117t-129 43z" />
    <glyph glyph-name="f" unicode="f" horiz-adv-x="796" 
d="M516 1087v-28h219v-277h-219v-782h-332v782h-139v277h139v76q0 149 94.5 244.5t243.5 95.5q67 0 138.5 -28t119.5 -73l-69 -207q-35 35 -99 35q-42 0 -69 -32t-27 -83z" />
    <glyph glyph-name="g" unicode="g" horiz-adv-x="1337" 
d="M870 1059h349v-946q0 -204 -164 -334.5t-422 -130.5q-139 0 -267 39t-212 102l116 242q50 -42 135 -68t175 -26q130 0 210 53.5t80 138.5v100q-63 -72 -151.5 -111.5t-186.5 -39.5q-198 0 -331 142.5t-133 361.5t133 360t331 141q99 0 192 -42.5t146 -110.5v129zM647 367
q98 0 160.5 60.5t62.5 154.5t-62.5 153.5t-160.5 59.5q-97 0 -160 -60t-63 -153q0 -94 63 -154.5t160 -60.5z" />
    <glyph glyph-name="h" unicode="h" horiz-adv-x="1271" 
d="M772 1083q170 0 279.5 -114.5t109.5 -294.5v-674h-332v596q0 88 -50.5 143.5t-129.5 55.5t-132.5 -53.5t-53.5 -131.5v-610h-348v1432h348v-492q50 67 130.5 105t178.5 38z" />
    <glyph glyph-name="i" unicode="i" horiz-adv-x="589" 
d="M297 1188q-76 0 -130 54.5t-54 129.5q0 73 54 126.5t130 53.5q74 0 127 -53.5t53 -126.5q0 -75 -52.5 -129.5t-127.5 -54.5zM121 0v1059h346v-1059h-346z" />
    <glyph glyph-name="j" unicode="j" horiz-adv-x="589" 
d="M297 1188q-76 0 -130 54.5t-54 129.5q0 73 54 126.5t130 53.5q74 0 127 -53.5t53 -126.5q0 -75 -52.5 -129.5t-127.5 -54.5zM115 -365q-59 0 -123 13t-105 33l35 253q49 -18 105 -18q41 0 67.5 32t26.5 83v1028h346v-1067q0 -157 -98.5 -257t-253.5 -100z" />
    <glyph glyph-name="k" unicode="k" horiz-adv-x="1189" 
d="M797 596l393 -596h-393l-230 375l-106 -123v-252h-348v1432h348v-791l334 418h393z" />
    <glyph glyph-name="l" unicode="l" horiz-adv-x="589" 
d="M121 0v1432h348v-1432h-348z" />
    <glyph glyph-name="m" unicode="m" horiz-adv-x="1927" 
d="M1419 1083q168 0 283 -115.5t115 -293.5v-676h-332v614q0 80 -47.5 131.5t-120.5 51.5q-78 0 -128 -48t-50 -120v-629h-332v614q0 80 -47.5 131.5t-120.5 51.5q-78 0 -128 -48t-50 -120v-627h-346v1059h346v-137q39 76 112.5 118.5t169.5 42.5q105 0 193 -48.5
t141 -133.5q43 84 134.5 133t207.5 49z" />
    <glyph glyph-name="n" unicode="n" horiz-adv-x="1271" 
d="M772 1083q170 0 279.5 -114.5t109.5 -294.5v-674h-332v596q0 88 -50.5 143.5t-129.5 55.5t-132.5 -53.5t-53.5 -131.5l-2 6v-616h-346v1059h346v-121q50 68 131 106.5t180 38.5z" />
    <glyph glyph-name="o" unicode="o" horiz-adv-x="1300" 
d="M651 -25q-157 0 -292.5 75.5t-215.5 203.5t-80 276t80 275.5t215.5 202.5t292.5 75t292.5 -75t215.5 -202.5t80 -275.5t-80 -276t-215.5 -203.5t-292.5 -75.5zM651 264q106 0 183 79.5t77 186.5t-77 186t-183 79t-183 -79t-77 -186t77 -186.5t183 -79.5z" />
    <glyph glyph-name="p" unicode="p" 
d="M811 1083q214 0 349.5 -155t135.5 -398q0 -245 -135.5 -400t-349.5 -155q-104 0 -193 42t-153 118v-487h-348v1411h348v-135q134 159 346 159zM707 264q113 0 184.5 74.5t71.5 191.5q0 116 -72 190.5t-184 74.5q-107 0 -174.5 -74.5t-67.5 -190.5q0 -117 67.5 -191.5
t174.5 -74.5z" />
    <glyph glyph-name="q" unicode="q" 
d="M901 1059h348v-1411h-348v487q-64 -76 -153 -118t-193 -42q-214 0 -349.5 155t-135.5 400q0 243 135.5 398t349.5 155q212 0 346 -159v135zM659 264q107 0 174.5 74.5t67.5 191.5q0 116 -67.5 190.5t-174.5 74.5q-112 0 -184 -74.5t-72 -190.5q0 -117 71.5 -191.5
t184.5 -74.5z" />
    <glyph glyph-name="r" unicode="r" horiz-adv-x="847" 
d="M463 862q53 104 143.5 162.5t204.5 58.5v-288q-161 0 -253.5 -85.5t-92.5 -232.5l-2 4v-481h-346v1059h346v-197z" />
    <glyph glyph-name="s" unicode="s" horiz-adv-x="1032" 
d="M528 -25q-133 0 -263.5 42.5t-227.5 117.5l139 223q76 -54 172 -87t189 -33q57 0 87.5 17t30.5 48q0 35 -41 54.5t-133 41.5q-52 12 -87 21t-80.5 24.5t-75 32t-61.5 41.5t-50 54t-30.5 69t-12.5 88q0 155 117 254.5t311 99.5q229 0 430 -135l-127 -227
q-73 47 -153.5 75.5t-149.5 28.5q-47 0 -78 -18t-31 -43q0 -33 31.5 -47.5t138.5 -42.5q49 -12 82 -21t78.5 -25.5t76.5 -33.5t64.5 -43.5t53 -57.5t32.5 -74t13 -93q0 -160 -120.5 -255.5t-324.5 -95.5z" />
    <glyph glyph-name="t" unicode="t" horiz-adv-x="833" 
d="M711 299l69 -223q-48 -45 -119.5 -73t-138.5 -28q-149 0 -243.5 95.5t-94.5 244.5v467h-139v277h139v291h332v-291h219v-277h-219v-403q0 -51 27 -83t69 -32q64 0 99 35z" />
    <glyph glyph-name="u" unicode="u" horiz-adv-x="1271" 
d="M811 1059h346v-1059h-346v121q-50 -68 -131.5 -107t-179.5 -39q-170 0 -279.5 115t-109.5 295v674h331v-596q0 -88 50.5 -143.5t130.5 -55.5q79 0 132.5 53.5t53.5 131.5l2 -7v617z" />
    <glyph glyph-name="v" unicode="v" horiz-adv-x="1271" 
d="M477 0l-459 1059h359l262 -662l256 662h358l-454 -1059h-322z" />
    <glyph glyph-name="w" unicode="w" horiz-adv-x="1728" 
d="M389 0l-362 1059h335l179 -594l182 594h285l184 -594l178 594h336l-360 -1059h-310l-170 604l-168 -604h-309z" />
    <glyph glyph-name="x" unicode="x" horiz-adv-x="1169" 
d="M1151 0h-371l-198 283l-201 -283h-363l383 539l-364 520h369l182 -258l182 258h363l-365 -514z" />
    <glyph glyph-name="y" unicode="y" horiz-adv-x="1236" 
d="M391 -369q-72 0 -154.5 21t-142.5 55l72 230q96 -54 145 -54q87 0 115 45l29 60l-435 1071h357l248 -699l233 699h352l-415 -1090q-63 -162 -168 -250t-236 -88z" />
    <glyph glyph-name="z" unicode="z" horiz-adv-x="1101" 
d="M76 0v242l499 526h-485v291h938l-2 -242l-502 -526h508v-291h-956z" />
    <glyph glyph-name="braceleft" unicode="{" horiz-adv-x="841" 
d="M750 -340q-269 20 -383.5 108.5t-114.5 270.5l2 233q0 90 -46 130t-149 40v203q105 0 150 40.5t45 131.5l-2 232q0 182 114.5 270t383.5 108l26 -206q-159 -20 -208.5 -58.5t-49.5 -140.5l2 -248q0 -176 -160 -229q160 -53 160 -232l-2 -245q0 -104 50 -142.5t208 -58.5z
" />
    <glyph glyph-name="bar" unicode="|" horiz-adv-x="626" 
d="M195 -152v1674h237v-1674h-237z" />
    <glyph glyph-name="braceright" unicode="}" horiz-adv-x="841" 
d="M92 -340l-26 207q158 20 208 58.5t50 142.5l-2 245q0 181 159 232q-159 53 -159 229l2 248q0 102 -49.5 140.5t-208.5 58.5l26 206q268 -20 383 -108t115 -270l-2 -232q0 -91 44.5 -131.5t147.5 -40.5v-203q-103 0 -147.5 -39.5t-44.5 -130.5l2 -233q0 -181 -115 -270
t-383 -109z" />
    <glyph glyph-name="asciitilde" unicode="~" horiz-adv-x="931" 
d="M606 598q-49 0 -103.5 23.5t-98.5 47t-68 23.5q-62 0 -82 -96l-166 22q17 142 75 211.5t163 69.5q49 0 103.5 -23.5t99 -47t67.5 -23.5q65 0 82 96l166 -24q-15 -141 -73.5 -210t-164.5 -69z" />
    <glyph glyph-name="exclamdown" unicode="&#xa1;" horiz-adv-x="651" 
d="M319 1083q92 0 155 -62.5t63 -152.5q0 -84 -63.5 -145t-154.5 -61q-84 0 -145 61t-61 145q0 89 60.5 152t145.5 63zM438 530l78 -878h-389l76 878h235z" />
    <glyph glyph-name="cent" unicode="&#xa2;" horiz-adv-x="1126" 
d="M1087 170q-143 -162 -352 -188v-134h-213v142q-196 42 -327.5 194.5t-131.5 345.5q0 191 131.5 343.5t327.5 195.5v137h213v-129q206 -26 346 -182l-229 -190q-36 39 -91.5 64.5t-109.5 25.5q-103 0 -178.5 -78.5t-75.5 -184.5q0 -109 75.5 -188.5t178.5 -79.5
q56 0 113 26t94 68z" />
    <glyph glyph-name="sterling" unicode="&#xa3;" horiz-adv-x="1361" 
d="M629 264h678v-264h-1219v139l191 125v252h-148v170h148v262q0 213 139 348.5t358 135.5q142 0 278.5 -66t205.5 -168l-228 -223q-29 62 -89 100.5t-126 38.5q-82 0 -135 -56t-53 -143v-229h307v-170h-307v-252z" />
    <glyph glyph-name="yen" unicode="&#xa5;" horiz-adv-x="1435" 
d="M1440 1407l-447 -754h234v-170h-332v-118h332v-170h-332v-195h-352v195h-332v170h332v118h-332v170h233l-446 754h403l318 -594l332 594h389z" />
    <glyph glyph-name="dieresis" unicode="&#xa8;" horiz-adv-x="1026" 
d="M291 1186q-68 0 -115 47.5t-47 114.5q0 65 47 112t115 47q65 0 112.5 -47.5t47.5 -111.5q0 -66 -47.5 -114t-112.5 -48zM737 1186q-67 0 -114.5 48t-47.5 114q0 65 47.5 112t114.5 47t113.5 -47t46.5 -112q0 -67 -46.5 -114.5t-113.5 -47.5z" />
    <glyph glyph-name="macron" unicode="&#xaf;" horiz-adv-x="989" 
d="M129 1182v196h731v-196h-731z" />
    <glyph glyph-name="acute" unicode="&#xb4;" horiz-adv-x="794" 
d="M129 1176l233 327l304 -53l-308 -274h-229z" />
    <glyph glyph-name="cedilla" unicode="&#xb8;" horiz-adv-x="684" 
d="M403 -88q67 -1 109.5 -40t42.5 -99q0 -83 -63.5 -131t-163.5 -48q-57 0 -110.5 16.5t-88.5 43.5l59 129q57 -47 121 -47q34 0 57 15t23 42q0 49 -61 49q-36 0 -60 -18l-49 47l66 152h166z" />
    <glyph glyph-name="questiondown" unicode="&#xbf;" horiz-adv-x="1032" 
d="M545 1083q92 0 154.5 -62.5t62.5 -152.5q0 -84 -63 -145t-154 -61q-85 0 -146 61t-61 145q0 89 61 152t146 63zM696 547v-322q-129 -3 -211 -46t-82 -107q0 -56 51 -93.5t130 -37.5q61 0 122 28t107 74l195 -201q-94 -100 -218.5 -157.5t-269.5 -57.5
q-208 0 -339.5 115.5t-131.5 296.5q0 138 97 249t249 148v111h301z" />
    <glyph glyph-name="Agrave" unicode="&#xc0;" horiz-adv-x="1536" 
d="M893 1524h-229l-308 274l306 53zM1128 0l-81 205h-558l-81 -205h-394l557 1407h394l557 -1407h-394zM598 479h340l-170 432z" />
    <glyph glyph-name="Aacute" unicode="&#xc1;" horiz-adv-x="1536" 
d="M1186 1798l-307 -274h-230l234 327zM1128 0l-81 205h-558l-81 -205h-394l557 1407h394l557 -1407h-394zM598 479h340l-170 432z" />
    <glyph glyph-name="Acircumflex" unicode="&#xc2;" horiz-adv-x="1536" 
d="M770 1669l-152 -145h-206l217 309h282l222 -309h-209zM1128 0l-81 205h-558l-81 -205h-394l557 1407h394l557 -1407h-394zM598 479h340l-170 432z" />
    <glyph glyph-name="Atilde" unicode="&#xc3;" horiz-adv-x="1536" 
d="M639 1614q-62 0 -82 -96l-166 22q17 142 75 211.5t163 69.5q49 0 103.5 -23.5t99 -47.5t67.5 -24q64 0 82 97l166 -25q-15 -140 -73 -209t-165 -69q-49 0 -103.5 23.5t-98.5 47t-68 23.5zM1128 0l-81 205h-558l-81 -205h-394l557 1407h394l557 -1407h-394zM598 479h340
l-170 432z" />
    <glyph glyph-name="Adieresis" unicode="&#xc4;" horiz-adv-x="1536" 
d="M547 1534q-68 0 -115 47.5t-47 114.5q0 65 47 112t115 47q65 0 112.5 -47.5t47.5 -111.5q0 -66 -47.5 -114t-112.5 -48zM993 1534q-67 0 -114.5 48t-47.5 114q0 65 47.5 112t114.5 47t113.5 -47t46.5 -112q0 -67 -46.5 -114.5t-113.5 -47.5zM1128 0l-81 205h-558
l-81 -205h-394l557 1407h394l557 -1407h-394zM598 479h340l-170 432z" />
    <glyph glyph-name="Aring" unicode="&#xc5;" horiz-adv-x="1536" 
d="M770 1532q-99 0 -169.5 70.5t-70.5 169.5q0 100 71 170.5t169 70.5q100 0 171 -70.5t71 -170.5t-71 -170t-171 -70zM770 1876q-43 0 -73.5 -30.5t-30.5 -73.5t30.5 -74t73.5 -31t73.5 31t30.5 74t-30.5 73.5t-73.5 30.5zM1128 0l-81 205h-558l-81 -205h-394l557 1407h394
l557 -1407h-394zM598 479h340l-170 432z" />
    <glyph glyph-name="AE" unicode="&#xc6;" horiz-adv-x="2242" 
d="M2159 1094h-758v-220h688v-313h-688v-248h758v-313h-1108v215h-508l-125 -215h-404l813 1407h1332v-313zM694 479h357v617z" />
    <glyph glyph-name="Ccedilla" unicode="&#xc7;" horiz-adv-x="1435" 
d="M834 293q89 0 168 40t137 111l254 -225q-97 -103 -225.5 -166.5t-272.5 -75.5l-29 -65q67 -1 109.5 -40t42.5 -99q0 -83 -63.5 -131t-163.5 -48q-57 0 -110.5 16.5t-88.5 43.5l59 129q57 -47 121 -47q34 0 57 15t23 42q0 49 -61 49q-36 0 -60 -18l-49 47l49 111
q-135 19 -255.5 84t-208 160.5t-138.5 220.5t-51 258q0 145 61 279.5t163 232.5t241.5 156.5t290.5 58.5q161 0 306.5 -64.5t252.5 -177.5l-256 -227q-57 70 -136 110.5t-167 40.5q-161 0 -279.5 -121.5t-118.5 -287.5q0 -167 118.5 -289.5t279.5 -122.5z" />
    <glyph glyph-name="Egrave" unicode="&#xc8;" horiz-adv-x="1323" 
d="M893 1524h-229l-308 274l306 53zM1239 1094h-758v-220h688v-313h-688v-248h758v-313h-1108v1407h1108v-313z" />
    <glyph glyph-name="Eacute" unicode="&#xc9;" horiz-adv-x="1323" 
d="M995 1798l-307 -274h-229l233 327zM1239 1094h-758v-220h688v-313h-688v-248h758v-313h-1108v1407h1108v-313z" />
    <glyph glyph-name="Ecircumflex" unicode="&#xca;" horiz-adv-x="1323" 
d="M686 1669l-151 -145h-207l217 309h282l222 -309h-209zM1239 1094h-758v-220h688v-313h-688v-248h758v-313h-1108v1407h1108v-313z" />
    <glyph glyph-name="Edieresis" unicode="&#xcb;" horiz-adv-x="1323" 
d="M463 1534q-68 0 -115 47.5t-47 114.5q0 65 47 112t115 47q65 0 112.5 -47.5t47.5 -111.5q0 -66 -47.5 -114t-112.5 -48zM909 1534q-67 0 -114 48t-47 114q0 65 47 112t114 47t113.5 -47t46.5 -112q0 -67 -46.5 -114.5t-113.5 -47.5zM1239 1094h-758v-220h688v-313h-688
v-248h758v-313h-1108v1407h1108v-313z" />
    <glyph glyph-name="Igrave" unicode="&#xcc;" horiz-adv-x="622" 
d="M197 1524l-308 274l306 53l231 -327h-229zM137 0v1407h350v-1407h-350z" />
    <glyph glyph-name="Iacute" unicode="&#xcd;" horiz-adv-x="622" 
d="M193 1524l233 327l303 -53l-307 -274h-229zM137 0v1407h350v-1407h-350z" />
    <glyph glyph-name="Icircumflex" unicode="&#xce;" horiz-adv-x="622" 
d="M-47 1524l217 309h283l221 -309h-209l-154 145l-151 -145h-207zM137 0v1407h350v-1407h-350z" />
    <glyph glyph-name="Idieresis" unicode="&#xcf;" horiz-adv-x="622" 
d="M88 1534q-68 0 -115 47.5t-47 114.5q0 65 47 112t115 47q65 0 112.5 -47.5t47.5 -111.5q0 -66 -47.5 -114t-112.5 -48zM535 1534q-67 0 -114.5 48t-47.5 114q0 65 47.5 112t114.5 47t113 -47t46 -112q0 -67 -46 -114.5t-113 -47.5zM137 0v1407h350v-1407h-350z" />
    <glyph glyph-name="Eth" unicode="&#xd0;" horiz-adv-x="1658" 
d="M754 1407q239 0 426.5 -89t292 -249t104.5 -364t-104.5 -364.5t-292.5 -250.5t-426 -90h-514v551h-158v313h158v543h514zM807 317q180 0 296 109.5t116 278.5t-116 277t-296 108h-217v-226h289l-2 -313h-287v-234h217z" />
    <glyph glyph-name="Ntilde" unicode="&#xd1;" horiz-adv-x="1587" 
d="M932 1520q-49 0 -103.5 23.5t-98.5 47t-68 23.5q-62 0 -82 -96l-166 22q17 142 74.5 211.5t162.5 69.5q38 0 81.5 -15t74.5 -32.5t63.5 -32.5t51.5 -15q64 0 82 97l165 -25q-15 -141 -73 -209.5t-164 -68.5zM137 0v1407h350l613 -832v832h350v-1407h-350l-613 831v-831
h-350z" />
    <glyph glyph-name="Ograve" unicode="&#xd2;" horiz-adv-x="1665" 
d="M721 1524l-307 274l305 53l231 -327h-229zM834 -25q-151 0 -290.5 59t-241.5 157.5t-163 233.5t-61 280t61 279.5t163 232.5t241.5 156.5t290.5 58.5q152 0 292 -58.5t241.5 -156.5t162.5 -232.5t61 -279.5t-61 -280t-162.5 -233.5t-241.5 -157.5t-292 -59zM834 293
q161 0 279 122.5t118 289.5q0 166 -118 287.5t-279 121.5t-279.5 -121.5t-118.5 -287.5q0 -167 118.5 -289.5t279.5 -122.5z" />
    <glyph glyph-name="Oacute" unicode="&#xd3;" horiz-adv-x="1665" 
d="M711 1524l233 327l303 -53l-307 -274h-229zM834 -25q-151 0 -290.5 59t-241.5 157.5t-163 233.5t-61 280t61 279.5t163 232.5t241.5 156.5t290.5 58.5q152 0 292 -58.5t241.5 -156.5t162.5 -232.5t61 -279.5t-61 -280t-162.5 -233.5t-241.5 -157.5t-292 -59zM834 293
q161 0 279 122.5t118 289.5q0 166 -118 287.5t-279 121.5t-279.5 -121.5t-118.5 -287.5q0 -167 118.5 -289.5t279.5 -122.5z" />
    <glyph glyph-name="Ocircumflex" unicode="&#xd4;" horiz-adv-x="1665" 
d="M475 1524l217 309h283l221 -309h-209l-153 145l-152 -145h-207zM834 -25q-151 0 -290.5 59t-241.5 157.5t-163 233.5t-61 280t61 279.5t163 232.5t241.5 156.5t290.5 58.5q152 0 292 -58.5t241.5 -156.5t162.5 -232.5t61 -279.5t-61 -280t-162.5 -233.5t-241.5 -157.5
t-292 -59zM834 293q161 0 279 122.5t118 289.5q0 166 -118 287.5t-279 121.5t-279.5 -121.5t-118.5 -287.5q0 -167 118.5 -289.5t279.5 -122.5z" />
    <glyph glyph-name="Otilde" unicode="&#xd5;" horiz-adv-x="1665" 
d="M973 1520q-49 0 -104 23.5t-99 47t-68 23.5q-32 0 -51 -23t-30 -73l-166 22q17 142 74.5 211.5t162.5 69.5q38 0 81.5 -15t74.5 -32.5t63.5 -32.5t51.5 -15q33 0 52.5 23.5t28.5 73.5l166 -25q-15 -141 -73 -209.5t-164 -68.5zM834 -25q-151 0 -290.5 59t-241.5 157.5
t-163 233.5t-61 280t61 279.5t163 232.5t241.5 156.5t290.5 58.5q152 0 292 -58.5t241.5 -156.5t162.5 -232.5t61 -279.5t-61 -280t-162.5 -233.5t-241.5 -157.5t-292 -59zM834 293q161 0 279 122.5t118 289.5q0 166 -118 287.5t-279 121.5t-279.5 -121.5t-118.5 -287.5
q0 -167 118.5 -289.5t279.5 -122.5z" />
    <glyph glyph-name="Odieresis" unicode="&#xd6;" horiz-adv-x="1665" 
d="M610 1534q-68 0 -114.5 47.5t-46.5 114.5q0 65 46.5 112t114.5 47q65 0 112.5 -47.5t47.5 -111.5q0 -66 -47.5 -114t-112.5 -48zM1057 1534q-67 0 -114.5 48t-47.5 114q0 65 47.5 112t114.5 47t113.5 -47t46.5 -112q0 -67 -46.5 -114.5t-113.5 -47.5zM834 -25
q-151 0 -290.5 59t-241.5 157.5t-163 233.5t-61 280t61 279.5t163 232.5t241.5 156.5t290.5 58.5q152 0 292 -58.5t241.5 -156.5t162.5 -232.5t61 -279.5t-61 -280t-162.5 -233.5t-241.5 -157.5t-292 -59zM834 293q161 0 279 122.5t118 289.5q0 166 -118 287.5t-279 121.5
t-279.5 -121.5t-118.5 -287.5q0 -167 118.5 -289.5t279.5 -122.5z" />
    <glyph glyph-name="multiply" unicode="&#xd7;" horiz-adv-x="1161" 
d="M1040 432l-206 -207l-259 258l-253 -254l-195 197l254 254l-258 256l207 207l258 -256l250 250l196 -195l-252 -252z" />
    <glyph glyph-name="Oslash" unicode="&#xd8;" horiz-adv-x="1665" 
d="M1393 1192q94 -100 146 -225t52 -262q0 -145 -61 -280t-162.5 -233.5t-241.5 -157.5t-292 -59q-196 0 -377 101l-64 -76h-297l183 217q-95 98 -148 224.5t-53 263.5q0 145 61 279.5t163 232.5t241.5 156.5t290.5 58.5q197 0 378 -101l64 76h297zM436 705q0 -121 66 -222
l495 592q-76 39 -163 39q-161 0 -279.5 -121.5t-118.5 -287.5zM834 293q161 0 279 122.5t118 289.5q0 121 -64 219l-497 -594q82 -37 164 -37z" />
    <glyph glyph-name="Ugrave" unicode="&#xd9;" horiz-adv-x="1552" 
d="M754 1524l-308 274l306 53l231 -327h-229zM776 -25q-189 0 -338 81t-232 227.5t-83 332.5v791h350v-774q0 -149 85.5 -244.5t217.5 -95.5q134 0 219.5 95.5t85.5 244.5v774h349v-791q0 -140 -48.5 -259t-134 -203t-207 -131.5t-264.5 -47.5z" />
    <glyph glyph-name="Uacute" unicode="&#xda;" horiz-adv-x="1552" 
d="M549 1524l233 327l303 -53l-307 -274h-229zM776 -25q-189 0 -338 81t-232 227.5t-83 332.5v791h350v-774q0 -149 85.5 -244.5t217.5 -95.5q134 0 219.5 95.5t85.5 244.5v774h349v-791q0 -140 -48.5 -259t-134 -203t-207 -131.5t-264.5 -47.5z" />
    <glyph glyph-name="Ucircumflex" unicode="&#xdb;" horiz-adv-x="1552" 
d="M418 1524l217 309h283l221 -309h-209l-154 145l-151 -145h-207zM776 -25q-189 0 -338 81t-232 227.5t-83 332.5v791h350v-774q0 -149 85.5 -244.5t217.5 -95.5q134 0 219.5 95.5t85.5 244.5v774h349v-791q0 -140 -48.5 -259t-134 -203t-207 -131.5t-264.5 -47.5z" />
    <glyph glyph-name="Udieresis" unicode="&#xdc;" horiz-adv-x="1552" 
d="M553 1534q-68 0 -115 47.5t-47 114.5q0 65 47 112t115 47q65 0 112.5 -47.5t47.5 -111.5q0 -66 -47.5 -114t-112.5 -48zM999 1534q-67 0 -114 48t-47 114q0 65 47 112t114 47t113.5 -47t46.5 -112q0 -67 -46.5 -114.5t-113.5 -47.5zM776 -25q-189 0 -338 81t-232 227.5
t-83 332.5v791h350v-774q0 -149 85.5 -244.5t217.5 -95.5q134 0 219.5 95.5t85.5 244.5v774h349v-791q0 -140 -48.5 -259t-134 -203t-207 -131.5t-264.5 -47.5z" />
    <glyph glyph-name="Yacute" unicode="&#xdd;" horiz-adv-x="1435" 
d="M492 1524l233 327l303 -53l-307 -274h-229zM543 0v485l-545 922h403l318 -594l332 594h389l-545 -922v-485h-352z" />
    <glyph glyph-name="Thorn" unicode="&#xde;" horiz-adv-x="1361" 
d="M131 0v1407h342v-217h311q233 0 384 -135t151 -348q0 -212 -151.5 -348t-383.5 -136h-303v-223h-350zM481 543h271q91 0 148.5 45.5t57.5 118.5t-57.5 119t-148.5 46h-271v-329z" />
    <glyph glyph-name="germandbls" unicode="&#xdf;" horiz-adv-x="1282" 
d="M119 0v1057q0 185 145.5 302.5t374.5 117.5t375.5 -118t146.5 -302q0 -104 -52 -188t-144 -130q123 -54 191.5 -148.5t68.5 -209.5q0 -168 -133.5 -274.5t-343.5 -106.5h-138v297h76q78 0 128 39.5t50 101.5t-50 102t-128 40h-76v270h25q72 0 119 39t47 96q0 59 -45.5 96
t-120.5 37t-121.5 -40t-46.5 -109v-969h-348z" />
    <glyph glyph-name="agrave" unicode="&#xe0;" horiz-adv-x="1196" 
d="M827 1176h-229l-307 274l305 53zM610 1083q209 0 343 -123t134 -331v-629h-333v90q-55 -55 -132.5 -85t-160.5 -30q-171 0 -287.5 94.5t-116.5 243.5q0 153 129.5 253t319.5 100q119 0 248 -52v15q0 86 -62.5 140t-169.5 54q-70 0 -130 -19t-136 -59l-109 218
q238 120 463 120zM545 188q79 0 139 35.5t70 93.5v113q-93 35 -199 35q-71 0 -119.5 -40t-48.5 -101t44 -98.5t114 -37.5z" />
    <glyph glyph-name="aacute" unicode="&#xe1;" horiz-adv-x="1196" 
d="M930 1450l-307 -274h-230l234 327zM610 1083q209 0 343 -123t134 -331v-629h-333v90q-55 -55 -132.5 -85t-160.5 -30q-171 0 -287.5 94.5t-116.5 243.5q0 153 129.5 253t319.5 100q119 0 248 -52v15q0 86 -62.5 140t-169.5 54q-70 0 -130 -19t-136 -59l-109 218
q238 120 463 120zM545 188q79 0 139 35.5t70 93.5v113q-93 35 -199 35q-71 0 -119.5 -40t-48.5 -101t44 -98.5t114 -37.5z" />
    <glyph glyph-name="acircumflex" unicode="&#xe2;" horiz-adv-x="1196" 
d="M621 1321l-152 -145h-207l217 309h283l221 -309h-209zM610 1083q209 0 343 -123t134 -331v-629h-333v90q-55 -55 -132.5 -85t-160.5 -30q-171 0 -287.5 94.5t-116.5 243.5q0 153 129.5 253t319.5 100q119 0 248 -52v15q0 86 -62.5 140t-169.5 54q-70 0 -130 -19t-136 -59
l-109 218q238 120 463 120zM545 188q79 0 139 35.5t70 93.5v113q-93 35 -199 35q-71 0 -119.5 -40t-48.5 -101t44 -98.5t114 -37.5z" />
    <glyph glyph-name="atilde" unicode="&#xe3;" horiz-adv-x="1196" 
d="M489 1266q-32 0 -51 -23.5t-30 -73.5l-166 23q17 142 74.5 211.5t162.5 69.5q38 0 81.5 -15t74.5 -32.5t63.5 -32.5t51.5 -15q33 0 52.5 23.5t28.5 73.5l166 -25q-15 -141 -73 -210t-164 -69q-39 0 -82 15t-74 32.5t-63 32.5t-52 15zM610 1083q209 0 343 -123t134 -331
v-629h-333v90q-55 -55 -132.5 -85t-160.5 -30q-171 0 -287.5 94.5t-116.5 243.5q0 153 129.5 253t319.5 100q119 0 248 -52v15q0 86 -62.5 140t-169.5 54q-70 0 -130 -19t-136 -59l-109 218q238 120 463 120zM545 188q79 0 139 35.5t70 93.5v113q-93 35 -199 35
q-71 0 -119.5 -40t-48.5 -101t44 -98.5t114 -37.5z" />
    <glyph glyph-name="adieresis" unicode="&#xe4;" horiz-adv-x="1196" 
d="M397 1186q-68 0 -114.5 47.5t-46.5 114.5q0 65 46.5 112t114.5 47q65 0 112.5 -47.5t47.5 -111.5q0 -66 -47.5 -114t-112.5 -48zM844 1186q-67 0 -114.5 48t-47.5 114q0 65 47.5 112t114.5 47t113.5 -47t46.5 -112q0 -67 -46.5 -114.5t-113.5 -47.5zM610 1083
q209 0 343 -123t134 -331v-629h-333v90q-55 -55 -132.5 -85t-160.5 -30q-171 0 -287.5 94.5t-116.5 243.5q0 153 129.5 253t319.5 100q119 0 248 -52v15q0 86 -62.5 140t-169.5 54q-70 0 -130 -19t-136 -59l-109 218q238 120 463 120zM545 188q79 0 139 35.5t70 93.5v113
q-93 35 -199 35q-71 0 -119.5 -40t-48.5 -101t44 -98.5t114 -37.5z" />
    <glyph glyph-name="aring" unicode="&#xe5;" horiz-adv-x="1196" 
d="M621 1184q-99 0 -169.5 70t-70.5 169q0 100 71 171t169 71q100 0 170.5 -71t70.5 -171t-70.5 -169.5t-170.5 -69.5zM621 1528q-43 0 -74 -31t-31 -74t31 -73.5t74 -30.5t73.5 30.5t30.5 73.5t-30.5 74t-73.5 31zM610 1083q209 0 343 -123t134 -331v-629h-333v90
q-55 -55 -132.5 -85t-160.5 -30q-171 0 -287.5 94.5t-116.5 243.5q0 153 129.5 253t319.5 100q119 0 248 -52v15q0 86 -62.5 140t-169.5 54q-70 0 -130 -19t-136 -59l-109 218q238 120 463 120zM545 188q79 0 139 35.5t70 93.5v113q-93 35 -199 35q-71 0 -119.5 -40
t-48.5 -101t44 -98.5t114 -37.5z" />
    <glyph glyph-name="ae" unicode="&#xe6;" horiz-adv-x="1900" 
d="M1313 256q62 0 127 24.5t112 65.5l205 -207q-70 -72 -192.5 -118t-241.5 -46q-122 0 -227 41t-181 115q-134 -156 -401 -156q-203 0 -330 93.5t-127 244.5q0 153 129.5 253t319.5 100q119 0 248 -52v15q0 80 -59.5 129t-172.5 49q-126 0 -262 -68l-113 224q122 62 219 91
t212 29q110 0 198.5 -38t145.5 -105q156 143 385 143q251 0 391.5 -172.5t140.5 -476.5h-756q25 -81 86 -129.5t144 -48.5zM1313 805q-78 0 -138 -43t-88 -117h431q-22 74 -75.5 117t-129.5 43zM549 205q92 0 148.5 40t56.5 105v60q-89 39 -199 39q-69 0 -114.5 -35.5
t-45.5 -89.5t42 -86.5t112 -32.5z" />
    <glyph glyph-name="ccedilla" unicode="&#xe7;" horiz-adv-x="1126" 
d="M1087 170q-148 -167 -366 -190l-29 -68q67 -1 109.5 -40t42.5 -99q0 -83 -63.5 -131t-164.5 -48q-121 0 -198 60l59 129q57 -47 121 -47q34 0 57 15t23 42q0 23 -16.5 36t-45.5 13q-35 0 -59 -18l-49 47l49 113q-208 32 -351 188.5t-143 357.5q0 148 80.5 275.5
t216.5 202.5t293 75q261 0 428 -188l-229 -190q-36 39 -91.5 64.5t-109.5 25.5q-103 0 -178.5 -78.5t-75.5 -184.5q0 -109 75.5 -188.5t178.5 -79.5q56 0 113 26t94 68z" />
    <glyph glyph-name="egrave" unicode="&#xe8;" horiz-adv-x="1212" 
d="M823 1176h-229l-307 274l305 53zM623 256q62 0 127 24.5t112 65.5l205 -207q-70 -72 -192.5 -118t-241.5 -46q-121 0 -227 41.5t-181.5 114.5t-118.5 177t-43 224q0 241 156.5 396t396.5 155q251 0 392 -173t141 -476h-756q25 -81 86 -129.5t144 -48.5zM623 805
q-78 0 -138 -43t-88 -117h430q-22 74 -75 117t-129 43z" />
    <glyph glyph-name="eacute" unicode="&#xe9;" horiz-adv-x="1212" 
d="M926 1450l-308 -274h-229l234 327zM623 256q62 0 127 24.5t112 65.5l205 -207q-70 -72 -192.5 -118t-241.5 -46q-121 0 -227 41.5t-181.5 114.5t-118.5 177t-43 224q0 241 156.5 396t396.5 155q251 0 392 -173t141 -476h-756q25 -81 86 -129.5t144 -48.5zM623 805
q-78 0 -138 -43t-88 -117h430q-22 74 -75 117t-129 43z" />
    <glyph glyph-name="ecircumflex" unicode="&#xea;" horiz-adv-x="1212" 
d="M616 1321l-151 -145h-207l217 309h283l221 -309h-209zM623 256q62 0 127 24.5t112 65.5l205 -207q-70 -72 -192.5 -118t-241.5 -46q-121 0 -227 41.5t-181.5 114.5t-118.5 177t-43 224q0 241 156.5 396t396.5 155q251 0 392 -173t141 -476h-756q25 -81 86 -129.5
t144 -48.5zM623 805q-78 0 -138 -43t-88 -117h430q-22 74 -75 117t-129 43z" />
    <glyph glyph-name="edieresis" unicode="&#xeb;" horiz-adv-x="1212" 
d="M393 1186q-68 0 -115 47.5t-47 114.5q0 65 47 112t115 47q65 0 112.5 -47.5t47.5 -111.5q0 -66 -47.5 -114t-112.5 -48zM840 1186q-67 0 -114.5 48t-47.5 114q0 65 47.5 112t114.5 47t113 -47t46 -112q0 -67 -46 -114.5t-113 -47.5zM623 256q62 0 127 24.5t112 65.5
l205 -207q-70 -72 -192.5 -118t-241.5 -46q-121 0 -227 41.5t-181.5 114.5t-118.5 177t-43 224q0 241 156.5 396t396.5 155q251 0 392 -173t141 -476h-756q25 -81 86 -129.5t144 -48.5zM623 805q-78 0 -138 -43t-88 -117h430q-22 74 -75 117t-129 43z" />
    <glyph glyph-name="igrave" unicode="&#xec;" horiz-adv-x="589" 
d="M180 1176l-307 274l305 53l232 -327h-230zM121 0v1059h346v-1059h-346z" />
    <glyph glyph-name="iacute" unicode="&#xed;" horiz-adv-x="589" 
d="M176 1176l234 327l303 -53l-307 -274h-230zM121 0v1059h346v-1059h-346z" />
    <glyph glyph-name="icircumflex" unicode="&#xee;" horiz-adv-x="589" 
d="M-63 1176l217 309h282l221 -309h-208l-154 145l-152 -145h-206zM121 0v1059h346v-1059h-346z" />
    <glyph glyph-name="idieresis" unicode="&#xef;" horiz-adv-x="589" 
d="M72 1186q-68 0 -115 47.5t-47 114.5q0 65 47 112t115 47q64 0 111.5 -47.5t47.5 -111.5q0 -66 -47 -114t-112 -48zM518 1186q-67 0 -114.5 48t-47.5 114q0 65 47.5 112t114.5 47t113.5 -47t46.5 -112q0 -67 -46.5 -114.5t-113.5 -47.5zM121 0v1059h346v-1059h-346z" />
    <glyph glyph-name="eth" unicode="&#xf0;" horiz-adv-x="1296" 
d="M874 1264q180 -169 264.5 -329t84.5 -353q0 -176 -73 -314.5t-203.5 -215.5t-295.5 -77q-249 0 -409 151t-160 386q0 218 128 358t329 140q177 0 301 -144q-66 135 -238 277l-201 -90l-75 170l106 47q-27 19 -137 92l305 131q81 -62 121 -96l178 80l74 -170zM653 266
q103 0 169.5 65.5t66.5 166.5q0 100 -66 166.5t-172 66.5q-104 0 -169.5 -64.5t-65.5 -164.5q0 -104 66.5 -170t170.5 -66z" />
    <glyph glyph-name="ntilde" unicode="&#xf1;" horiz-adv-x="1271" 
d="M526 1266q-61 0 -82 -97l-165 23q17 142 74.5 211.5t162.5 69.5q49 0 103.5 -23.5t99 -47.5t67.5 -24q64 0 82 97l166 -25q-15 -141 -73 -210t-164 -69q-39 0 -82 15t-74 32.5t-63 32.5t-52 15zM772 1083q170 0 279.5 -114.5t109.5 -294.5v-674h-332v596
q0 88 -50.5 143.5t-129.5 55.5t-132.5 -53.5t-53.5 -131.5l-2 6v-616h-346v1059h346v-121q50 68 131 106.5t180 38.5z" />
    <glyph glyph-name="ograve" unicode="&#xf2;" horiz-adv-x="1300" 
d="M629 1176l-307 274l305 53l231 -327h-229zM651 -25q-157 0 -292.5 75.5t-215.5 203.5t-80 276t80 275.5t215.5 202.5t292.5 75t292.5 -75t215.5 -202.5t80 -275.5t-80 -276t-215.5 -203.5t-292.5 -75.5zM651 264q106 0 183 79.5t77 186.5t-77 186t-183 79t-183 -79
t-77 -186t77 -186.5t183 -79.5z" />
    <glyph glyph-name="oacute" unicode="&#xf3;" horiz-adv-x="1300" 
d="M424 1176l233 327l304 -53l-308 -274h-229zM651 -25q-157 0 -292.5 75.5t-215.5 203.5t-80 276t80 275.5t215.5 202.5t292.5 75t292.5 -75t215.5 -202.5t80 -275.5t-80 -276t-215.5 -203.5t-292.5 -75.5zM651 264q106 0 183 79.5t77 186.5t-77 186t-183 79t-183 -79
t-77 -186t77 -186.5t183 -79.5z" />
    <glyph glyph-name="ocircumflex" unicode="&#xf4;" horiz-adv-x="1300" 
d="M293 1176l217 309h283l221 -309h-209l-154 145l-151 -145h-207zM651 -25q-157 0 -292.5 75.5t-215.5 203.5t-80 276t80 275.5t215.5 202.5t292.5 75t292.5 -75t215.5 -202.5t80 -275.5t-80 -276t-215.5 -203.5t-292.5 -75.5zM651 264q106 0 183 79.5t77 186.5t-77 186
t-183 79t-183 -79t-77 -186t77 -186.5t183 -79.5z" />
    <glyph glyph-name="otilde" unicode="&#xf5;" horiz-adv-x="1300" 
d="M791 1171q-39 0 -82 15t-74 32.5t-63 32.5t-52 15q-61 0 -82 -97l-166 23q17 142 75 211.5t163 69.5q49 0 103.5 -23.5t99 -47.5t67.5 -24q64 0 82 97l166 -25q-15 -141 -73 -210t-164 -69zM651 -25q-157 0 -292.5 75.5t-215.5 203.5t-80 276t80 275.5t215.5 202.5
t292.5 75t292.5 -75t215.5 -202.5t80 -275.5t-80 -276t-215.5 -203.5t-292.5 -75.5zM651 264q106 0 183 79.5t77 186.5t-77 186t-183 79t-183 -79t-77 -186t77 -186.5t183 -79.5z" />
    <glyph glyph-name="odieresis" unicode="&#xf6;" horiz-adv-x="1300" 
d="M428 1186q-68 0 -115 47.5t-47 114.5q0 65 47 112t115 47q65 0 112.5 -47.5t47.5 -111.5q0 -66 -47.5 -114t-112.5 -48zM874 1186q-67 0 -114 48t-47 114q0 65 47 112t114 47t113.5 -47t46.5 -112q0 -67 -46.5 -114.5t-113.5 -47.5zM651 -25q-157 0 -292.5 75.5
t-215.5 203.5t-80 276t80 275.5t215.5 202.5t292.5 75t292.5 -75t215.5 -202.5t80 -275.5t-80 -276t-215.5 -203.5t-292.5 -75.5zM651 264q106 0 183 79.5t77 186.5t-77 186t-183 79t-183 -79t-77 -186t77 -186.5t183 -79.5z" />
    <glyph glyph-name="divide" unicode="&#xf7;" horiz-adv-x="1241" 
d="M625 905q-78 0 -132.5 55t-54.5 132q0 71 55 124.5t132 53.5q73 0 126.5 -53.5t53.5 -124.5q0 -76 -53 -131.5t-127 -55.5zM117 547v274h1005v-274h-1005zM625 98q-78 0 -132.5 55t-54.5 132q0 71 55 124.5t132 53.5q73 0 126.5 -53.5t53.5 -124.5q0 -76 -53 -131.5
t-127 -55.5z" />
    <glyph glyph-name="oslash" unicode="&#xf8;" horiz-adv-x="1300" 
d="M1087 897q72 -75 112 -170t40 -197q0 -148 -80 -276t-215.5 -203.5t-292.5 -75.5q-158 0 -295 78l-47 -53h-231l139 160q-154 164 -154 370q0 148 80 275.5t215.5 202.5t292.5 75q159 0 297 -77l47 53h232zM391 530q0 -70 35 -129l324 373q-46 21 -99 21q-106 0 -183 -79
t-77 -186zM651 264q106 0 183 79.5t77 186.5q0 65 -32 127l-324 -372q47 -21 96 -21z" />
    <glyph glyph-name="ugrave" unicode="&#xf9;" horiz-adv-x="1271" 
d="M840 1176h-230l-307 274l305 53zM811 1059h346v-1059h-346v121q-50 -68 -131.5 -107t-179.5 -39q-170 0 -279.5 115t-109.5 295v674h331v-596q0 -88 50.5 -143.5t130.5 -55.5q79 0 132.5 53.5t53.5 131.5l2 -7v617z" />
    <glyph glyph-name="uacute" unicode="&#xfa;" horiz-adv-x="1271" 
d="M942 1450l-307 -274h-229l233 327zM811 1059h346v-1059h-346v121q-50 -68 -131.5 -107t-179.5 -39q-170 0 -279.5 115t-109.5 295v674h331v-596q0 -88 50.5 -143.5t130.5 -55.5q79 0 132.5 53.5t53.5 131.5l2 -7v617z" />
    <glyph glyph-name="ucircumflex" unicode="&#xfb;" horiz-adv-x="1271" 
d="M633 1321l-152 -145h-207l218 309h282l221 -309h-209zM811 1059h346v-1059h-346v121q-50 -68 -131.5 -107t-179.5 -39q-170 0 -279.5 115t-109.5 295v674h331v-596q0 -88 50.5 -143.5t130.5 -55.5q79 0 132.5 53.5t53.5 131.5l2 -7v617z" />
    <glyph glyph-name="udieresis" unicode="&#xfc;" horiz-adv-x="1271" 
d="M410 1186q-68 0 -115 47.5t-47 114.5q0 65 47 112t115 47q64 0 111.5 -47.5t47.5 -111.5q0 -66 -47 -114t-112 -48zM856 1186q-67 0 -114.5 48t-47.5 114q0 65 47.5 112t114.5 47t113.5 -47t46.5 -112q0 -67 -46.5 -114.5t-113.5 -47.5zM811 1059h346v-1059h-346v121
q-50 -68 -131.5 -107t-179.5 -39q-170 0 -279.5 115t-109.5 295v674h331v-596q0 -88 50.5 -143.5t130.5 -55.5q79 0 132.5 53.5t53.5 131.5l2 -7v617z" />
    <glyph glyph-name="yacute" unicode="&#xfd;" horiz-adv-x="1236" 
d="M397 1176l234 327l303 -53l-307 -274h-230zM391 -369q-72 0 -154.5 21t-142.5 55l72 230q96 -54 145 -54q87 0 115 45l29 60l-435 1071h357l248 -699l233 699h352l-415 -1090q-63 -162 -168 -250t-236 -88z" />
    <glyph glyph-name="thorn" unicode="&#xfe;" 
d="M811 1083q214 0 349.5 -155t135.5 -398q0 -245 -135.5 -400t-349.5 -155q-104 0 -193 42t-153 118v-487h-348v1784h348v-508q134 159 346 159zM707 264q113 0 184.5 74.5t71.5 191.5q0 116 -72 190.5t-184 74.5q-107 0 -174.5 -74.5t-67.5 -190.5q0 -117 67.5 -191.5
t174.5 -74.5z" />
    <glyph glyph-name="ydieresis" unicode="&#xff;" horiz-adv-x="1236" 
d="M401 1186q-68 0 -114.5 47.5t-46.5 114.5q0 65 46.5 112t114.5 47q65 0 112.5 -47.5t47.5 -111.5q0 -66 -47.5 -114t-112.5 -48zM848 1186q-67 0 -114.5 48t-47.5 114q0 65 47.5 112t114.5 47t113.5 -47t46.5 -112q0 -67 -46.5 -114.5t-113.5 -47.5zM391 -369
q-72 0 -154.5 21t-142.5 55l72 230q96 -54 145 -54q87 0 115 45l29 60l-435 1071h357l248 -699l233 699h352l-415 -1090q-63 -162 -168 -250t-236 -88z" />
    <glyph glyph-name="Amacron" unicode="&#x100;" horiz-adv-x="1536" 
d="M1135 1726v-196h-732v196h732zM1128 0l-81 205h-558l-81 -205h-394l557 1407h394l557 -1407h-394zM598 479h340l-170 432z" />
    <glyph glyph-name="amacron" unicode="&#x101;" horiz-adv-x="1196" 
d="M985 1378v-196h-731v196h731zM610 1083q209 0 343 -123t134 -331v-629h-333v90q-55 -55 -132.5 -85t-160.5 -30q-171 0 -287.5 94.5t-116.5 243.5q0 153 129.5 253t319.5 100q119 0 248 -52v15q0 86 -62.5 140t-169.5 54q-70 0 -130 -19t-136 -59l-109 218
q238 120 463 120zM545 188q79 0 139 35.5t70 93.5v113q-93 35 -199 35q-71 0 -119.5 -40t-48.5 -101t44 -98.5t114 -37.5z" />
    <glyph glyph-name="Abreve" unicode="&#x102;" horiz-adv-x="1536" 
d="M1110 1673q-141 -141 -340 -141q-196 0 -340 141l141 139q88 -88 199 -88t199 88zM1128 0l-81 205h-558l-81 -205h-394l557 1407h394l557 -1407h-394zM598 479h340l-170 432z" />
    <glyph glyph-name="abreve" unicode="&#x103;" horiz-adv-x="1196" 
d="M961 1325q-141 -141 -340 -141q-196 0 -340 141l141 139q88 -88 199 -88q110 0 198 88zM610 1083q209 0 343 -123t134 -331v-629h-333v90q-55 -55 -132.5 -85t-160.5 -30q-171 0 -287.5 94.5t-116.5 243.5q0 153 129.5 253t319.5 100q119 0 248 -52v15q0 86 -62.5 140
t-169.5 54q-70 0 -130 -19t-136 -59l-109 218q238 120 463 120zM545 188q79 0 139 35.5t70 93.5v113q-93 35 -199 35q-71 0 -119.5 -40t-48.5 -101t44 -98.5t114 -37.5z" />
    <glyph glyph-name="Aogonek" unicode="&#x104;" horiz-adv-x="1536" 
d="M1593 -131l49 -154q-79 -69 -188 -69q-101 0 -164 62.5t-63 168.5q0 70 35 123h-134l-81 205h-558l-81 -205h-394l557 1407h394l557 -1407q-38 0 -62 -23t-24 -59t23.5 -55t64.5 -19q40 0 69 25zM598 479h340l-170 432z" />
    <glyph glyph-name="aogonek" unicode="&#x105;" horiz-adv-x="1196" 
d="M1159 -131l49 -154q-79 -69 -188 -69q-101 0 -164 62.5t-63 168.5q0 71 34 123h-73v90q-55 -55 -132.5 -85t-160.5 -30q-171 0 -287.5 94.5t-116.5 243.5q0 153 129.5 253t319.5 100q119 0 248 -52v15q0 86 -62.5 140t-169.5 54q-70 0 -130 -19t-136 -59l-109 218
q238 120 463 120q209 0 343 -123t134 -331v-629q-38 0 -62 -23t-24 -59t24 -55t65 -19q40 0 69 25zM545 188q79 0 139 35.5t70 93.5v113q-93 35 -199 35q-71 0 -119.5 -40t-48.5 -101t44 -98.5t114 -37.5z" />
    <glyph glyph-name="Cacute" unicode="&#x106;" horiz-adv-x="1435" 
d="M557 1524l234 327l303 -53l-308 -274h-229zM834 -25q-151 0 -290.5 59t-241.5 157.5t-163 233.5t-61 280t61 279.5t163 232.5t241.5 156.5t290.5 58.5q161 0 306.5 -64.5t252.5 -177.5l-256 -227q-57 70 -136 110.5t-167 40.5q-161 0 -279.5 -121.5t-118.5 -287.5
q0 -167 118.5 -289.5t279.5 -122.5q89 0 168 40t137 111l254 -225q-106 -114 -251.5 -179t-307.5 -65z" />
    <glyph glyph-name="cacute" unicode="&#x107;" horiz-adv-x="1126" 
d="M383 1176l233 327l304 -53l-308 -274h-229zM649 -25q-156 0 -291 75.5t-215 203.5t-80 276t80.5 275.5t216.5 202.5t293 75q261 0 428 -188l-229 -190q-36 39 -91.5 64.5t-109.5 25.5q-103 0 -178.5 -78.5t-75.5 -184.5q0 -109 75.5 -188.5t178.5 -79.5q56 0 113 26
t94 68l229 -188q-170 -195 -438 -195z" />
    <glyph glyph-name="Ccaron" unicode="&#x10c;" horiz-adv-x="1435" 
d="M643 1524l-217 309h207l151 -145l154 145h209l-221 -309h-283zM834 -25q-151 0 -290.5 59t-241.5 157.5t-163 233.5t-61 280t61 279.5t163 232.5t241.5 156.5t290.5 58.5q161 0 306.5 -64.5t252.5 -177.5l-256 -227q-57 70 -136 110.5t-167 40.5q-161 0 -279.5 -121.5
t-118.5 -287.5q0 -167 118.5 -289.5t279.5 -122.5q89 0 168 40t137 111l254 -225q-106 -114 -251.5 -179t-307.5 -65z" />
    <glyph glyph-name="ccaron" unicode="&#x10d;" horiz-adv-x="1126" 
d="M469 1176l-217 309h207l151 -146l154 146h209l-221 -309h-283zM649 -25q-156 0 -291 75.5t-215 203.5t-80 276t80.5 275.5t216.5 202.5t293 75q261 0 428 -188l-229 -190q-36 39 -91.5 64.5t-109.5 25.5q-103 0 -178.5 -78.5t-75.5 -184.5q0 -109 75.5 -188.5
t178.5 -79.5q56 0 113 26t94 68l229 -188q-170 -195 -438 -195z" />
    <glyph glyph-name="Dcaron" unicode="&#x10e;" horiz-adv-x="1556" 
d="M510 1524l-217 309h207l151 -145l154 145h209l-221 -309h-283zM137 0v1407h514q179 0 332 -52t261.5 -144t169.5 -223t61 -283q0 -204 -104.5 -364.5t-293 -250.5t-426.5 -90h-514zM487 317h218q180 0 295.5 109.5t115.5 278.5t-115.5 277t-295.5 108h-218v-773z" />
    <glyph glyph-name="dcaron" unicode="&#x10f;" 
d="M901 924v508h348v-1432h-348v135q-64 -76 -153 -118t-193 -42q-214 0 -349.5 155t-135.5 400q0 243 135.5 398t349.5 155q212 0 346 -159zM1534 1432q72 0 118 -60.5t46 -154.5q0 -159 -178 -320l-88 70q80 70 98 145q-63 0 -107.5 47.5t-44.5 112.5q0 66 46 113t110 47z
M659 264q107 0 174.5 74.5t67.5 191.5q0 116 -67.5 190.5t-174.5 74.5q-112 0 -184 -74.5t-72 -190.5q0 -117 71.5 -191.5t184.5 -74.5z" />
    <glyph glyph-name="Dcroat" unicode="&#x110;" horiz-adv-x="1658" 
d="M754 1407q239 0 426.5 -89t292 -249t104.5 -364t-104.5 -364.5t-292.5 -250.5t-426 -90h-514v551h-158v313h158v543h514zM807 317q180 0 296 109.5t116 278.5t-116 277t-296 108h-217v-226h289l-2 -313h-287v-234h217z" />
    <glyph glyph-name="dcroat" unicode="&#x111;" horiz-adv-x="1423" 
d="M1368 1333v-168h-119v-1165h-348v135q-64 -76 -153 -118t-193 -42q-214 0 -349.5 155t-135.5 400q0 243 135.5 398t349.5 155q212 0 346 -159v241h-299v168h299v99h348v-99h119zM659 264q107 0 174.5 74.5t67.5 191.5q0 116 -67.5 190.5t-174.5 74.5q-112 0 -184 -74.5
t-72 -190.5q0 -117 71.5 -191.5t184.5 -74.5z" />
    <glyph glyph-name="Emacron" unicode="&#x112;" horiz-adv-x="1323" 
d="M1051 1726v-196h-732v196h732zM1239 1094h-758v-220h688v-313h-688v-248h758v-313h-1108v1407h1108v-313z" />
    <glyph glyph-name="emacron" unicode="&#x113;" horiz-adv-x="1212" 
d="M981 1378v-196h-731v196h731zM623 256q62 0 127 24.5t112 65.5l205 -207q-70 -72 -192.5 -118t-241.5 -46q-121 0 -227 41.5t-181.5 114.5t-118.5 177t-43 224q0 241 156.5 396t396.5 155q251 0 392 -173t141 -476h-756q25 -81 86 -129.5t144 -48.5zM623 805
q-78 0 -138 -43t-88 -117h430q-22 74 -75 117t-129 43z" />
    <glyph glyph-name="Edotaccent" unicode="&#x116;" horiz-adv-x="1323" 
d="M686 1534q-68 0 -115 47.5t-47 114.5q0 65 47 112t115 47q65 0 112.5 -47.5t47.5 -111.5q0 -66 -47.5 -114t-112.5 -48zM1239 1094h-758v-220h688v-313h-688v-248h758v-313h-1108v1407h1108v-313z" />
    <glyph glyph-name="edotaccent" unicode="&#x117;" horiz-adv-x="1212" 
d="M616 1186q-68 0 -114.5 47.5t-46.5 114.5q0 65 46.5 112t114.5 47q65 0 112.5 -47.5t47.5 -111.5q0 -66 -47.5 -114t-112.5 -48zM623 256q62 0 127 24.5t112 65.5l205 -207q-70 -72 -192.5 -118t-241.5 -46q-121 0 -227 41.5t-181.5 114.5t-118.5 177t-43 224
q0 241 156.5 396t396.5 155q251 0 392 -173t141 -476h-756q25 -81 86 -129.5t144 -48.5zM623 805q-78 0 -138 -43t-88 -117h430q-22 74 -75 117t-129 43z" />
    <glyph glyph-name="Eogonek" unicode="&#x118;" horiz-adv-x="1323" 
d="M1239 1094h-758v-220h688v-313h-688v-248h758v-313h-121q-38 0 -62 -23t-24 -59t23.5 -55t64.5 -19t70 25l49 -154q-79 -69 -188 -69q-101 0 -164.5 62.5t-63.5 168.5q0 70 35 123h-727v1407h1108v-313z" />
    <glyph glyph-name="eogonek" unicode="&#x119;" horiz-adv-x="1210" 
d="M1067 139q-41 -43 -121 -86q-39 -20 -69 -30q-17 -24 -17 -52q0 -36 23.5 -54.5t64.5 -18.5q43 0 70 24l49 -153q-80 -70 -188 -70q-101 0 -164.5 62.5t-63.5 168.5q0 17 4 45h-22q-121 0 -227 41.5t-181.5 114.5t-118.5 177t-43 224q0 241 156.5 396t396.5 155
q251 0 392 -173t141 -476h-756q25 -81 86 -129.5t144 -48.5q62 0 127 24.5t112 65.5zM623 805q-78 0 -138 -43t-88 -117h430q-22 74 -75 117t-129 43z" />
    <glyph glyph-name="Ecaron" unicode="&#x11a;" horiz-adv-x="1323" 
d="M827 1524h-282l-217 309h207l151 -145l154 145h209zM1239 1094h-758v-220h688v-313h-688v-248h758v-313h-1108v1407h1108v-313z" />
    <glyph glyph-name="ecaron" unicode="&#x11b;" horiz-adv-x="1212" 
d="M758 1176h-283l-217 309h207l151 -146l154 146h209zM623 256q62 0 127 24.5t112 65.5l205 -207q-70 -72 -192.5 -118t-241.5 -46q-121 0 -227 41.5t-181.5 114.5t-118.5 177t-43 224q0 241 156.5 396t396.5 155q251 0 392 -173t141 -476h-756q25 -81 86 -129.5t144 -48.5
zM623 805q-78 0 -138 -43t-88 -117h430q-22 74 -75 117t-129 43z" />
    <glyph glyph-name="Gbreve" unicode="&#x11e;" horiz-adv-x="1519" 
d="M1182 1673q-141 -141 -340 -141q-196 0 -340 141l141 139q88 -88 199 -88q110 0 198 88zM776 543v264h641v-588q-107 -115 -259.5 -179.5t-315.5 -64.5q-204 0 -380.5 99.5t-280 268t-103.5 362.5q0 145 61.5 279.5t164 232.5t244 156.5t294.5 58.5q163 0 315.5 -64
t259.5 -178l-256 -227q-57 70 -142.5 110.5t-176.5 40.5q-164 0 -285 -121.5t-121 -287.5q0 -167 121 -289.5t285 -122.5q125 0 235 74v176h-301z" />
    <glyph glyph-name="gbreve" unicode="&#x11f;" horiz-adv-x="1337" 
d="M1038 1325q-141 -141 -340 -141q-196 0 -340 141l142 139q88 -88 198 -88q111 0 199 88zM870 1059h349v-946q0 -204 -164 -334.5t-422 -130.5q-139 0 -267 39t-212 102l116 242q50 -42 135 -68t175 -26q130 0 210 53.5t80 138.5v100q-63 -72 -151.5 -111.5t-186.5 -39.5
q-198 0 -331 142.5t-133 361.5t133 360t331 141q99 0 192 -42.5t146 -110.5v129zM647 367q98 0 160.5 60.5t62.5 154.5t-62.5 153.5t-160.5 59.5q-97 0 -160 -60t-63 -153q0 -94 63 -154.5t160 -60.5z" />
    <glyph glyph-name="Gcommaaccent" unicode="&#x122;" horiz-adv-x="1519" 
d="M776 543v264h641v-588q-107 -115 -259.5 -179.5t-315.5 -64.5q-204 0 -380.5 99.5t-280 268t-103.5 362.5q0 145 61.5 279.5t164 232.5t244 156.5t294.5 58.5q163 0 315.5 -64t259.5 -178l-256 -227q-57 70 -142.5 110.5t-176.5 40.5q-164 0 -285 -121.5t-121 -287.5
q0 -167 121 -289.5t285 -122.5q125 0 235 74v176h-301zM840 -72q72 0 118 -60.5t46 -154.5q0 -157 -179 -319l-88 69q81 71 99 146q-63 0 -107.5 47.5t-44.5 112.5q0 66 45.5 112.5t110.5 46.5z" />
    <glyph glyph-name="gcommaaccent" unicode="&#x123;" horiz-adv-x="1337" 
d="M653 1188q-72 0 -118 60.5t-46 154.5q0 157 179 319l88 -69q-81 -71 -99 -146q63 0 107.5 -47t44.5 -112q0 -66 -46 -113t-110 -47zM870 1059h349v-946q0 -204 -164 -334.5t-422 -130.5q-139 0 -267 39t-212 102l116 242q50 -42 135 -68t175 -26q130 0 210 53.5t80 138.5
v100q-63 -72 -151.5 -111.5t-186.5 -39.5q-198 0 -331 142.5t-133 361.5t133 360t331 141q99 0 192 -42.5t146 -110.5v129zM647 367q98 0 160.5 60.5t62.5 154.5t-62.5 153.5t-160.5 59.5q-97 0 -160 -60t-63 -153q0 -94 63 -154.5t160 -60.5z" />
    <glyph glyph-name="Imacron" unicode="&#x12a;" horiz-adv-x="622" 
d="M-55 1530v196h731v-196h-731zM137 0v1407h350v-1407h-350z" />
    <glyph glyph-name="imacron" unicode="&#x12b;" horiz-adv-x="589" 
d="M-72 1182v196h731v-196h-731zM121 0v1059h346v-1059h-346z" />
    <glyph glyph-name="Iogonek" unicode="&#x12e;" horiz-adv-x="622" 
d="M510 -131l49 -154q-79 -69 -188 -69q-101 0 -164.5 62.5t-63.5 168.5q0 70 35 123h-41v1407h350v-1407h-49q-38 0 -62 -23t-24 -59t23.5 -55t64.5 -19t70 25z" />
    <glyph glyph-name="iogonek" unicode="&#x12f;" horiz-adv-x="589" 
d="M295 1186q-68 0 -115 47.5t-47 114.5q0 65 47 112t115 47q65 0 112.5 -47.5t47.5 -111.5q0 -66 -47.5 -114t-112.5 -48zM295 0q-38 0 -62 -23t-24 -59t23.5 -55t64.5 -19t70 25l49 -154q-79 -69 -189 -69q-101 0 -164 62.5t-63 168.5q0 125 104 193l17 -7v996h346v-1059
h-172z" />
    <glyph glyph-name="Idotaccent" unicode="&#x130;" horiz-adv-x="622" 
d="M311 1534q-68 0 -114.5 47.5t-46.5 114.5q0 65 46.5 112t114.5 47q65 0 112.5 -47.5t47.5 -111.5q0 -66 -47.5 -114t-112.5 -48zM137 0v1407h350v-1407h-350z" />
    <glyph glyph-name="dotlessi" unicode="&#x131;" horiz-adv-x="589" 
d="M121 0v1059h346v-1059h-346z" />
    <glyph glyph-name="Kcommaaccent" unicode="&#x136;" horiz-adv-x="1458" 
d="M135 0v1407h350v-600l523 600h415l-534 -598l575 -809h-422l-395 557l-162 -174v-383h-350zM737 -606l-88 69q81 71 99 146q-63 0 -107.5 47.5t-44.5 112.5q0 66 45.5 112.5t110.5 46.5q72 0 117.5 -60.5t45.5 -154.5q0 -158 -178 -319z" />
    <glyph glyph-name="kcommaaccent" unicode="&#x137;" horiz-adv-x="1189" 
d="M797 596l393 -596h-393l-230 375l-106 -123v-252h-348v1432h348v-791l334 418h393zM623 -72q72 0 117.5 -60.5t45.5 -154.5q0 -158 -178 -319l-88 69q79 70 98 146q-63 0 -107 47.5t-44 112.5q0 66 45.5 112.5t110.5 46.5z" />
    <glyph glyph-name="Lacute" unicode="&#x139;" horiz-adv-x="1206" 
d="M713 1798l-307 -274h-230l234 327zM475 313h678v-313h-1026v1407h348v-1094z" />
    <glyph glyph-name="lacute" unicode="&#x13a;" horiz-adv-x="589" 
d="M174 1548l234 328l303 -53l-308 -275h-229zM121 0v1432h348v-1432h-348z" />
    <glyph glyph-name="Lcaron" unicode="&#x13d;" horiz-adv-x="1206" 
d="M758 1110q-63 0 -107.5 47.5t-44.5 112.5q0 66 46 113t110 47q72 0 118 -61t46 -155q0 -158 -178 -319l-89 70q81 71 99 145zM475 313h678v-313h-1026v1407h348v-1094z" />
    <glyph glyph-name="lcaron" unicode="&#x13e;" horiz-adv-x="589" 
d="M121 0v1432h348v-1432h-348zM739 897l-88 70q81 71 99 145q-63 0 -107.5 47.5t-44.5 112.5q0 66 46 113t110 47q72 0 118 -60.5t46 -154.5q0 -158 -179 -320z" />
    <glyph glyph-name="Lslash" unicode="&#x141;" horiz-adv-x="1269" 
d="M539 313h678v-313h-1027v459l-145 -72v305l145 72v643h349v-469l227 113v-306l-227 -112v-320z" />
    <glyph glyph-name="lslash" unicode="&#x142;" horiz-adv-x="755" 
d="M711 1022v-303l-162 -80v-639h-348v465l-156 -78v305l156 78v662h348v-490z" />
    <glyph glyph-name="Nacute" unicode="&#x143;" horiz-adv-x="1587" 
d="M565 1524l234 327l303 -53l-307 -274h-230zM137 0v1407h350l613 -832v832h350v-1407h-350l-613 831v-831h-350z" />
    <glyph glyph-name="nacute" unicode="&#x144;" horiz-adv-x="1271" 
d="M967 1450l-308 -274h-229l234 327zM772 1083q170 0 279.5 -114.5t109.5 -294.5v-674h-332v596q0 88 -50.5 143.5t-129.5 55.5t-132.5 -53.5t-53.5 -131.5l-2 6v-616h-346v1059h346v-121q50 68 131 106.5t180 38.5z" />
    <glyph glyph-name="Ncommaaccent" unicode="&#x145;" horiz-adv-x="1587" 
d="M137 0v1407h350l613 -832v832h350v-1407h-350l-613 831v-831h-350zM778 -606l-88 69q79 70 98 146q-63 0 -107 47.5t-44 112.5q0 66 45.5 112.5t110.5 46.5q72 0 117.5 -60.5t45.5 -154.5q0 -158 -178 -319z" />
    <glyph glyph-name="ncommaaccent" unicode="&#x146;" horiz-adv-x="1271" 
d="M772 1083q170 0 279.5 -114.5t109.5 -294.5v-674h-332v596q0 88 -50.5 143.5t-129.5 55.5t-132.5 -53.5t-53.5 -131.5l-2 6v-616h-346v1059h346v-121q50 68 131 106.5t180 38.5zM657 -72q72 0 118 -60.5t46 -154.5q0 -158 -178 -319l-88 69q79 70 98 146q-63 0 -107 47.5
t-44 112.5q0 66 45.5 112.5t109.5 46.5z" />
    <glyph glyph-name="Ncaron" unicode="&#x147;" horiz-adv-x="1587" 
d="M651 1524l-217 309h207l152 -145l153 145h209l-221 -309h-283zM137 0v1407h350l613 -832v832h350v-1407h-350l-613 831v-831h-350z" />
    <glyph glyph-name="ncaron" unicode="&#x148;" horiz-adv-x="1271" 
d="M799 1176h-283l-217 309h207l151 -146l154 146h209zM772 1083q170 0 279.5 -114.5t109.5 -294.5v-674h-332v596q0 88 -50.5 143.5t-129.5 55.5t-132.5 -53.5t-53.5 -131.5l-2 6v-616h-346v1059h346v-121q50 68 131 106.5t180 38.5z" />
    <glyph glyph-name="Omacron" unicode="&#x14c;" horiz-adv-x="1665" 
d="M467 1530v196h731v-196h-731zM834 -25q-151 0 -290.5 59t-241.5 157.5t-163 233.5t-61 280t61 279.5t163 232.5t241.5 156.5t290.5 58.5q152 0 292 -58.5t241.5 -156.5t162.5 -232.5t61 -279.5t-61 -280t-162.5 -233.5t-241.5 -157.5t-292 -59zM834 293q161 0 279 122.5
t118 289.5q0 166 -118 287.5t-279 121.5t-279.5 -121.5t-118.5 -287.5q0 -167 118.5 -289.5t279.5 -122.5z" />
    <glyph glyph-name="omacron" unicode="&#x14d;" horiz-adv-x="1300" 
d="M285 1182v196h731v-196h-731zM651 -25q-157 0 -292.5 75.5t-215.5 203.5t-80 276t80 275.5t215.5 202.5t292.5 75t292.5 -75t215.5 -202.5t80 -275.5t-80 -276t-215.5 -203.5t-292.5 -75.5zM651 264q106 0 183 79.5t77 186.5t-77 186t-183 79t-183 -79t-77 -186
t77 -186.5t183 -79.5z" />
    <glyph glyph-name="Ohungarumlaut" unicode="&#x150;" horiz-adv-x="1665" 
d="M446 1524l234 327l303 -53l-307 -274h-230zM950 1524l234 327l305 -53l-307 -274h-232zM834 -25q-151 0 -290.5 59t-241.5 157.5t-163 233.5t-61 280t61 279.5t163 232.5t241.5 156.5t290.5 58.5q152 0 292 -58.5t241.5 -156.5t162.5 -232.5t61 -279.5t-61 -280
t-162.5 -233.5t-241.5 -157.5t-292 -59zM834 293q161 0 279 122.5t118 289.5q0 166 -118 287.5t-279 121.5t-279.5 -121.5t-118.5 -287.5q0 -167 118.5 -289.5t279.5 -122.5z" />
    <glyph glyph-name="ohungarumlaut" unicode="&#x151;" horiz-adv-x="1300" 
d="M270 1176l234 327l303 -53l-307 -274h-230zM774 1176l234 327l305 -53l-307 -274h-232zM651 -25q-157 0 -292.5 75.5t-215.5 203.5t-80 276t80 275.5t215.5 202.5t292.5 75t292.5 -75t215.5 -202.5t80 -275.5t-80 -276t-215.5 -203.5t-292.5 -75.5zM651 264
q106 0 183 79.5t77 186.5t-77 186t-183 79t-183 -79t-77 -186t77 -186.5t183 -79.5z" />
    <glyph glyph-name="OE" unicode="&#x152;" horiz-adv-x="2136" 
d="M2052 1094h-758v-220h688v-313h-688v-248h758v-313h-1218q-152 0 -291 54.5t-241 147t-163 223t-61 275.5q0 194 103 357t277 256.5t376 93.5h1218v-313zM834 317h110v773h-110q-163 0 -280.5 -113t-117.5 -277t117 -273.5t281 -109.5z" />
    <glyph glyph-name="oe" unicode="&#x153;" horiz-adv-x="2066" 
d="M1479 256q62 0 127 24.5t112 65.5l205 -207q-70 -72 -192.5 -118t-241.5 -46q-125 0 -233.5 44.5t-186.5 123.5q-81 -78 -190 -123t-228 -45q-157 0 -292.5 75.5t-215.5 203.5t-80 276t80 275.5t215.5 202.5t292.5 75q118 0 225.5 -43.5t190.5 -121.5q74 79 178.5 122
t227.5 43q251 0 391.5 -172.5t140.5 -476.5h-756q25 -81 86 -129.5t144 -48.5zM1479 805q-78 0 -138 -43t-88 -117h430q-22 74 -75 117t-129 43zM651 264q106 0 183 79.5t77 186.5t-77 186t-183 79t-183 -79t-77 -186t77 -186.5t183 -79.5z" />
    <glyph glyph-name="Racute" unicode="&#x154;" horiz-adv-x="1409" 
d="M1006 1798l-308 -274h-229l233 327zM1360 0h-397l-310 440h-172v-440h-350v1407h653q233 0 384 -135t151 -348q0 -152 -80.5 -268.5t-218.5 -172.5zM481 1087v-327h271q91 0 148.5 45.5t57.5 118.5t-57.5 118t-148.5 45h-271z" />
    <glyph glyph-name="racute" unicode="&#x155;" horiz-adv-x="847" 
d="M776 1450l-307 -274h-229l233 327zM463 862q53 104 143.5 162.5t204.5 58.5v-288q-161 0 -253.5 -85.5t-92.5 -232.5l-2 4v-481h-346v1059h346v-197z" />
    <glyph glyph-name="Rcommaaccent" unicode="&#x156;" horiz-adv-x="1409" 
d="M1020 483l340 -483h-397l-310 440h-172v-440h-350v1407h653q233 0 384 -135t151 -348q0 -152 -80.5 -268.5t-218.5 -172.5zM481 1087v-327h271q91 0 148.5 45.5t57.5 118.5t-57.5 118t-148.5 45h-271zM702 -72q72 0 118 -60.5t46 -154.5q0 -158 -178 -319l-88 69
q79 70 98 146q-63 0 -107 47.5t-44 112.5q0 66 45.5 112.5t109.5 46.5z" />
    <glyph glyph-name="rcommaaccent" unicode="&#x157;" horiz-adv-x="847" 
d="M463 862q53 104 143.5 162.5t204.5 58.5v-288q-161 0 -253.5 -85.5t-92.5 -232.5l-2 4v-481h-346v1059h346v-197zM406 -72q72 0 117.5 -60.5t45.5 -154.5q0 -158 -178 -319l-88 69q79 70 98 146q-63 0 -107 47.5t-44 112.5q0 66 45.5 112.5t110.5 46.5z" />
    <glyph glyph-name="Rcaron" unicode="&#x158;" horiz-adv-x="1409" 
d="M838 1524h-283l-217 309h207l151 -145l154 145h209zM1360 0h-397l-310 440h-172v-440h-350v1407h653q233 0 384 -135t151 -348q0 -152 -80.5 -268.5t-218.5 -172.5zM481 1087v-327h271q91 0 148.5 45.5t57.5 118.5t-57.5 118t-148.5 45h-271z" />
    <glyph glyph-name="rcaron" unicode="&#x159;" horiz-adv-x="847" 
d="M608 1176h-282l-217 309h206l152 -146l154 146h208zM463 862q53 104 143.5 162.5t204.5 58.5v-288q-161 0 -253.5 -85.5t-92.5 -232.5l-2 4v-481h-346v1059h346v-197z" />
    <glyph glyph-name="Sacute" unicode="&#x15a;" horiz-adv-x="1308" 
d="M408 1524l233 327l303 -53l-307 -274h-229zM680 -25q-188 0 -354 60.5t-293 175.5l196 235q216 -178 463 -178q96 0 147.5 35t51.5 94t-51.5 85.5t-218.5 66.5q-102 23 -171.5 44t-142 56t-115 77.5t-69.5 107t-27 147.5q0 202 148.5 326.5t390.5 124.5q337 0 569 -193
l-178 -250q-197 150 -401 150q-83 0 -129.5 -34.5t-46.5 -88.5q0 -63 56.5 -94t219.5 -66q102 -22 175.5 -44.5t142 -57t110 -77.5t66 -104t24.5 -139q0 -212 -151 -335.5t-412 -123.5z" />
    <glyph glyph-name="sacute" unicode="&#x15b;" horiz-adv-x="1032" 
d="M285 1176l233 327l303 -53l-307 -274h-229zM528 -25q-133 0 -263.5 42.5t-227.5 117.5l139 223q76 -54 172 -87t189 -33q57 0 87.5 17t30.5 48q0 35 -41 54.5t-133 41.5q-52 12 -87 21t-80.5 24.5t-75 32t-61.5 41.5t-50 54t-30.5 69t-12.5 88q0 155 117 254.5t311 99.5
q229 0 430 -135l-127 -227q-73 47 -153.5 75.5t-149.5 28.5q-47 0 -78 -18t-31 -43q0 -33 31.5 -47.5t138.5 -42.5q49 -12 82 -21t78.5 -25.5t76.5 -33.5t64.5 -43.5t53 -57.5t32.5 -74t13 -93q0 -160 -120.5 -255.5t-324.5 -95.5z" />
    <glyph glyph-name="Scedilla" unicode="&#x15e;" horiz-adv-x="1308" 
d="M1243 434q0 -198 -133 -320t-365 -137l-28 -65q67 -1 109 -40t42 -99q0 -83 -63.5 -131t-163.5 -48q-57 0 -110.5 16.5t-88.5 43.5l60 129q57 -47 121 -47q34 0 56.5 15t22.5 42q0 49 -61 49q-35 0 -59 -18l-50 47l48 109q-322 27 -547 231l196 235q216 -178 463 -178
q96 0 147.5 35t51.5 94t-51.5 85.5t-218.5 66.5q-102 23 -171.5 44t-142 56t-115 77.5t-69.5 107t-27 147.5q0 202 148.5 326.5t390.5 124.5q337 0 569 -193l-178 -250q-197 150 -401 150q-83 0 -129.5 -34.5t-46.5 -88.5q0 -63 56.5 -94t219.5 -66q102 -22 175.5 -44.5
t142 -57t110 -77.5t66 -104t24.5 -139z" />
    <glyph glyph-name="scedilla" unicode="&#x15f;" horiz-adv-x="1032" 
d="M973 326q0 -144 -99 -236.5t-270 -109.5l-29 -68q67 -1 109.5 -40t42.5 -99q0 -83 -63.5 -131t-163.5 -48q-57 0 -110.5 16.5t-88.5 43.5l59 129q57 -47 121 -47q34 0 57 15t23 42q0 49 -61 49q-36 0 -60 -18l-49 47l47 109q-112 12 -217 52.5t-184 102.5l139 223
q76 -54 172 -87t189 -33q57 0 87.5 17t30.5 48q0 35 -41 54.5t-133 41.5q-52 12 -87 21t-80.5 24.5t-75 32t-61.5 41.5t-50 54t-30.5 69t-12.5 88q0 155 117 254.5t311 99.5q229 0 430 -135l-127 -227q-73 47 -153.5 75.5t-149.5 28.5q-47 0 -78 -18t-31 -43
q0 -33 31.5 -47.5t138.5 -42.5q49 -12 82 -21t78.5 -25.5t76.5 -33.5t64.5 -43.5t53 -57.5t32.5 -74t13 -93z" />
    <glyph glyph-name="Scaron" unicode="&#x160;" horiz-adv-x="1308" 
d="M494 1524l-218 309h207l152 -145l153 145h209l-221 -309h-282zM680 -25q-188 0 -354 60.5t-293 175.5l196 235q216 -178 463 -178q96 0 147.5 35t51.5 94t-51.5 85.5t-218.5 66.5q-102 23 -171.5 44t-142 56t-115 77.5t-69.5 107t-27 147.5q0 202 148.5 326.5
t390.5 124.5q337 0 569 -193l-178 -250q-197 150 -401 150q-83 0 -129.5 -34.5t-46.5 -88.5q0 -63 56.5 -94t219.5 -66q102 -22 175.5 -44.5t142 -57t110 -77.5t66 -104t24.5 -139q0 -212 -151 -335.5t-412 -123.5z" />
    <glyph glyph-name="scaron" unicode="&#x161;" horiz-adv-x="1032" 
d="M371 1176l-217 309h206l152 -146l154 146h208l-221 -309h-282zM528 -25q-133 0 -263.5 42.5t-227.5 117.5l139 223q76 -54 172 -87t189 -33q57 0 87.5 17t30.5 48q0 35 -41 54.5t-133 41.5q-52 12 -87 21t-80.5 24.5t-75 32t-61.5 41.5t-50 54t-30.5 69t-12.5 88
q0 155 117 254.5t311 99.5q229 0 430 -135l-127 -227q-73 47 -153.5 75.5t-149.5 28.5q-47 0 -78 -18t-31 -43q0 -33 31.5 -47.5t138.5 -42.5q49 -12 82 -21t78.5 -25.5t76.5 -33.5t64.5 -43.5t53 -57.5t32.5 -74t13 -93q0 -160 -120.5 -255.5t-324.5 -95.5z" />
    <glyph glyph-name="uni0162" unicode="&#x162;" horiz-adv-x="1314" 
d="M834 0h-84l-37 -88q67 -1 109 -40t42 -99q0 -83 -63.5 -131t-163.5 -48q-57 0 -110.5 16.5t-88.5 43.5l60 129q57 -47 120 -47q34 0 57 15t23 42q0 49 -61 49q-35 0 -59 -18l-50 47l56 129h-101v1094h-428v313h1205v-313h-426v-1094z" />
    <glyph glyph-name="uni0163" unicode="&#x163;" horiz-adv-x="833" 
d="M588 -88q67 -1 109 -40t42 -99q0 -83 -63.5 -131t-163.5 -48q-57 0 -110.5 16.5t-88.5 43.5l60 129q57 -47 121 -47q34 0 56.5 15t22.5 42q0 49 -61 49q-35 0 -59 -18l-50 47l48 111q-121 23 -194 113t-73 220v467h-139v277h139v291h332v-291h219v-277h-219v-403
q0 -51 27 -83t69 -32q64 0 99 35l69 -223q-64 -61 -159 -86z" />
    <glyph glyph-name="Tcaron" unicode="&#x164;" horiz-adv-x="1314" 
d="M516 1524l-217 309h207l151 -145l154 145h209l-221 -309h-283zM483 0v1094h-428v313h1205v-313h-426v-1094h-351z" />
    <glyph glyph-name="tcaron" unicode="&#x165;" horiz-adv-x="833" 
d="M1020 1432q72 0 118 -60.5t46 -154.5q0 -159 -178 -320l-88 70q80 70 98 145q-63 0 -107.5 47.5t-44.5 112.5q0 66 46 113t110 47zM612 264q64 0 99 35l69 -223q-48 -45 -119.5 -73t-138.5 -28q-149 0 -243.5 95.5t-94.5 244.5v467h-139v277h139v291h332v-291h219v-277
h-219v-403q0 -51 27 -83t69 -32z" />
    <glyph glyph-name="Umacron" unicode="&#x16a;" horiz-adv-x="1552" 
d="M410 1530v196h731v-196h-731zM776 -25q-189 0 -338 81t-232 227.5t-83 332.5v791h350v-774q0 -149 85.5 -244.5t217.5 -95.5q134 0 219.5 95.5t85.5 244.5v774h349v-791q0 -140 -48.5 -259t-134 -203t-207 -131.5t-264.5 -47.5z" />
    <glyph glyph-name="umacron" unicode="&#x16b;" horiz-adv-x="1271" 
d="M997 1378v-196h-731v196h731zM811 1059h346v-1059h-346v121q-50 -68 -131.5 -107t-179.5 -39q-170 0 -279.5 115t-109.5 295v674h331v-596q0 -88 50.5 -143.5t130.5 -55.5q79 0 132.5 53.5t53.5 131.5l2 -7v617z" />
    <glyph glyph-name="Uring" unicode="&#x16e;" horiz-adv-x="1552" 
d="M776 1532q-98 0 -168.5 70t-70.5 170t70.5 170.5t168.5 70.5q100 0 171 -70.5t71 -170.5t-71 -170t-171 -70zM776 1667q43 0 74 31t31 74t-31 73.5t-74 30.5t-73.5 -30.5t-30.5 -73.5t30.5 -74t73.5 -31zM776 -25q-189 0 -338 81t-232 227.5t-83 332.5v791h350v-774
q0 -149 85.5 -244.5t217.5 -95.5q134 0 219.5 95.5t85.5 244.5v774h349v-791q0 -140 -48.5 -259t-134 -203t-207 -131.5t-264.5 -47.5z" />
    <glyph glyph-name="uring" unicode="&#x16f;" horiz-adv-x="1271" 
d="M633 1184q-99 0 -169.5 70t-70.5 169q0 100 71 171t169 71q100 0 170.5 -71t70.5 -171t-70.5 -169.5t-170.5 -69.5zM633 1528q-43 0 -74 -31t-31 -74t31 -73.5t74 -30.5t73.5 30.5t30.5 73.5t-30.5 74t-73.5 31zM811 1059h346v-1059h-346v121q-50 -68 -131.5 -107
t-179.5 -39q-170 0 -279.5 115t-109.5 295v674h331v-596q0 -88 50.5 -143.5t130.5 -55.5q79 0 132.5 53.5t53.5 131.5l2 -7v617z" />
    <glyph glyph-name="Uhungarumlaut" unicode="&#x170;" horiz-adv-x="1552" 
d="M362 1524l234 327l303 -53l-307 -274h-230zM866 1524l234 327l305 -53l-307 -274h-232zM776 -25q-189 0 -338 81t-232 227.5t-83 332.5v791h350v-774q0 -149 85.5 -244.5t217.5 -95.5q134 0 219.5 95.5t85.5 244.5v774h349v-791q0 -140 -48.5 -259t-134 -203t-207 -131.5
t-264.5 -47.5z" />
    <glyph glyph-name="uhungarumlaut" unicode="&#x171;" horiz-adv-x="1271" 
d="M770 1450l-307 -274h-230l234 327zM969 1176h-232l234 327l305 -53zM811 442v617h346v-1059h-346v121q-50 -68 -131.5 -107t-179.5 -39q-170 0 -279.5 115t-109.5 295v674h331v-596q0 -88 50.5 -143.5t130.5 -55.5q79 0 132.5 53.5t53.5 131.5z" />
    <glyph glyph-name="Uogonek" unicode="&#x172;" horiz-adv-x="1552" 
d="M1081 1407h349v-791q0 -274 -172 -451.5t-447 -189.5q-23 -23 -23 -57q0 -36 24 -55t65 -19q40 0 69 25l49 -154q-79 -69 -188 -69q-101 0 -164 62.5t-63 168.5q0 67 30 117q-222 50 -354.5 217.5t-132.5 404.5v791h350v-774q0 -149 85.5 -244.5t217.5 -95.5
q134 0 219.5 95.5t85.5 244.5v774z" />
    <glyph glyph-name="uogonek" unicode="&#x173;" horiz-adv-x="1271" 
d="M1229 -131l49 -154q-79 -69 -188 -69q-101 0 -164.5 62.5t-63.5 168.5q0 70 35 123h-86v121q-50 -68 -131.5 -107t-179.5 -39q-170 0 -279.5 115t-109.5 295v674h331v-596q0 -88 50.5 -143.5t130.5 -55.5q79 0 132.5 53.5t53.5 131.5l2 -7v617h346v-1059q-38 0 -62 -23
t-24 -59t23.5 -55t64.5 -19t70 25z" />
    <glyph glyph-name="Wcircumflex" unicode="&#x174;" horiz-adv-x="2205" 
d="M745 1524l218 309h282l221 -309h-209l-153 145l-152 -145h-207zM438 0l-409 1407h379l215 -879l292 879h377l291 -879l215 879h379l-408 -1407h-352l-313 891l-313 -891h-353z" />
    <glyph glyph-name="wcircumflex" unicode="&#x175;" horiz-adv-x="1728" 
d="M508 1176l217 309h283l221 -309h-209l-154 145l-151 -145h-207zM389 0l-362 1059h335l179 -594l182 594h285l184 -594l178 594h336l-360 -1059h-310l-170 604l-168 -604h-309z" />
    <glyph glyph-name="Ycircumflex" unicode="&#x176;" horiz-adv-x="1435" 
d="M360 1524l218 309h282l221 -309h-209l-153 145l-152 -145h-207zM543 0v485l-545 922h403l318 -594l332 594h389l-545 -922v-485h-352z" />
    <glyph glyph-name="ycircumflex" unicode="&#x177;" horiz-adv-x="1236" 
d="M266 1176l217 309h283l221 -309h-209l-153 145l-152 -145h-207zM391 -369q-72 0 -154.5 21t-142.5 55l72 230q96 -54 145 -54q87 0 115 45l29 60l-435 1071h357l248 -699l233 699h352l-415 -1090q-63 -162 -168 -250t-236 -88z" />
    <glyph glyph-name="Ydieresis" unicode="&#x178;" horiz-adv-x="1435" 
d="M496 1534q-68 0 -115 47.5t-47 114.5q0 65 47 112t115 47q64 0 111.5 -47.5t47.5 -111.5q0 -66 -47 -114t-112 -48zM942 1534q-67 0 -114.5 48t-47.5 114q0 65 47.5 112t114.5 47t113.5 -47t46.5 -112q0 -67 -46.5 -114.5t-113.5 -47.5zM543 0v485l-545 922h403l318 -594
l332 594h389l-545 -922v-485h-352z" />
    <glyph glyph-name="Zacute" unicode="&#x179;" horiz-adv-x="1368" 
d="M467 1524l233 327l304 -53l-308 -274h-229zM90 0v262l703 832h-689v313h1168v-262l-701 -832h711v-313h-1192z" />
    <glyph glyph-name="zacute" unicode="&#x17a;" horiz-adv-x="1101" 
d="M338 1176l233 327l303 -53l-307 -274h-229zM76 0v242l499 526h-485v291h938l-2 -242l-502 -526h508v-291h-956z" />
    <glyph glyph-name="Zdotaccent" unicode="&#x17b;" horiz-adv-x="1368" 
d="M694 1534q-68 0 -115 47.5t-47 114.5q0 65 47 112t115 47q65 0 112.5 -47.5t47.5 -111.5q0 -66 -47.5 -114t-112.5 -48zM90 0v262l703 832h-689v313h1168v-262l-701 -832h711v-313h-1192z" />
    <glyph glyph-name="zdotaccent" unicode="&#x17c;" horiz-adv-x="1101" 
d="M565 1186q-68 0 -115 47.5t-47 114.5q0 65 47 112t115 47q65 0 112.5 -47.5t47.5 -111.5q0 -66 -47.5 -114t-112.5 -48zM76 0v242l499 526h-485v291h938l-2 -242l-502 -526h508v-291h-956z" />
    <glyph glyph-name="Zcaron" unicode="&#x17d;" horiz-adv-x="1368" 
d="M553 1524l-217 309h207l151 -145l154 145h209l-221 -309h-283zM90 0v262l703 832h-689v313h1168v-262l-701 -832h711v-313h-1192z" />
    <glyph glyph-name="zcaron" unicode="&#x17e;" horiz-adv-x="1101" 
d="M424 1176l-217 309h207l151 -146l154 146h209l-221 -309h-283zM76 0v242l499 526h-485v291h938l-2 -242l-502 -526h508v-291h-956z" />
    <glyph glyph-name="uni0237" unicode="&#x237;" horiz-adv-x="589" 
d="M115 -365q-59 0 -123 13t-105 33l35 253q49 -18 105 -18q41 0 67.5 32t26.5 83v1028h346v-1067q0 -157 -98.5 -257t-253.5 -100z" />
    <glyph glyph-name="circumflex" unicode="&#x2c6;" horiz-adv-x="978" 
d="M129 1176l217 309h283l221 -309h-209l-154 145l-151 -145h-207z" />
    <glyph glyph-name="caron" unicode="&#x2c7;" horiz-adv-x="978" 
d="M346 1176l-217 309h207l151 -146l154 146h209l-221 -309h-283z" />
    <glyph glyph-name="breve" unicode="&#x2d8;" horiz-adv-x="937" 
d="M469 1184q-196 0 -340 141l141 139q88 -88 199 -88t199 88l141 -139q-141 -141 -340 -141z" />
    <glyph glyph-name="dotaccent" unicode="&#x2d9;" horiz-adv-x="579" 
d="M291 1186q-68 0 -115 47.5t-47 114.5q0 65 47 112t115 47q65 0 112.5 -47.5t47.5 -111.5q0 -66 -47.5 -114t-112.5 -48z" />
    <glyph glyph-name="ring" unicode="&#x2da;" horiz-adv-x="739" 
d="M369 1184q-99 0 -169.5 70t-70.5 169q0 100 71 171t169 71q100 0 170.5 -71t70.5 -171t-70.5 -169.5t-170.5 -69.5zM369 1319q43 0 73.5 30.5t30.5 73.5t-30.5 74t-73.5 31t-74 -31t-31 -74t31 -73.5t74 -30.5z" />
    <glyph glyph-name="ogonek" unicode="&#x2db;" horiz-adv-x="673" 
d="M356 -354q-101 0 -164 62.5t-63 168.5q0 125 104 193l191 -70q-38 0 -62 -23t-24 -59t23.5 -55t64.5 -19t70 25l49 -154q-79 -69 -189 -69z" />
    <glyph glyph-name="tilde" unicode="&#x2dc;" horiz-adv-x="903" 
d="M592 1171q-49 0 -103.5 23.5t-98.5 47.5t-68 24q-61 0 -82 -97l-166 23q17 142 74.5 211.5t162.5 69.5q38 0 81.5 -15t74.5 -32.5t63.5 -32.5t51.5 -15q64 0 82 97l165 -25q-15 -141 -73 -210t-164 -69z" />
    <glyph glyph-name="hungarumlaut" unicode="&#x2dd;" horiz-adv-x="1300" 
d="M129 1176l233 327l304 -53l-308 -274h-229zM633 1176l233 327l305 -53l-307 -274h-231z" />
    <glyph glyph-name="uni0326" unicode="&#x326;" horiz-adv-x="0" 
d="M-326 -606l-88 69q81 71 99 146q-63 0 -107.5 47.5t-44.5 112.5q0 66 45.5 112.5t110.5 46.5q72 0 118 -60.5t46 -154.5q0 -157 -179 -319z" />
    <glyph glyph-name="Wgrave" unicode="&#x1e80;" horiz-adv-x="2205" 
d="M991 1524l-307 274l305 53l232 -327h-230zM438 0l-409 1407h379l215 -879l292 879h377l291 -879l215 879h379l-408 -1407h-352l-313 891l-313 -891h-353z" />
    <glyph glyph-name="wgrave" unicode="&#x1e81;" horiz-adv-x="1728" 
d="M754 1176l-308 274l306 53l231 -327h-229zM389 0l-362 1059h335l179 -594l182 594h285l184 -594l178 594h336l-360 -1059h-310l-170 604l-168 -604h-309z" />
    <glyph glyph-name="Wacute" unicode="&#x1e82;" horiz-adv-x="2205" 
d="M983 1524l234 327l303 -53l-308 -274h-229zM438 0l-409 1407h379l215 -879l292 879h377l291 -879l215 879h379l-408 -1407h-352l-313 891l-313 -891h-353z" />
    <glyph glyph-name="wacute" unicode="&#x1e83;" horiz-adv-x="1728" 
d="M750 1176l233 327l303 -53l-307 -274h-229zM389 0l-362 1059h335l179 -594l182 594h285l184 -594l178 594h336l-360 -1059h-310l-170 604l-168 -604h-309z" />
    <glyph glyph-name="Wdieresis" unicode="&#x1e84;" horiz-adv-x="2205" 
d="M881 1534q-68 0 -115 47.5t-47 114.5q0 65 47 112t115 47q65 0 112 -47.5t47 -111.5q0 -66 -47 -114t-112 -48zM1327 1534q-67 0 -114.5 48t-47.5 114q0 65 47.5 112t114.5 47t113.5 -47t46.5 -112q0 -67 -46.5 -114.5t-113.5 -47.5zM438 0l-409 1407h379l215 -879
l292 879h377l291 -879l215 879h379l-408 -1407h-352l-313 891l-313 -891h-353z" />
    <glyph glyph-name="wdieresis" unicode="&#x1e85;" horiz-adv-x="1728" 
d="M643 1186q-68 0 -115 47.5t-47 114.5q0 65 47 112t115 47q65 0 112.5 -47.5t47.5 -111.5q0 -66 -47.5 -114t-112.5 -48zM1090 1186q-67 0 -114.5 48t-47.5 114q0 65 47.5 112t114.5 47t113 -47t46 -112q0 -67 -46 -114.5t-113 -47.5zM389 0l-362 1059h335l179 -594
l182 594h285l184 -594l178 594h336l-360 -1059h-310l-170 604l-168 -604h-309z" />
    <glyph glyph-name="uni1EB8" unicode="&#x1eb8;" horiz-adv-x="1323" 
d="M1239 1094h-758v-220h688v-313h-688v-248h758v-313h-1108v1407h1108v-313zM688 -137q64 0 112 -47.5t48 -112.5q0 -66 -47.5 -114t-112.5 -48q-68 0 -115 47.5t-47 114.5q0 65 47 112.5t115 47.5z" />
    <glyph glyph-name="uni1EB9" unicode="&#x1eb9;" horiz-adv-x="1210" 
d="M623 256q62 0 127 24.5t112 65.5l205 -207q-70 -72 -192.5 -118t-241.5 -46q-121 0 -227 41.5t-181.5 114.5t-118.5 177t-43 224q0 241 156.5 396t396.5 155q251 0 392 -173t141 -476h-756q25 -81 86 -129.5t144 -48.5zM623 805q-78 0 -138 -43t-88 -117h430
q-22 74 -75 117t-129 43zM610 -139q64 0 112 -47.5t48 -112.5q0 -66 -47.5 -114t-112.5 -48q-68 0 -114.5 47.5t-46.5 114.5q0 65 46.5 112.5t114.5 47.5z" />
    <glyph glyph-name="uni1EBC" unicode="&#x1ebc;" horiz-adv-x="1323" 
d="M555 1614q-62 0 -82 -96l-166 22q17 142 75 211.5t163 69.5q49 0 103.5 -23.5t99 -47.5t67.5 -24q64 0 82 97l166 -25q-15 -140 -73 -209t-165 -69q-49 0 -103.5 23.5t-98.5 47t-68 23.5zM1239 1094h-758v-220h688v-313h-688v-248h758v-313h-1108v1407h1108v-313z" />
    <glyph glyph-name="uni1EBD" unicode="&#x1ebd;" horiz-adv-x="1212" 
d="M485 1266q-61 0 -82 -97l-165 23q17 142 74.5 211.5t162.5 69.5q49 0 103.5 -23.5t99 -47.5t67.5 -24q64 0 82 97l166 -25q-15 -141 -73 -210t-164 -69q-39 0 -82 15t-74 32.5t-63 32.5t-52 15zM623 256q62 0 127 24.5t112 65.5l205 -207q-70 -72 -192.5 -118t-241.5 -46
q-121 0 -227 41.5t-181.5 114.5t-118.5 177t-43 224q0 241 156.5 396t396.5 155q251 0 392 -173t141 -476h-756q25 -81 86 -129.5t144 -48.5zM623 805q-78 0 -138 -43t-88 -117h430q-22 74 -75 117t-129 43z" />
    <glyph glyph-name="Ygrave" unicode="&#x1ef2;" horiz-adv-x="1435" 
d="M696 1524l-307 274l305 53l232 -327h-230zM543 0v485l-545 922h403l318 -594l332 594h389l-545 -922v-485h-352z" />
    <glyph glyph-name="ygrave" unicode="&#x1ef3;" horiz-adv-x="1236" 
d="M602 1176l-307 274l305 53l231 -327h-229zM391 -369q-72 0 -154.5 21t-142.5 55l72 230q96 -54 145 -54q87 0 115 45l29 60l-435 1071h357l248 -699l233 699h352l-415 -1090q-63 -162 -168 -250t-236 -88z" />
    <glyph glyph-name="endash" unicode="&#x2013;" horiz-adv-x="1165" 
d="M86 424v285h993v-285h-993z" />
    <glyph glyph-name="emdash" unicode="&#x2014;" horiz-adv-x="1789" 
d="M86 424v285h1618v-285h-1618z" />
    <glyph glyph-name="quoteleft" unicode="&#x2018;" horiz-adv-x="618" 
d="M328 1430l118 -91q-103 -89 -131 -194q83 0 143 -62t60 -147q0 -88 -61 -150.5t-146 -62.5q-96 0 -157.5 80t-61.5 205q0 102 60.5 210t175.5 212z" />
    <glyph glyph-name="quoteright" unicode="&#x2019;" horiz-adv-x="618" 
d="M291 725l-119 90q103 89 131 195q-83 0 -143 62t-60 147q0 88 61 150.5t146 62.5q96 0 157.5 -80t61.5 -205q0 -102 -60 -210t-175 -212z" />
    <glyph glyph-name="quotedblleft" unicode="&#x201c;" horiz-adv-x="1191" 
d="M328 1430l118 -91q-103 -89 -131 -194q83 0 143 -62t60 -147q0 -88 -61 -150.5t-146 -62.5q-96 0 -157.5 80t-61.5 205q0 102 60.5 210t175.5 212zM901 1430l119 -91q-103 -89 -131 -194q83 0 143 -62t60 -147q0 -88 -61 -150.5t-146 -62.5q-96 0 -157.5 80t-61.5 205
q0 102 60 210t175 212z" />
    <glyph glyph-name="quotedblright" unicode="&#x201d;" horiz-adv-x="1191" 
d="M291 725l-119 90q103 89 131 195q-83 0 -143 62t-60 147q0 88 61 150.5t146 62.5q96 0 157.5 -80t61.5 -205q0 -102 -60 -210t-175 -212zM864 725l-119 90q104 90 132 195q-83 0 -143 62t-60 147q0 88 61 150.5t146 62.5q96 0 157.5 -80t61.5 -205q0 -102 -60.5 -210
t-175.5 -212z" />
    <glyph glyph-name="ellipsis" unicode="&#x2026;" horiz-adv-x="1767" 
d="M315 -25q-92 0 -154.5 62.5t-62.5 152.5q0 84 63 145.5t154 61.5q84 0 145.5 -61.5t61.5 -145.5q0 -89 -61 -152t-146 -63zM889 -25q-92 0 -154.5 62.5t-62.5 152.5q0 84 63 145.5t154 61.5q84 0 145.5 -61.5t61.5 -145.5q0 -89 -61 -152t-146 -63zM1462 -25
q-92 0 -154.5 62.5t-62.5 152.5q0 84 63 145.5t154 61.5q84 0 145.5 -61.5t61.5 -145.5q0 -89 -61 -152t-146 -63z" />
    <glyph glyph-name="perthousand" unicode="&#x2030;" horiz-adv-x="2533" 
d="M428 696q-158 0 -258 103.5t-100 259.5q0 154 100 258t258 104q161 0 260.5 -104.5t99.5 -257.5q0 -156 -100.5 -259.5t-259.5 -103.5zM258 0l985 1407h242l-983 -1407h-244zM428 895q60 0 97.5 44.5t37.5 119.5q0 74 -38 119t-97 45q-58 0 -95.5 -44.5t-37.5 -119.5
q0 -73 38 -118.5t95 -45.5zM1313 -23q-160 0 -260.5 104.5t-100.5 258.5q0 156 101 260.5t260 104.5t258.5 -105.5t99.5 -259.5t-101 -258.5t-257 -104.5zM2103 -23q-158 0 -258 104.5t-100 258.5q0 156 100.5 260.5t259.5 104.5t259 -105.5t100 -259.5t-101.5 -258.5
t-259.5 -104.5zM1313 176q60 0 97.5 44.5t37.5 119.5q0 74 -38.5 119t-96.5 45q-61 0 -98 -43.5t-37 -120.5q0 -74 38 -119t97 -45zM2105 176q58 0 95.5 44.5t37.5 119.5q0 74 -38.5 119t-96.5 45q-60 0 -96.5 -43.5t-36.5 -120.5q0 -74 38 -119t97 -45z" />
    <glyph glyph-name="Euro" unicode="&#x20ac;" horiz-adv-x="1435" 
d="M834 293q89 0 168 40t137 111l254 -225q-106 -114 -251.5 -179t-307.5 -65q-250 0 -452 149t-273 378h-138v153h109q-2 16 -2 50q0 23 4 69h-111v154h144q76 220 275.5 362t443.5 142q161 0 306.5 -64.5t252.5 -177.5l-256 -227q-57 70 -136 110.5t-167 40.5
q-99 0 -187 -50.5t-143 -135.5h434v-154h-496q-6 -35 -6 -69t2 -50h500v-153h-449q54 -94 146 -151.5t199 -57.5z" />
    <glyph glyph-name="minus" unicode="&#x2212;" horiz-adv-x="1241" 
d="M117 547v274h1005v-274h-1005z" />
    <glyph glyph-name="a.alt" 
d="M901 1059h346v-1059h-346v135q-64 -76 -153 -118t-193 -42q-214 0 -349.5 155t-135.5 400q0 243 135.5 398t349.5 155q212 0 346 -159v135zM659 264q107 0 174.5 74.5t67.5 191.5q0 116 -67.5 190.5t-174.5 74.5q-112 0 -184 -74.5t-72 -190.5q0 -117 71.5 -191.5
t184.5 -74.5z" />
    <glyph glyph-name="aacute.alt" 
d="M1008 1450l-308 -274h-229l234 327zM901 1059h346v-1059h-346v135q-64 -76 -153 -118t-193 -42q-214 0 -349.5 155t-135.5 400q0 243 135.5 398t349.5 155q212 0 346 -159v135zM659 264q107 0 174.5 74.5t67.5 191.5q0 116 -67.5 190.5t-174.5 74.5q-112 0 -184 -74.5
t-72 -190.5q0 -117 71.5 -191.5t184.5 -74.5z" />
    <glyph glyph-name="abreve.alt" 
d="M1038 1325q-141 -141 -340 -141q-196 0 -340 141l142 139q88 -88 198 -88q111 0 199 88zM901 1059h346v-1059h-346v135q-64 -76 -153 -118t-193 -42q-214 0 -349.5 155t-135.5 400q0 243 135.5 398t349.5 155q212 0 346 -159v135zM659 264q107 0 174.5 74.5t67.5 191.5
q0 116 -67.5 190.5t-174.5 74.5q-112 0 -184 -74.5t-72 -190.5q0 -117 71.5 -191.5t184.5 -74.5z" />
    <glyph glyph-name="acircumflex.alt" 
d="M698 1321l-151 -145h-207l217 309h283l221 -309h-209zM901 1059h346v-1059h-346v135q-64 -76 -153 -118t-193 -42q-214 0 -349.5 155t-135.5 400q0 243 135.5 398t349.5 155q212 0 346 -159v135zM659 264q107 0 174.5 74.5t67.5 191.5q0 116 -67.5 190.5t-174.5 74.5
q-112 0 -184 -74.5t-72 -190.5q0 -117 71.5 -191.5t184.5 -74.5z" />
    <glyph glyph-name="adieresis.alt" 
d="M475 1186q-68 0 -115 47.5t-47 114.5q0 65 47 112t115 47q65 0 112.5 -47.5t47.5 -111.5q0 -66 -47.5 -114t-112.5 -48zM922 1186q-67 0 -114.5 48t-47.5 114q0 65 47.5 112t114.5 47t113 -47t46 -112q0 -67 -46 -114.5t-113 -47.5zM901 1059h346v-1059h-346v135
q-64 -76 -153 -118t-193 -42q-214 0 -349.5 155t-135.5 400q0 243 135.5 398t349.5 155q212 0 346 -159v135zM659 264q107 0 174.5 74.5t67.5 191.5q0 116 -67.5 190.5t-174.5 74.5q-112 0 -184 -74.5t-72 -190.5q0 -117 71.5 -191.5t184.5 -74.5z" />
    <glyph glyph-name="agrave.alt" 
d="M905 1176h-229l-307 274l305 53zM901 1059h346v-1059h-346v135q-64 -76 -153 -118t-193 -42q-214 0 -349.5 155t-135.5 400q0 243 135.5 398t349.5 155q212 0 346 -159v135zM659 264q107 0 174.5 74.5t67.5 191.5q0 116 -67.5 190.5t-174.5 74.5q-112 0 -184 -74.5
t-72 -190.5q0 -117 71.5 -191.5t184.5 -74.5z" />
    <glyph glyph-name="amacron.alt" 
d="M1063 1378v-196h-731v196h731zM901 1059h346v-1059h-346v135q-64 -76 -153 -118t-193 -42q-214 0 -349.5 155t-135.5 400q0 243 135.5 398t349.5 155q212 0 346 -159v135zM659 264q107 0 174.5 74.5t67.5 191.5q0 116 -67.5 190.5t-174.5 74.5q-112 0 -184 -74.5
t-72 -190.5q0 -117 71.5 -191.5t184.5 -74.5z" />
    <glyph glyph-name="aogonek.alt" 
d="M1319 -131l49 -154q-79 -69 -188 -69q-101 0 -164.5 62.5t-63.5 168.5q0 70 35 123h-86v135q-64 -76 -153 -118t-193 -42q-214 0 -349.5 155t-135.5 400q0 243 135.5 398t349.5 155q212 0 346 -159v135h346v-1059q-38 0 -62 -23t-24 -59t23.5 -55t64.5 -19t70 25z
M659 264q107 0 174.5 74.5t67.5 191.5q0 116 -67.5 190.5t-174.5 74.5q-112 0 -184 -74.5t-72 -190.5q0 -117 71.5 -191.5t184.5 -74.5z" />
    <glyph glyph-name="aring.alt" 
d="M698 1184q-99 0 -169 70t-70 169q0 100 70.5 171t168.5 71q100 0 171 -71t71 -171q0 -99 -71 -169t-171 -70zM698 1528q-43 0 -73.5 -31t-30.5 -74t30.5 -73.5t73.5 -30.5t74 30.5t31 73.5t-31 74t-74 31zM901 1059h346v-1059h-346v135q-64 -76 -153 -118t-193 -42
q-214 0 -349.5 155t-135.5 400q0 243 135.5 398t349.5 155q212 0 346 -159v135zM659 264q107 0 174.5 74.5t67.5 191.5q0 116 -67.5 190.5t-174.5 74.5q-112 0 -184 -74.5t-72 -190.5q0 -117 71.5 -191.5t184.5 -74.5z" />
    <glyph glyph-name="atilde.alt" 
d="M567 1266q-61 0 -82 -97l-166 23q17 142 75 211.5t163 69.5q49 0 103.5 -23.5t99 -47.5t67.5 -24q64 0 82 97l166 -25q-15 -141 -73 -210t-164 -69q-39 0 -82 15t-74 32.5t-63 32.5t-52 15zM901 1059h346v-1059h-346v135q-64 -76 -153 -118t-193 -42q-214 0 -349.5 155
t-135.5 400q0 243 135.5 398t349.5 155q212 0 346 -159v135zM659 264q107 0 174.5 74.5t67.5 191.5q0 116 -67.5 190.5t-174.5 74.5q-112 0 -184 -74.5t-72 -190.5q0 -117 71.5 -191.5t184.5 -74.5z" />
    <glyph glyph-name="ascender" 
d="M117 0v1432h348v-1432h-348z" />
    <glyph glyph-name="descender" 
d="M117 -352v1411h348v-1411h-348z" />
    </font>
</defs>
</svg>
