<?xml version="1.0" standalone="no"?>
<!DOCTYPE svg PUBLIC "-//W3C//DTD SVG 1.1//EN" "http://www.w3.org/Graphics/SVG/1.1/DTD/svg11.dtd" >
<svg xmlns="http://www.w3.org/2000/svg" xmlns:xlink="http://www.w3.org/1999/xlink" version="1.1">
<metadata>
Created by FontForge 20170731 at Wed Jan  5 16:17:03 2022
 By Aleksey,,,
Copyright (c) 2016 by Chris Simpson.
</metadata>
<defs>
<font id="Metropolis-Light" horiz-adv-x="1185" >
  <font-face 
    font-family="Metropolis Light"
    font-weight="400"
    font-stretch="normal"
    units-per-em="2048"
    panose-1="0 0 5 0 0 0 0 0 0 0"
    ascent="1628"
    descent="-420"
    x-height="1059"
    cap-height="1407"
    bbox="-348 -559 2277 1976"
    underline-thickness="40"
    underline-position="-312"
    unicode-range="U+0020-2212"
  />
<missing-glyph horiz-adv-x="1024" 
d="M840 1628v-2048h-650v2048h650zM682 1491h-338v-68h133v-75h-135v-68h340v68h-135v75h135v68zM547 1227h-205v-213h340v69h-135v144zM477 1157v-74h-67v74h67zM682 958h-340v-67h135v-76h-135v-67h205v143h135v67zM682 836h-68v-136h-272v-69h340v205zM682 586h-205v-115
h70v47h67v-96h-204v164h-68v-232h340v232zM682 231h-340v-231h340v231zM614 164v-96h-204v96h204zM682 -47h-340v-68h143l-143 -96v-68h340v68h-209l143 96h66v68z" />
    <glyph glyph-name=".notdef" horiz-adv-x="1024" 
d="M840 1628v-2048h-650v2048h650zM682 1491h-338v-68h133v-75h-135v-68h340v68h-135v75h135v68zM547 1227h-205v-213h340v69h-135v144zM477 1157v-74h-67v74h67zM682 958h-340v-67h135v-76h-135v-67h205v143h135v67zM682 836h-68v-136h-272v-69h340v205zM682 586h-205v-115
h70v47h67v-96h-204v164h-68v-232h340v232zM682 231h-340v-231h340v231zM614 164v-96h-204v96h204zM682 -47h-340v-68h143l-143 -96v-68h340v68h-209l143 96h66v68z" />
    <glyph glyph-name=".null" horiz-adv-x="0" 
 />
    <glyph glyph-name="nonmarkingreturn" horiz-adv-x="682" 
 />
    <glyph glyph-name="space" unicode=" " horiz-adv-x="593" 
 />
    <glyph glyph-name="exclam" unicode="!" horiz-adv-x="526" 
d="M217 395l-24 1012h149l-27 -1012h-98zM266 -25q-41 0 -68.5 28.5t-27.5 68.5q0 37 27.5 64.5t68.5 27.5q38 0 65 -27.5t27 -64.5q0 -40 -27 -68.5t-65 -28.5z" />
    <glyph glyph-name="quotedbl" unicode="&#x22;" horiz-adv-x="827" 
d="M188 897q-4 35 -16.5 124.5t-19.5 154t-7 104.5q0 34 25 58t59 24t58 -24t24 -58q0 -40 -7 -104.5t-19.5 -154t-16.5 -124.5h-80zM557 897q-4 35 -16.5 124.5t-19.5 154t-7 104.5q0 34 25 58t59 24t58 -24t24 -58q0 -40 -7 -104.5t-19.5 -154t-16.5 -124.5h-80z" />
    <glyph glyph-name="numbersign" unicode="#" horiz-adv-x="1376" 
d="M1268 922h-252l-111 -439h252l-27 -108h-251l-95 -375h-114l94 375h-328l-94 -375h-115l95 375h-242l26 108h242l111 439h-244l27 108h245l95 377h114l-94 -377h328l94 377h115l-95 -377h250zM791 483l110 439h-328l-110 -439h328z" />
    <glyph glyph-name="dollar" unicode="$" horiz-adv-x="1249" 
d="M1139 377q0 -167 -120.5 -278.5t-332.5 -121.5v-129h-131v136q-267 26 -461 217l82 102q165 -165 379 -197v558q-208 54 -306.5 137t-98.5 231q0 159 113 270t292 130v122h131v-124q227 -22 420 -197l-82 -103q-153 150 -338 177v-533q111 -27 191 -59.5t141 -79t91 -111
t30 -147.5zM283 1042q0 -85 65.5 -138.5t206.5 -94.5v500q-120 -13 -196 -89t-76 -178zM686 98q148 9 234 85t86 182q0 100 -76.5 161t-243.5 105v-533z" />
    <glyph glyph-name="percent" unicode="%" horiz-adv-x="1611" 
d="M412 715q-138 0 -227 100t-89 248q0 154 90 255t228 101q139 0 228 -100.5t89 -251.5q0 -152 -89.5 -252t-229.5 -100zM264 0l963 1407h123l-963 -1407h-123zM414 813q90 0 148.5 71.5t58.5 180.5q0 110 -59 183t-150 73q-89 0 -147 -72t-58 -184q0 -108 59 -180t148 -72
zM1194 -20q-136 0 -225.5 100t-89.5 252q0 150 89 251t228 101t228 -101t89 -249q0 -153 -90 -253.5t-229 -100.5zM1196 78q92 0 149.5 71.5t57.5 182.5q0 109 -59.5 181.5t-149.5 72.5t-147.5 -72t-57.5 -180q0 -111 58.5 -183.5t148.5 -72.5z" />
    <glyph glyph-name="ampersand" unicode="&#x26;" horiz-adv-x="1355" 
d="M1270 43l-123 -57l-195 196q-188 -207 -424 -207q-189 0 -316.5 111.5t-127.5 288.5q0 264 332 407q-68 92 -98.5 165t-30.5 147q0 138 99 233.5t247 95.5q136 0 232 -96t96 -229q0 -54 -18 -100t-47 -80t-77 -66.5t-95.5 -56.5t-115.5 -52q101 -118 342 -374
q93 136 174 327l111 -49q-97 -214 -203 -364q152 -152 238 -240zM631 1307q-92 0 -154.5 -59.5t-62.5 -153.5q0 -109 123 -265q161 65 229 121.5t68 145.5q0 87 -58.5 149t-144.5 62zM530 92q184 0 340 176q-259 271 -385 426q-274 -125 -274 -317q0 -125 93.5 -205
t225.5 -80z" />
    <glyph glyph-name="quotesingle" unicode="'" horiz-adv-x="456" 
d="M188 897q-4 35 -16.5 124.5t-19.5 154t-7 104.5q0 34 25 58t59 24t58 -24t24 -58q0 -40 -7 -104.5t-19.5 -154t-16.5 -124.5h-80z" />
    <glyph glyph-name="parenleft" unicode="(" horiz-adv-x="712" 
d="M547 -348q-202 181 -311 410.5t-109 480.5t109 480.5t311 410.5l71 -76q-358 -364 -358 -815q0 -452 358 -813z" />
    <glyph glyph-name="parenright" unicode=")" horiz-adv-x="712" 
d="M166 -348l-72 78q359 362 359 813q0 450 -359 815l72 76q202 -181 311 -410.5t109 -480.5t-109 -480.5t-311 -410.5z" />
    <glyph glyph-name="asterisk" unicode="*" horiz-adv-x="802" 
d="M401 788q-20 0 -33.5 12.5t-13.5 30.5q0 46 14.5 138t16.5 106q-15 -11 -86 -68t-111 -79q-14 -9 -32 -3t-27 21q-10 18 -6 35.5t18 26.5q40 23 124 55t104 41q-24 10 -106 42.5t-122 53.5q-14 9 -18 26.5t6 35.5q9 15 27 21t32 -3q40 -23 110.5 -79t86.5 -68
q-2 15 -16.5 106t-14.5 137q0 18 13.5 30.5t33.5 12.5q19 0 32 -13t13 -30q0 -45 -13 -131.5t-15 -111.5q24 18 62 50t70 56.5t62 40.5q15 9 34 3t28 -21q8 -18 3.5 -35.5t-18.5 -26.5q-38 -23 -120.5 -54.5t-104.5 -41.5q25 -11 105.5 -43t119.5 -53q14 -9 18.5 -26.5
t-3.5 -35.5q-9 -15 -28 -21t-34 3q-29 17 -61 41.5t-70.5 56t-62.5 49.5q2 -25 15 -112t13 -132q0 -17 -13 -30t-32 -13z" />
    <glyph glyph-name="plus" unicode="+" horiz-adv-x="1214" 
d="M1077 748v-127h-405v-406h-127v406h-408v127h408v407h127v-407h405z" />
    <glyph glyph-name="comma" unicode="," horiz-adv-x="524" 
d="M229 -266l-67 51q80 92 106 190q-39 0 -66.5 28.5t-27.5 68.5q0 38 27 65t69 27q47 0 76 -38.5t29 -98.5t-32.5 -125.5t-113.5 -167.5z" />
    <glyph glyph-name="hyphen" unicode="-" horiz-adv-x="759" 
d="M115 494v124h530v-124h-530z" />
    <glyph glyph-name="period" unicode="." horiz-adv-x="485" 
d="M246 -25q-41 0 -68.5 28.5t-27.5 68.5q0 37 27.5 64.5t68.5 27.5q38 0 65 -27.5t27 -64.5q0 -40 -27 -68.5t-65 -28.5z" />
    <glyph glyph-name="slash" unicode="/" horiz-adv-x="819" 
d="M-33 -152l719 1674h143l-718 -1674h-144z" />
    <glyph glyph-name="zero" unicode="0" horiz-adv-x="1382" 
d="M692 -25q-124 0 -230.5 54t-181.5 150t-117 232t-42 294q0 211 72 376.5t202.5 258t296.5 92.5q165 0 295 -92.5t202.5 -258.5t72.5 -376q0 -211 -72.5 -378t-202.5 -259.5t-295 -92.5zM692 98q126 0 226 77.5t155 216t55 313.5q0 266 -122 435t-314 169
q-193 0 -315.5 -169t-122.5 -435t122.5 -436.5t315.5 -170.5z" />
    <glyph glyph-name="one" unicode="1" horiz-adv-x="708" 
d="M383 0v1245l-270 -174l-60 100l355 236h106v-1407h-131z" />
    <glyph glyph-name="two" unicode="2" horiz-adv-x="1200" 
d="M100 0v115l525 448q148 127 216 237t68 216q0 128 -90 212.5t-219 84.5q-228 0 -393 -228l-94 76q191 271 489 271q187 0 313.5 -117.5t126.5 -296.5q0 -137 -77 -263.5t-250 -275.5l-410 -354h760v-125h-965z" />
    <glyph glyph-name="three" unicode="3" horiz-adv-x="1175" 
d="M584 -25q-158 0 -285 66.5t-217 185.5l92 86q74 -104 178 -160.5t232 -56.5q149 0 245.5 83.5t96.5 209.5t-100 194t-277 68h-141v123l143 -2q157 0 250.5 69t93.5 193q0 117 -94.5 197t-231.5 80q-111 0 -202 -54.5t-174 -160.5l-89 82q190 254 474 254
q193 0 321.5 -109t128.5 -274q0 -125 -71.5 -209.5t-186.5 -118.5q124 -29 206.5 -116t82.5 -224q0 -173 -134.5 -289.5t-340.5 -116.5z" />
    <glyph glyph-name="four" unicode="4" horiz-adv-x="1255" 
d="M805 0v354h-705l-18 115l696 938h158v-932h219v-121h-219v-354h-131zM233 475h572v774z" />
    <glyph glyph-name="five" unicode="5" horiz-adv-x="1212" 
d="M612 -25q-152 0 -279 59.5t-218 164.5l86 96q180 -199 415 -199q147 0 247 97.5t100 238.5q0 138 -99.5 229t-249.5 91q-162 0 -315 -113l-102 49l18 719h813v-125h-684l-14 -512q137 100 313 100q123 0 226 -52.5t165 -152.5t62 -227q0 -201 -138.5 -332t-345.5 -131z
" />
    <glyph glyph-name="six" unicode="6" horiz-adv-x="1247" 
d="M666 879q191 0 324.5 -123t133.5 -316q0 -195 -138 -330t-343 -135q-131 0 -231 52t-163 146.5t-94.5 223t-31.5 285.5q0 210 72.5 382t200 270t282.5 98q224 0 399 -168l-73 -103q-153 150 -330 150q-117 0 -213.5 -82.5t-151.5 -227t-55 -319.5v-41q54 108 165.5 173
t246.5 65zM641 92q151 0 250.5 102.5t99.5 237.5q0 145 -101 237.5t-249 92.5q-138 0 -240 -79.5t-129 -203.5q33 -180 127 -283.5t242 -103.5z" />
    <glyph glyph-name="seven" unicode="7" horiz-adv-x="1222" 
d="M301 0l608 1282h-788v125h946v-100l-616 -1307h-150z" />
    <glyph glyph-name="eight" unicode="8" horiz-adv-x="1212" 
d="M606 -25q-138 0 -252.5 49.5t-181 140t-66.5 202.5q0 125 87 221t223 139q-123 44 -198 132t-75 202q0 107 65.5 193t171 132t226.5 46q123 0 229 -46.5t171 -133t65 -193.5q0 -117 -77 -204t-197 -128q136 -45 222.5 -141t86.5 -219q0 -112 -67.5 -202.5t-181.5 -140
t-251 -49.5zM606 782q83 4 157.5 35.5t124.5 92.5t50 137q0 112 -97 188t-235 76q-137 0 -233.5 -76t-96.5 -188q0 -77 50 -138t123.5 -92t156.5 -35zM606 96q152 0 259.5 80t107.5 199q0 82 -55.5 148t-138.5 100t-173 36q-89 -2 -171.5 -36t-138.5 -100t-56 -148
q0 -119 106.5 -199t259.5 -80z" />
    <glyph glyph-name="nine" unicode="9" horiz-adv-x="1247" 
d="M604 1432q131 0 231 -52t163 -146.5t94.5 -223t31.5 -285.5q0 -210 -72.5 -382t-200 -270t-282.5 -98q-224 0 -399 168l74 103q153 -150 329 -150q117 0 213.5 82.5t151.5 227t55 319.5v41q-55 -108 -165.5 -173t-245.5 -65q-191 0 -325 123t-134 316q0 195 138 330
t343 135zM606 645q138 0 240 79.5t129 203.5q-33 180 -127 283.5t-242 103.5q-151 0 -250.5 -102.5t-99.5 -237.5q0 -145 101 -237.5t249 -92.5z" />
    <glyph glyph-name="colon" unicode=":" horiz-adv-x="485" 
d="M246 848q-41 0 -68.5 28.5t-27.5 67.5q0 37 27.5 64.5t68.5 27.5q38 0 65 -27.5t27 -64.5q0 -39 -27 -67.5t-65 -28.5zM246 -25q-41 0 -68.5 28.5t-27.5 68.5q0 37 27.5 64.5t68.5 27.5q38 0 65 -27.5t27 -64.5q0 -40 -27 -68.5t-65 -28.5z" />
    <glyph glyph-name="semicolon" unicode=";" horiz-adv-x="524" 
d="M270 848q-41 0 -68.5 28t-27.5 68q0 37 27.5 64.5t68.5 27.5q38 0 65 -27.5t27 -64.5q0 -40 -27 -68t-65 -28zM229 -266l-67 51q80 92 106 190q-39 0 -66.5 28.5t-27.5 68.5q0 38 27 65t69 27q47 0 76 -38.5t29 -98.5t-32.5 -125.5t-113.5 -167.5z" />
    <glyph glyph-name="less" unicode="&#x3c;" horiz-adv-x="1200" 
d="M1044 190l-931 459v111l931 459v-127l-798 -387l798 -388v-127z" />
    <glyph glyph-name="equal" unicode="=" horiz-adv-x="1214" 
d="M137 846v127h940v-127h-940zM137 395v127h940v-127h-940z" />
    <glyph glyph-name="greater" unicode="&#x3e;" horiz-adv-x="1200" 
d="M156 190v127l798 388l-798 387v127l931 -459v-111z" />
    <glyph glyph-name="question" unicode="?" horiz-adv-x="1024" 
d="M391 395v367q180 15 295 94t115 188q0 108 -82 187.5t-209 79.5q-211 0 -367 -201l-88 86q190 236 463 236q181 0 298.5 -109t117.5 -268q0 -137 -115 -247.5t-295 -145.5v-267h-133zM459 -25q-41 0 -69 28.5t-28 68.5q0 37 28 64.5t69 27.5q38 0 65 -27.5t27 -64.5
q0 -40 -27 -68.5t-65 -28.5z" />
    <glyph glyph-name="at" unicode="@" horiz-adv-x="1804" 
d="M872 -238q-208 0 -388.5 104t-287 281.5t-106.5 382.5q0 170 69 327.5t184 272.5t273.5 183.5t329.5 68.5q154 0 296 -59t245.5 -157t165 -233t61.5 -280q0 -121 -31.5 -217.5t-83.5 -155t-116 -89.5t-133 -31q-93 0 -154 47t-78 129q-61 -79 -148 -127.5t-188 -48.5
q-146 0 -238.5 98.5t-92.5 255.5q0 104 39.5 199.5t104 163.5t149.5 108.5t174 40.5q102 0 174.5 -47t109.5 -119l27 135l119 -10q-111 -548 -111 -594q0 -66 40.5 -104.5t104.5 -38.5q35 0 70 14t69.5 46t60.5 78t42 115t16 152q0 131 -56 252.5t-150 209.5t-223.5 141
t-268.5 53q-155 0 -298 -62.5t-247 -167t-166.5 -248.5t-62.5 -299q0 -112 36.5 -218t102.5 -192t153.5 -151t195.5 -101t221 -36q126 0 228 29t214 96l37 -55q-119 -75 -232 -108.5t-252 -33.5zM813 264q139 0 230.5 103t111.5 258q19 135 -40 216t-183 81
q-146 0 -252.5 -119t-106.5 -281q0 -115 66.5 -186.5t173.5 -71.5z" />
    <glyph glyph-name="A" unicode="A" horiz-adv-x="1515" 
d="M1307 0l-146 332h-807l-145 -332h-143l620 1407h143l621 -1407h-143zM412 459h692l-346 786z" />
    <glyph glyph-name="B" unicode="B" horiz-adv-x="1378" 
d="M193 0v1407h626q170 0 278.5 -98t108.5 -252q0 -215 -200 -314q119 -54 187.5 -148.5t68.5 -209.5q0 -169 -117.5 -277t-300.5 -108h-651zM324 797h475q121 0 197.5 68.5t76.5 176.5q0 106 -79 175t-203 69h-467v-489zM324 121h491q138 0 225.5 78t87.5 200t-87.5 199.5
t-225.5 77.5h-491v-555z" />
    <glyph glyph-name="C" unicode="C" horiz-adv-x="1392" 
d="M827 -25q-191 0 -357.5 99.5t-265 268t-98.5 362.5q0 145 58.5 279.5t156 232.5t230.5 156.5t276 58.5q144 0 275 -56.5t231 -158.5l-90 -91q-81 85 -189.5 134t-226.5 49q-117 0 -225.5 -48.5t-188 -130t-126.5 -193t-47 -232.5q0 -162 79.5 -302t215 -222.5
t292.5 -82.5q118 0 226.5 49.5t189.5 135.5l90 -93q-101 -101 -232 -158t-274 -57z" />
    <glyph glyph-name="D" unicode="D" horiz-adv-x="1548" 
d="M193 0v1407h477q216 0 386.5 -89t265.5 -249t95 -364t-95 -364.5t-265.5 -250.5t-386.5 -90h-477zM324 121h346q270 0 443 164t173 420q0 255 -173 418t-443 163h-346v-1165z" />
    <glyph glyph-name="E" unicode="E" horiz-adv-x="1255" 
d="M1143 1282h-848v-502h770v-127h-770v-528h848v-125h-981v1407h981v-125z" />
    <glyph glyph-name="F" unicode="F" horiz-adv-x="1232" 
d="M1157 1282h-862v-502h778v-127h-778v-653h-133v1407h995v-125z" />
    <glyph glyph-name="G" unicode="G" horiz-adv-x="1523" 
d="M809 602v125h563v-539q-100 -97 -248 -155t-297 -58q-191 0 -357.5 99.5t-265 268t-98.5 362.5q0 145 58.5 279.5t156 232.5t230.5 156.5t276 58.5q150 0 298 -57.5t247 -155.5l-90 -93q-83 84 -206.5 133.5t-248.5 49.5q-117 0 -225.5 -48.5t-188 -130t-126.5 -193
t-47 -232.5q0 -162 79.5 -302t215 -222.5t292.5 -82.5q109 0 219 38.5t195 105.5v360h-432z" />
    <glyph glyph-name="H" unicode="H" horiz-adv-x="1443" 
d="M1151 1407h131v-1407h-131v653h-858v-653h-131v1407h131v-627h858v627z" />
    <glyph glyph-name="I" unicode="I" horiz-adv-x="454" 
d="M162 0v1407h131v-1407h-131z" />
    <glyph glyph-name="J" unicode="J" horiz-adv-x="1091" 
d="M479 -25q-125 0 -243 65.5t-183 168.5l92 96q47 -92 140 -150.5t194 -58.5q134 0 219.5 100t85.5 257v954h131v-954q0 -210 -122 -344t-314 -134z" />
    <glyph glyph-name="K" unicode="K" horiz-adv-x="1318" 
d="M188 0v1407h131v-813l744 813h174l-590 -641l631 -766h-170l-551 676l-238 -254v-422h-131z" />
    <glyph glyph-name="L" unicode="L" horiz-adv-x="1122" 
d="M270 125h783v-125h-914v1407h131v-1282z" />
    <glyph glyph-name="M" unicode="M" horiz-adv-x="1720" 
d="M193 0v1407h131l536 -1008l537 1008h131v-1407h-131v1128l-537 -1007l-536 1007v-1128h-131z" />
    <glyph glyph-name="N" unicode="N" horiz-adv-x="1548" 
d="M193 0v1407h131l901 -1194v1194h131v-1407h-131l-901 1194v-1194h-131z" />
    <glyph glyph-name="O" unicode="O" horiz-adv-x="1652" 
d="M827 -25q-191 0 -357.5 99.5t-265 268t-98.5 362.5q0 145 58.5 279.5t156 232.5t230.5 156.5t276 58.5q144 0 277 -58.5t229.5 -156.5t154.5 -232.5t58 -279.5q0 -194 -97.5 -362.5t-263.5 -268t-358 -99.5zM827 98q157 0 292 82.5t214.5 222.5t79.5 302
q0 161 -79.5 300.5t-214.5 221.5t-292 82q-117 0 -225.5 -48.5t-188 -130t-126.5 -193t-47 -232.5q0 -162 79.5 -302t215 -222.5t292.5 -82.5z" />
    <glyph glyph-name="P" unicode="P" horiz-adv-x="1314" 
d="M162 0v1407h577q218 0 363 -125t145 -319t-145 -318.5t-363 -124.5h-446v-520h-131zM293 645h424q179 0 289 86.5t110 231.5q0 146 -110 232.5t-289 86.5h-424v-637z" />
    <glyph glyph-name="Q" unicode="Q" horiz-adv-x="1652" 
d="M1546 705q0 -266 -174 -472l156 -135l-84 -98l-164 141q-203 -166 -453 -166q-191 0 -357.5 99.5t-265 268t-98.5 362.5q0 145 58.5 279.5t156 232.5t230.5 156.5t276 58.5q144 0 277 -58.5t229.5 -156.5t154.5 -232.5t58 -279.5zM827 98q198 0 357 127l-240 207l84 98
l246 -213q66 79 102.5 180t36.5 208q0 161 -79.5 300.5t-214.5 221.5t-292 82q-117 0 -225.5 -48.5t-188 -130t-126.5 -193t-47 -232.5q0 -162 79.5 -302t215 -222.5t292.5 -82.5z" />
    <glyph glyph-name="R" unicode="R" horiz-adv-x="1323" 
d="M1247 963q0 -168 -111 -286.5t-290 -148.5l373 -528h-152l-367 520h-407v-520h-131v1407h577q218 0 363 -125t145 -319zM293 1282v-637h424q179 0 289 86.5t110 231.5q0 146 -110 232.5t-289 86.5h-424z" />
    <glyph glyph-name="S" unicode="S" horiz-adv-x="1249" 
d="M649 -23q-164 0 -305.5 58.5t-249.5 165.5l82 102q205 -205 477 -205q161 0 257 77.5t96 189.5q0 111 -93 173.5t-303 110.5q-238 56 -349 140.5t-111 242.5q0 172 132 287t332 115q271 0 492 -201l-82 -103q-89 87 -196 135t-220 48q-141 0 -233 -78.5t-92 -192.5
q0 -101 92 -158t301 -108q233 -55 348 -145.5t115 -253.5q0 -174 -131.5 -287t-358.5 -113z" />
    <glyph glyph-name="T" unicode="T" horiz-adv-x="1290" 
d="M580 0v1282h-488v125h1106v-125h-487v-1282h-131z" />
    <glyph glyph-name="U" unicode="U" horiz-adv-x="1499" 
d="M750 -25q-252 0 -413 166.5t-161 427.5v838h131v-838q0 -207 124.5 -340t318.5 -133q193 0 317.5 133t124.5 340v838h131v-838q0 -261 -160.5 -427.5t-412.5 -166.5z" />
    <glyph glyph-name="V" unicode="V" horiz-adv-x="1515" 
d="M1307 1407h143l-621 -1407h-143l-620 1407h143l549 -1245z" />
    <glyph glyph-name="W" unicode="W" horiz-adv-x="2181" 
d="M553 0l-477 1407h147l404 -1188l391 1188h145l393 -1188l402 1188h147l-477 -1407h-133l-403 1229l-406 -1229h-133z" />
    <glyph glyph-name="X" unicode="X" horiz-adv-x="1394" 
d="M1317 1407l-539 -705l537 -702h-162l-457 598l-456 -598h-162l538 702l-538 705h162l456 -598l459 598h162z" />
    <glyph glyph-name="Y" unicode="Y" horiz-adv-x="1347" 
d="M606 0v573l-569 834h164l473 -705l477 705h160l-568 -834v-573h-137z" />
    <glyph glyph-name="Z" unicode="Z" horiz-adv-x="1294" 
d="M119 0v104l876 1178h-862v125h1038v-104l-878 -1178h887v-125h-1061z" />
    <glyph glyph-name="bracketleft" unicode="[" horiz-adv-x="739" 
d="M166 -236v1739h473v-102h-358v-1534h358v-103h-473z" />
    <glyph glyph-name="backslash" unicode="\" horiz-adv-x="819" 
d="M709 -152l-719 1674h143l719 -1674h-143z" />
    <glyph glyph-name="bracketright" unicode="]" horiz-adv-x="739" 
d="M100 -236v103h359v1534h-359v102h473v-1739h-473z" />
    <glyph glyph-name="asciicircum" unicode="^" horiz-adv-x="989" 
d="M111 846l329 561h111l328 -561h-119l-264 459l-269 -459h-116z" />
    <glyph glyph-name="underscore" unicode="_" horiz-adv-x="1212" 
d="M-4 -281v117h1221v-117h-1221z" />
    <glyph glyph-name="grave" unicode="`" horiz-adv-x="645" 
d="M403 1180l-274 262l135 31l252 -293h-113z" />
    <glyph glyph-name="a" unicode="a" horiz-adv-x="1161" 
d="M580 1083q204 0 314 -120t110 -318v-645h-127v168q-56 -90 -166.5 -141.5t-223.5 -51.5q-168 0 -276.5 93t-108.5 245q0 155 120 254t300 99q160 0 355 -64v43q0 63 -15.5 117.5t-49 103t-96 77t-147.5 28.5q-143 0 -313 -94l-51 104q192 102 375 102zM508 90
q77 0 151.5 25.5t136.5 82t81 134.5v170q-171 53 -336 53q-133 0 -223.5 -67t-90.5 -169q0 -104 80 -166.5t201 -62.5z" />
    <glyph glyph-name="b" unicode="b" horiz-adv-x="1286" 
d="M692 1083q134 0 245 -72t175 -199t64 -282q0 -156 -64 -283.5t-175 -199.5t-245 -72q-128 0 -230 61.5t-165 170.5v-207h-127v1432h127v-580q63 109 165 170t230 61zM670 92q160 0 267 125.5t107 312.5t-107 312t-267 125q-164 0 -268.5 -122.5t-104.5 -314.5t104.5 -315
t268.5 -123z" />
    <glyph glyph-name="c" unicode="c" horiz-adv-x="1095" 
d="M641 -25q-111 0 -211.5 43.5t-173 117.5t-115.5 177t-43 217t43 216.5t115.5 176t173 117t211.5 43.5q104 0 200 -41t171 -114l-88 -86q-119 125 -283 125q-172 0 -291 -127t-119 -310q0 -184 119 -311t291 -127q82 0 156.5 34t130.5 95l88 -86q-75 -75 -172.5 -117.5
t-202.5 -42.5z" />
    <glyph glyph-name="d" unicode="d" horiz-adv-x="1286" 
d="M989 1432h127v-1432h-127v207q-63 -109 -165 -170.5t-230 -61.5q-134 0 -245 72t-174.5 199.5t-63.5 283.5q0 155 63.5 282t174.5 199t245 72q128 0 230 -61t165 -170v580zM616 92q164 0 268.5 123t104.5 315t-104.5 314.5t-268.5 122.5q-160 0 -267 -125t-107 -312
t107 -312.5t267 -125.5z" />
    <glyph glyph-name="e" unicode="e" horiz-adv-x="1218" 
d="M629 92q101 0 199 36.5t153 96.5l80 -86q-66 -72 -189.5 -118t-242.5 -46q-105 0 -202 43t-169.5 116.5t-116 177.5t-43.5 220q0 153 70.5 280t190.5 199t262 72q233 0 367 -164t134 -440h-895q18 -167 129.5 -277t272.5 -110zM625 967q-155 0 -265.5 -103.5
t-130.5 -267.5h766q-12 165 -109.5 268t-260.5 103z" />
    <glyph glyph-name="f" unicode="f" horiz-adv-x="712" 
d="M375 1204v-145h272v-117h-272v-942h-127v942h-172v117h172v145q0 118 69.5 194.5t176.5 76.5q106 0 196 -68l-65 -94q-45 45 -123 45q-53 0 -90 -43.5t-37 -110.5z" />
    <glyph glyph-name="g" unicode="g" horiz-adv-x="1275" 
d="M979 1059h127v-946q0 -204 -142 -334.5t-366 -130.5q-122 0 -238 39t-190 102l57 102q64 -58 160.5 -92.5t196.5 -34.5q182 0 288.5 94t106.5 255v192q-62 -108 -167.5 -167.5t-236.5 -59.5q-206 0 -342.5 143.5t-136.5 360.5q0 215 136.5 358t342.5 143
q133 0 237.5 -58.5t166.5 -166.5v201zM598 195q166 0 273.5 108.5t107.5 278.5q0 168 -107.5 276.5t-273.5 108.5q-158 0 -264.5 -110.5t-106.5 -274.5q0 -166 106.5 -276.5t264.5 -110.5z" />
    <glyph glyph-name="h" unicode="h" 
d="M633 1083q175 0 286 -113t111 -290v-680h-127v664q0 133 -80.5 218t-206.5 85q-139 0 -235 -85t-96 -208v-674h-127v1432h127v-547q43 89 137.5 143.5t210.5 54.5z" />
    <glyph glyph-name="i" unicode="i" horiz-adv-x="434" 
d="M217 1266q-37 0 -62.5 25.5t-25.5 62.5q0 36 26 62t62 26t62 -26t26 -62q0 -37 -25.5 -62.5t-62.5 -25.5zM154 0v1059h127v-1059h-127z" />
    <glyph glyph-name="j" unicode="j" horiz-adv-x="417" 
d="M209 1266q-37 0 -62.5 25.5t-25.5 62.5q0 36 26 62t62 26t62 -26t26 -62q0 -37 -25.5 -62.5t-62.5 -25.5zM27 -365q-91 0 -166 33l20 109q62 -25 137 -25q55 0 91 41.5t36 106.5v1159h127v-1159q0 -116 -69 -190.5t-176 -74.5z" />
    <glyph glyph-name="k" unicode="k" horiz-adv-x="1083" 
d="M1055 1059l-477 -486l450 -573h-160l-381 487l-206 -208v-279h-127v1432h127v-990l608 617h166z" />
    <glyph glyph-name="l" unicode="l" horiz-adv-x="438" 
d="M156 0v1432h127v-1432h-127z" />
    <glyph glyph-name="m" unicode="m" horiz-adv-x="1808" 
d="M1282 1083q163 0 267 -113t104 -290v-680h-127v664q0 134 -73.5 218.5t-188.5 84.5q-130 0 -213.5 -80.5t-83.5 -206.5v-680h-127v664q0 134 -72.5 218.5t-187.5 84.5q-130 0 -213.5 -80.5t-83.5 -206.5v-680h-127v1059h127v-156q38 84 121.5 132t191.5 48
q118 0 207 -61.5t131 -167.5q34 104 129.5 166.5t218.5 62.5z" />
    <glyph glyph-name="n" unicode="n" 
d="M633 1083q175 0 286 -113t111 -290v-680h-127v664q0 133 -80.5 218t-206.5 85q-139 0 -235 -85t-96 -208v-674h-127v1059h127v-174q43 89 137.5 143.5t210.5 54.5z" />
    <glyph glyph-name="o" unicode="o" horiz-adv-x="1292" 
d="M647 -25q-109 0 -210.5 45t-175.5 119.5t-118.5 177t-44.5 213.5q0 148 75 275.5t201.5 202.5t272.5 75q109 0 210.5 -44.5t175 -119t117.5 -176.5t44 -213t-44 -213.5t-117.5 -177.5t-175 -119.5t-210.5 -44.5zM647 92q169 0 291.5 129t122.5 309q0 178 -122.5 307.5
t-291.5 129.5q-170 0 -293 -129t-123 -308q0 -180 123 -309t293 -129z" />
    <glyph glyph-name="p" unicode="p" horiz-adv-x="1286" 
d="M692 1083q134 0 245 -72t175 -199t64 -282q0 -156 -64 -283.5t-175 -199.5t-245 -72q-128 0 -230 61.5t-165 170.5v-559h-127v1411h127v-207q63 109 165 170t230 61zM670 92q160 0 267 125.5t107 312.5t-107 312t-267 125q-164 0 -268.5 -122.5t-104.5 -314.5t104.5 -315
t268.5 -123z" />
    <glyph glyph-name="q" unicode="q" horiz-adv-x="1286" 
d="M989 1059h127v-1411h-127v559q-63 -109 -165 -170.5t-230 -61.5q-134 0 -245 72t-174.5 199.5t-63.5 283.5q0 155 63.5 282t174.5 199t245 72q128 0 230 -61t165 -170v207zM616 92q164 0 268.5 123t104.5 315t-104.5 314.5t-268.5 122.5q-160 0 -267 -125t-107 -312
t107 -312.5t267 -125.5z" />
    <glyph glyph-name="r" unicode="r" horiz-adv-x="763" 
d="M297 842q45 109 155.5 175t254.5 66v-116q-180 0 -295 -105.5t-115 -269.5v-592h-127v1059h127v-217z" />
    <glyph glyph-name="s" unicode="s" horiz-adv-x="1009" 
d="M530 -25q-113 0 -229 41.5t-209 116.5l68 94q189 -135 370 -135q109 0 181.5 50t72.5 126q0 42 -19 74.5t-59.5 57.5t-85.5 43.5t-116 39.5q-193 56 -273.5 124t-80.5 179q0 130 104 213.5t260 83.5q199 0 379 -118l-64 -99q-162 101 -315 101q-100 0 -169 -46t-69 -120
q0 -69 62.5 -111t226.5 -96q84 -26 138.5 -49.5t106 -60t76.5 -86.5t25 -117q0 -133 -109.5 -219.5t-271.5 -86.5z" />
    <glyph glyph-name="t" unicode="t" horiz-adv-x="751" 
d="M625 137l65 -94q-87 -68 -196 -68q-107 0 -176.5 76.5t-69.5 194.5v696h-172v117h172v291h127v-291h266v-117h-266v-696q0 -67 37 -110.5t90 -43.5q75 0 123 45z" />
    <glyph glyph-name="u" unicode="u" 
d="M901 1059h127v-1059h-127v174q-43 -89 -137.5 -144t-210.5 -55q-175 0 -286 113.5t-111 290.5v680h127v-664q0 -133 80 -218t206 -85q139 0 235.5 85t96.5 208v674z" />
    <glyph glyph-name="v" unicode="v" horiz-adv-x="1144" 
d="M518 0l-463 1059h142l376 -897l375 897h142l-459 -1059h-113z" />
    <glyph glyph-name="w" unicode="w" horiz-adv-x="1679" 
d="M424 0l-352 1059h135l280 -889l299 889h111l297 -889l283 889h135l-355 -1059h-127l-288 870l-291 -870h-127z" />
    <glyph glyph-name="x" unicode="x" horiz-adv-x="1097" 
d="M1032 0h-149l-334 442l-334 -442h-149l409 541l-393 518h149l318 -420l317 420h150l-391 -518z" />
    <glyph glyph-name="y" unicode="y" horiz-adv-x="1196" 
d="M295 -369q-93 0 -168 35l33 113q60 -31 131 -31q117 0 172 98l63 138l-465 1075h140l391 -924l371 924h137l-488 -1190q-50 -124 -127 -180t-190 -58z" />
    <glyph glyph-name="z" unicode="z" horiz-adv-x="1052" 
d="M111 0v100l661 838h-649v121h819v-101l-663 -837h667v-121h-835z" />
    <glyph glyph-name="braceleft" unicode="{" horiz-adv-x="804" 
d="M700 -340q-223 24 -312 103.5t-89 242.5v289q0 106 -48.5 152.5t-162.5 46.5v100q114 0 162.5 47t48.5 154v286q0 164 89 243t312 103l11 -96q-177 -25 -238 -78.5t-61 -179.5l2 -295q0 -97 -37 -152.5t-113 -80.5q77 -27 113.5 -83t36.5 -153l-2 -293
q0 -128 61.5 -181.5t237.5 -78.5z" />
    <glyph glyph-name="bar" unicode="|" horiz-adv-x="552" 
d="M223 -152v1674h107v-1674h-107z" />
    <glyph glyph-name="braceright" unicode="}" horiz-adv-x="804" 
d="M104 -340l-10 96q176 25 237.5 78.5t61.5 181.5l-2 293q0 97 37 153t115 83q-78 25 -115 80.5t-37 152.5l2 295q0 126 -61 179.5t-238 78.5l10 96q223 -24 312.5 -103.5t89.5 -242.5v-286q0 -107 48.5 -154t162.5 -47v-100q-114 0 -162.5 -46.5t-48.5 -152.5v-289
q0 -163 -89.5 -242.5t-312.5 -103.5z" />
    <glyph glyph-name="asciitilde" unicode="~" horiz-adv-x="915" 
d="M590 623q-41 0 -80.5 21t-65.5 46.5t-58 46.5t-60 21q-83 0 -107 -148l-86 15q14 114 63 174.5t130 60.5q41 0 80.5 -21t65.5 -46.5t58 -46.5t60 -21q80 0 106 147l86 -14q-14 -114 -62.5 -174.5t-129.5 -60.5z" />
    <glyph glyph-name="exclamdown" unicode="&#xa1;" horiz-adv-x="526" 
d="M260 1083q41 0 68.5 -28t27.5 -68q0 -37 -27.5 -64.5t-68.5 -27.5q-38 0 -65 27.5t-27 64.5q0 40 27 68t65 28zM309 664l25 -1012h-150l27 1012h98z" />
    <glyph glyph-name="cent" unicode="&#xa2;" horiz-adv-x="1095" 
d="M1016 135q-146 -146 -338 -158v-129h-131v136q-194 34 -321.5 187.5t-127.5 358.5t127.5 358t321.5 187v131h131v-125q190 -12 334 -153l-88 -86q-105 111 -246 123v-871q148 15 250 127zM231 530q0 -157 89 -275.5t227 -152.5v854q-138 -34 -227 -152.5t-89 -273.5z" />
    <glyph glyph-name="sterling" unicode="&#xa3;" horiz-adv-x="1232" 
d="M365 125h774v-125h-1026v63l120 62v420h-116v117h116v286q0 212 122.5 348t314.5 136q141 0 258 -65.5t170 -172.5l-97 -92q-32 94 -123 151.5t-208 57.5q-134 0 -219.5 -101.5t-85.5 -261.5v-286h419v-117h-419v-420z" />
    <glyph glyph-name="yen" unicode="&#xa5;" horiz-adv-x="1347" 
d="M1311 1407l-506 -743h364v-117h-426v-185h426v-116h-426v-246h-137v246h-426v116h426v185h-426v117h365l-508 743h164l473 -705l477 705h160z" />
    <glyph glyph-name="dieresis" unicode="&#xa8;" horiz-adv-x="839" 
d="M223 1233q-35 0 -59.5 25t-24.5 59q0 33 24.5 58.5t59.5 25.5q33 0 58.5 -25.5t25.5 -58.5q0 -34 -25 -59t-59 -25zM616 1233q-35 0 -59.5 25t-24.5 59q0 33 24.5 58.5t59.5 25.5q33 0 58.5 -25.5t25.5 -58.5q0 -34 -25 -59t-59 -25z" />
    <glyph glyph-name="macron" unicode="&#xaf;" horiz-adv-x="892" 
d="M129 1223v100h635v-100h-635z" />
    <glyph glyph-name="acute" unicode="&#xb4;" horiz-adv-x="645" 
d="M129 1180l250 293l137 -31l-274 -262h-113z" />
    <glyph glyph-name="cedilla" unicode="&#xb8;" horiz-adv-x="630" 
d="M362 -92q60 0 100 -37.5t40 -95.5q0 -73 -57 -120.5t-140 -47.5q-106 0 -176 57l37 80q58 -49 133 -49q44 0 75.5 25t31.5 59q0 32 -21.5 51.5t-60.5 19.5q-42 0 -70 -22l-33 35l68 160h98l-49 -117q8 2 24 2z" />
    <glyph glyph-name="questiondown" unicode="&#xbf;" horiz-adv-x="1024" 
d="M565 1083q41 0 69 -28t28 -68q0 -37 -28 -64.5t-69 -27.5q-38 0 -65 27.5t-27 64.5q0 40 27 68t65 28zM633 664v-367q-180 -15 -295 -94.5t-115 -188.5q0 -108 82 -187t209 -79q211 0 367 201l88 -86q-190 -236 -463 -236q-181 0 -298.5 109t-117.5 268q0 137 115 247.5
t295 145.5v267h133z" />
    <glyph glyph-name="Agrave" unicode="&#xc0;" horiz-adv-x="1515" 
d="M817 1528h-112l-275 262l135 31zM1307 0l-146 332h-807l-145 -332h-143l620 1407h143l621 -1407h-143zM412 459h692l-346 786z" />
    <glyph glyph-name="Aacute" unicode="&#xc1;" horiz-adv-x="1515" 
d="M1087 1790l-274 -262h-113l250 293zM1307 0l-146 332h-807l-145 -332h-143l620 1407h143l621 -1407h-143zM412 459h692l-346 786z" />
    <glyph glyph-name="Acircumflex" unicode="&#xc2;" horiz-adv-x="1515" 
d="M758 1718l-164 -190h-109l209 280h125l213 -280h-108zM1307 0l-146 332h-807l-145 -332h-143l620 1407h143l621 -1407h-143zM412 459h692l-346 786z" />
    <glyph glyph-name="Atilde" unicode="&#xc3;" horiz-adv-x="1515" 
d="M625 1669q-83 0 -107 -147l-86 14q14 114 63 175t130 61q41 0 80.5 -21t65.5 -47t58 -47t60 -21q79 0 106 148l86 -15q-14 -114 -62.5 -174.5t-129.5 -60.5q-41 0 -80.5 21t-65.5 46.5t-58 46.5t-60 21zM1307 0l-146 332h-807l-145 -332h-143l620 1407h143l621 -1407
h-143zM412 459h692l-346 786z" />
    <glyph glyph-name="Adieresis" unicode="&#xc4;" horiz-adv-x="1515" 
d="M561 1581q-35 0 -59.5 25t-24.5 59q0 33 24.5 58.5t59.5 25.5q33 0 58.5 -25.5t25.5 -58.5q0 -34 -25 -59t-59 -25zM954 1581q-35 0 -59.5 25t-24.5 59q0 33 24.5 58.5t59.5 25.5q33 0 58.5 -25.5t25.5 -58.5q0 -34 -25 -59t-59 -25zM1307 0l-146 332h-807l-145 -332
h-143l620 1407h143l621 -1407h-143zM412 459h692l-346 786z" />
    <glyph glyph-name="Aring" unicode="&#xc5;" horiz-adv-x="1515" 
d="M758 1554q-88 0 -149.5 61.5t-61.5 149.5t61.5 149.5t149.5 61.5t149.5 -61.5t61.5 -149.5t-61.5 -149.5t-149.5 -61.5zM758 1892q-52 0 -89.5 -37t-37.5 -90t37.5 -90t89.5 -37t89.5 37t37.5 90t-37.5 90t-89.5 37zM1307 0l-146 332h-807l-145 -332h-143l620 1407h143
l621 -1407h-143zM412 459h692l-346 786z" />
    <glyph glyph-name="AE" unicode="&#xc6;" horiz-adv-x="2050" 
d="M1937 1282h-847v-502h770v-127h-770v-528h847v-125h-981v332h-546l-193 -332h-151l811 1407h1060v-125zM481 459h475v821z" />
    <glyph glyph-name="Ccedilla" unicode="&#xc7;" horiz-adv-x="1392" 
d="M1333 190q-95 -95 -216 -151t-253 -62l-28 -71q8 2 24 2q60 0 99.5 -37.5t39.5 -95.5q0 -73 -56.5 -120.5t-139.5 -47.5q-106 0 -176 57l37 80q58 -49 133 -49q44 0 75 25t31 59q0 32 -21.5 51.5t-60.5 19.5q-41 0 -69 -22l-33 35l49 114q-134 12 -256 75.5t-211 160
t-142 225.5t-53 267q0 145 58.5 279.5t156 232.5t230.5 156.5t276 58.5q144 0 275 -56.5t231 -158.5l-90 -91q-81 85 -189.5 134t-226.5 49q-117 0 -225.5 -48.5t-188 -130t-126.5 -193t-47 -232.5q0 -162 79.5 -302t215 -222.5t292.5 -82.5q118 0 226.5 49.5t189.5 135.5z
" />
    <glyph glyph-name="Egrave" unicode="&#xc8;" horiz-adv-x="1255" 
d="M799 1528h-113l-274 262l135 31zM1143 1282h-848v-502h770v-127h-770v-528h848v-125h-981v1407h981v-125z" />
    <glyph glyph-name="Eacute" unicode="&#xc9;" horiz-adv-x="1255" 
d="M883 1790l-275 -262h-112l249 293zM1143 1282h-848v-502h770v-127h-770v-528h848v-125h-981v1407h981v-125z" />
    <glyph glyph-name="Ecircumflex" unicode="&#xca;" horiz-adv-x="1255" 
d="M653 1718l-164 -190h-108l209 280h125l213 -280h-109zM1143 1282h-848v-502h770v-127h-770v-528h848v-125h-981v1407h981v-125z" />
    <glyph glyph-name="Edieresis" unicode="&#xcb;" horiz-adv-x="1255" 
d="M457 1581q-35 0 -59.5 25t-24.5 59q0 33 24.5 58.5t59.5 25.5q33 0 58.5 -25.5t25.5 -58.5q0 -34 -25 -59t-59 -25zM850 1581q-35 0 -59.5 25t-24.5 59q0 33 24.5 58.5t59.5 25.5q33 0 58.5 -25.5t25.5 -58.5q0 -34 -25 -59t-59 -25zM1143 1282h-848v-502h770v-127h-770
v-528h848v-125h-981v1407h981v-125z" />
    <glyph glyph-name="Igrave" unicode="&#xcc;" horiz-adv-x="454" 
d="M174 1528l-274 262l135 31l252 -293h-113zM162 0v1407h131v-1407h-131z" />
    <glyph glyph-name="Iacute" unicode="&#xcd;" horiz-adv-x="454" 
d="M170 1528l250 293l137 -31l-274 -262h-113zM162 0v1407h131v-1407h-131z" />
    <glyph glyph-name="Icircumflex" unicode="&#xce;" horiz-adv-x="454" 
d="M-45 1528l209 280h125l213 -280h-109l-166 190l-164 -190h-108zM162 0v1407h131v-1407h-131z" />
    <glyph glyph-name="Idieresis" unicode="&#xcf;" horiz-adv-x="454" 
d="M31 1581q-35 0 -59.5 25t-24.5 59q0 33 24.5 58.5t59.5 25.5q33 0 58.5 -25.5t25.5 -58.5q0 -34 -25 -59t-59 -25zM424 1581q-35 0 -59.5 25t-24.5 59q0 33 24.5 58.5t59.5 25.5q33 0 58.5 -25.5t25.5 -58.5q0 -34 -25 -59t-59 -25zM162 0v1407h131v-1407h-131z" />
    <glyph glyph-name="Eth" unicode="&#xd0;" horiz-adv-x="1593" 
d="M715 1407q216 0 386.5 -89t265.5 -249t95 -364t-95 -364.5t-265.5 -250.5t-386.5 -90h-477v653h-152v127h152v627h477zM715 121q270 0 443 164t173 420q0 255 -173 418t-443 163h-346v-506h432l-2 -127h-430v-532h346z" />
    <glyph glyph-name="Ntilde" unicode="&#xd1;" horiz-adv-x="1548" 
d="M905 1534q-41 0 -80.5 21t-65.5 46.5t-58 46.5t-60 21q-82 0 -106 -147l-86 14q14 114 62.5 175t129.5 61q41 0 80.5 -21t65.5 -47t58 -47t60 -21q80 0 107 148l86 -15q-14 -114 -63 -174.5t-130 -60.5zM193 0v1407h131l901 -1194v1194h131v-1407h-131l-901 1194v-1194
h-131z" />
    <glyph glyph-name="Ograve" unicode="&#xd2;" horiz-adv-x="1652" 
d="M778 1528l-274 262l135 31l252 -293h-113zM827 -25q-191 0 -357.5 99.5t-265 268t-98.5 362.5q0 145 58.5 279.5t156 232.5t230.5 156.5t276 58.5q144 0 277 -58.5t229.5 -156.5t154.5 -232.5t58 -279.5q0 -194 -97.5 -362.5t-263.5 -268t-358 -99.5zM827 98
q157 0 292 82.5t214.5 222.5t79.5 302q0 161 -79.5 300.5t-214.5 221.5t-292 82q-117 0 -225.5 -48.5t-188 -130t-126.5 -193t-47 -232.5q0 -162 79.5 -302t215 -222.5t292.5 -82.5z" />
    <glyph glyph-name="Oacute" unicode="&#xd3;" horiz-adv-x="1652" 
d="M770 1528l250 293l137 -31l-274 -262h-113zM827 -25q-191 0 -357.5 99.5t-265 268t-98.5 362.5q0 145 58.5 279.5t156 232.5t230.5 156.5t276 58.5q144 0 277 -58.5t229.5 -156.5t154.5 -232.5t58 -279.5q0 -194 -97.5 -362.5t-263.5 -268t-358 -99.5zM827 98
q157 0 292 82.5t214.5 222.5t79.5 302q0 161 -79.5 300.5t-214.5 221.5t-292 82q-117 0 -225.5 -48.5t-188 -130t-126.5 -193t-47 -232.5q0 -162 79.5 -302t215 -222.5t292.5 -82.5z" />
    <glyph glyph-name="Ocircumflex" unicode="&#xd4;" horiz-adv-x="1652" 
d="M555 1528l209 280h125l213 -280h-109l-166 190l-163 -190h-109zM827 -25q-191 0 -357.5 99.5t-265 268t-98.5 362.5q0 145 58.5 279.5t156 232.5t230.5 156.5t276 58.5q144 0 277 -58.5t229.5 -156.5t154.5 -232.5t58 -279.5q0 -194 -97.5 -362.5t-263.5 -268t-358 -99.5
zM827 98q157 0 292 82.5t214.5 222.5t79.5 302q0 161 -79.5 300.5t-214.5 221.5t-292 82q-117 0 -225.5 -48.5t-188 -130t-126.5 -193t-47 -232.5q0 -162 79.5 -302t215 -222.5t292.5 -82.5z" />
    <glyph glyph-name="Otilde" unicode="&#xd5;" horiz-adv-x="1652" 
d="M958 1534q-41 0 -80.5 21t-65.5 46.5t-58 46.5t-60 21q-82 0 -106 -147l-86 14q14 114 62.5 175t129.5 61q41 0 80.5 -21t65.5 -47t58 -47t60 -21q80 0 107 148l86 -15q-14 -114 -63 -174.5t-130 -60.5zM827 -25q-191 0 -357.5 99.5t-265 268t-98.5 362.5
q0 145 58.5 279.5t156 232.5t230.5 156.5t276 58.5q144 0 277 -58.5t229.5 -156.5t154.5 -232.5t58 -279.5q0 -194 -97.5 -362.5t-263.5 -268t-358 -99.5zM827 98q157 0 292 82.5t214.5 222.5t79.5 302q0 161 -79.5 300.5t-214.5 221.5t-292 82q-117 0 -225.5 -48.5
t-188 -130t-126.5 -193t-47 -232.5q0 -162 79.5 -302t215 -222.5t292.5 -82.5z" />
    <glyph glyph-name="Odieresis" unicode="&#xd6;" horiz-adv-x="1652" 
d="M631 1581q-35 0 -59.5 25t-24.5 59q0 33 24.5 58.5t59.5 25.5q33 0 58.5 -25.5t25.5 -58.5q0 -34 -25 -59t-59 -25zM1024 1581q-35 0 -59.5 25t-24.5 59q0 33 24.5 58.5t59.5 25.5q33 0 58.5 -25.5t25.5 -58.5q0 -34 -25 -59t-59 -25zM827 -25q-191 0 -357.5 99.5
t-265 268t-98.5 362.5q0 145 58.5 279.5t156 232.5t230.5 156.5t276 58.5q144 0 277 -58.5t229.5 -156.5t154.5 -232.5t58 -279.5q0 -194 -97.5 -362.5t-263.5 -268t-358 -99.5zM827 98q157 0 292 82.5t214.5 222.5t79.5 302q0 161 -79.5 300.5t-214.5 221.5t-292 82
q-117 0 -225.5 -48.5t-188 -130t-126.5 -193t-47 -232.5q0 -162 79.5 -302t215 -222.5t292.5 -82.5z" />
    <glyph glyph-name="multiply" unicode="&#xd7;" horiz-adv-x="1089" 
d="M922 973l-287 -289l287 -287l-91 -90l-286 287l-287 -287l-90 90l287 287l-287 289l90 88l287 -287l289 287z" />
    <glyph glyph-name="Oslash" unicode="&#xd8;" horiz-adv-x="1652" 
d="M1343 1206q96 -100 149.5 -229.5t53.5 -271.5q0 -194 -97.5 -362.5t-263.5 -268t-358 -99.5q-236 0 -432 150l-108 -125h-150l176 201q-97 100 -152 231t-55 273q0 145 58.5 279.5t156 232.5t230.5 156.5t276 58.5q240 0 433 -150l108 125h150zM240 705q0 -233 157 -408
l779 891q-156 121 -349 121q-117 0 -225.5 -48.5t-188 -130t-126.5 -193t-47 -232.5zM827 98q157 0 292 82.5t214.5 222.5t79.5 302q0 228 -156 405l-778 -891q156 -121 348 -121z" />
    <glyph glyph-name="Ugrave" unicode="&#xd9;" horiz-adv-x="1499" 
d="M782 1528l-274 262l135 31l252 -293h-113zM750 -25q-252 0 -413 166.5t-161 427.5v838h131v-838q0 -207 124.5 -340t318.5 -133q193 0 317.5 133t124.5 340v838h131v-838q0 -261 -160.5 -427.5t-412.5 -166.5z" />
    <glyph glyph-name="Uacute" unicode="&#xda;" horiz-adv-x="1499" 
d="M592 1528l250 293l137 -31l-274 -262h-113zM750 -25q-252 0 -413 166.5t-161 427.5v838h131v-838q0 -207 124.5 -340t318.5 -133q193 0 317.5 133t124.5 340v838h131v-838q0 -261 -160.5 -427.5t-412.5 -166.5z" />
    <glyph glyph-name="Ucircumflex" unicode="&#xdb;" horiz-adv-x="1499" 
d="M477 1528l209 280h125l213 -280h-109l-165 190l-164 -190h-109zM750 -25q-252 0 -413 166.5t-161 427.5v838h131v-838q0 -207 124.5 -340t318.5 -133q193 0 317.5 133t124.5 340v838h131v-838q0 -261 -160.5 -427.5t-412.5 -166.5z" />
    <glyph glyph-name="Udieresis" unicode="&#xdc;" horiz-adv-x="1499" 
d="M553 1581q-35 0 -59.5 25t-24.5 59q0 33 24.5 58.5t59.5 25.5q33 0 58.5 -25.5t25.5 -58.5q0 -34 -25 -59t-59 -25zM946 1581q-35 0 -59.5 25t-24.5 59q0 33 24.5 58.5t59.5 25.5q33 0 58.5 -25.5t25.5 -58.5q0 -34 -25 -59t-59 -25zM750 -25q-252 0 -413 166.5
t-161 427.5v838h131v-838q0 -207 124.5 -340t318.5 -133q193 0 317.5 133t124.5 340v838h131v-838q0 -261 -160.5 -427.5t-412.5 -166.5z" />
    <glyph glyph-name="Yacute" unicode="&#xdd;" horiz-adv-x="1347" 
d="M516 1528l250 293l137 -31l-274 -262h-113zM606 0v573l-569 834h164l473 -705l477 705h160l-568 -834v-573h-137z" />
    <glyph glyph-name="Thorn" unicode="&#xde;" horiz-adv-x="1314" 
d="M162 0v1407h133v-254h444q218 0 363 -125t145 -319t-145 -319.5t-363 -125.5h-446v-264h-131zM293 391h424q179 0 289 86.5t110 231.5t-110 231t-289 86h-424v-635z" />
    <glyph glyph-name="germandbls" unicode="&#xdf;" horiz-adv-x="1150" 
d="M172 0v1075q0 160 118.5 266.5t295.5 106.5t294 -106.5t117 -266.5q0 -107 -50.5 -192t-141.5 -135q116 -56 182 -151.5t66 -209.5q0 -165 -116 -276t-288 -111h-184v121h143q133 0 222.5 81t89.5 201t-88 197.5t-226 77.5h-141v121h121q121 0 199.5 75.5t78.5 184.5
q0 114 -80 191t-200 77t-200.5 -78.5t-80.5 -195.5v-1053h-131z" />
    <glyph glyph-name="agrave" unicode="&#xe0;" horiz-adv-x="1161" 
d="M743 1180h-112l-275 262l136 31zM580 1083q204 0 314 -120t110 -318v-645h-127v168q-56 -90 -166.5 -141.5t-223.5 -51.5q-168 0 -276.5 93t-108.5 245q0 155 120 254t300 99q160 0 355 -64v43q0 63 -15.5 117.5t-49 103t-96 77t-147.5 28.5q-143 0 -313 -94l-51 104
q192 102 375 102zM508 90q77 0 151.5 25.5t136.5 82t81 134.5v170q-171 53 -336 53q-133 0 -223.5 -67t-90.5 -169q0 -104 80 -166.5t201 -62.5z" />
    <glyph glyph-name="aacute" unicode="&#xe1;" horiz-adv-x="1161" 
d="M827 1442l-274 -262h-113l250 293zM580 1083q204 0 314 -120t110 -318v-645h-127v168q-56 -90 -166.5 -141.5t-223.5 -51.5q-168 0 -276.5 93t-108.5 245q0 155 120 254t300 99q160 0 355 -64v43q0 63 -15.5 117.5t-49 103t-96 77t-147.5 28.5q-143 0 -313 -94l-51 104
q192 102 375 102zM508 90q77 0 151.5 25.5t136.5 82t81 134.5v170q-171 53 -336 53q-133 0 -223.5 -67t-90.5 -169q0 -104 80 -166.5t201 -62.5z" />
    <glyph glyph-name="acircumflex" unicode="&#xe2;" horiz-adv-x="1161" 
d="M598 1370l-164 -190h-108l209 280h124l213 -280h-108zM580 1083q204 0 314 -120t110 -318v-645h-127v168q-56 -90 -166.5 -141.5t-223.5 -51.5q-168 0 -276.5 93t-108.5 245q0 155 120 254t300 99q160 0 355 -64v43q0 63 -15.5 117.5t-49 103t-96 77t-147.5 28.5
q-143 0 -313 -94l-51 104q192 102 375 102zM508 90q77 0 151.5 25.5t136.5 82t81 134.5v170q-171 53 -336 53q-133 0 -223.5 -67t-90.5 -169q0 -104 80 -166.5t201 -62.5z" />
    <glyph glyph-name="atilde" unicode="&#xe3;" horiz-adv-x="1161" 
d="M465 1321q-83 0 -107 -147l-86 14q14 114 63 174.5t130 60.5q41 0 80.5 -21t65.5 -46.5t58 -46.5t60 -21q80 0 107 148l86 -15q-14 -114 -63 -174.5t-130 -60.5q-41 0 -80.5 21t-65.5 46.5t-58 46.5t-60 21zM580 1083q204 0 314 -120t110 -318v-645h-127v168
q-56 -90 -166.5 -141.5t-223.5 -51.5q-168 0 -276.5 93t-108.5 245q0 155 120 254t300 99q160 0 355 -64v43q0 63 -15.5 117.5t-49 103t-96 77t-147.5 28.5q-143 0 -313 -94l-51 104q192 102 375 102zM508 90q77 0 151.5 25.5t136.5 82t81 134.5v170q-171 53 -336 53
q-133 0 -223.5 -67t-90.5 -169q0 -104 80 -166.5t201 -62.5z" />
    <glyph glyph-name="adieresis" unicode="&#xe4;" horiz-adv-x="1161" 
d="M401 1233q-35 0 -59.5 25t-24.5 59q0 33 24.5 58.5t59.5 25.5q33 0 58.5 -25.5t25.5 -58.5q0 -34 -25 -59t-59 -25zM795 1233q-35 0 -59.5 25t-24.5 59q0 33 24.5 58.5t59.5 25.5q33 0 58.5 -25.5t25.5 -58.5q0 -34 -25 -59t-59 -25zM580 1083q204 0 314 -120t110 -318
v-645h-127v168q-56 -90 -166.5 -141.5t-223.5 -51.5q-168 0 -276.5 93t-108.5 245q0 155 120 254t300 99q160 0 355 -64v43q0 63 -15.5 117.5t-49 103t-96 77t-147.5 28.5q-143 0 -313 -94l-51 104q192 102 375 102zM508 90q77 0 151.5 25.5t136.5 82t81 134.5v170
q-171 53 -336 53q-133 0 -223.5 -67t-90.5 -169q0 -104 80 -166.5t201 -62.5z" />
    <glyph glyph-name="aring" unicode="&#xe5;" horiz-adv-x="1161" 
d="M598 1206q-88 0 -149.5 61.5t-61.5 149.5t61.5 149.5t149.5 61.5t149.5 -61.5t61.5 -149.5t-61.5 -149.5t-149.5 -61.5zM598 1544q-52 0 -89.5 -37t-37.5 -90t37.5 -90t89.5 -37t89.5 37t37.5 90t-37.5 90t-89.5 37zM580 1083q204 0 314 -120t110 -318v-645h-127v168
q-56 -90 -166.5 -141.5t-223.5 -51.5q-168 0 -276.5 93t-108.5 245q0 155 120 254t300 99q160 0 355 -64v43q0 63 -15.5 117.5t-49 103t-96 77t-147.5 28.5q-143 0 -313 -94l-51 104q192 102 375 102zM508 90q77 0 151.5 25.5t136.5 82t81 134.5v170q-171 53 -336 53
q-133 0 -223.5 -67t-90.5 -169q0 -104 80 -166.5t201 -62.5z" />
    <glyph glyph-name="ae" unicode="&#xe6;" horiz-adv-x="1996" 
d="M1407 92q101 0 199 36.5t153 96.5l80 -86q-66 -72 -189.5 -118t-242.5 -46q-138 0 -259 71.5t-192 193.5q-61 -120 -181 -192.5t-267 -72.5q-187 0 -296.5 91.5t-109.5 246.5t120 254t300 99q160 0 355 -64v43q0 63 -15.5 117.5t-49 103t-96 77t-147.5 28.5
q-143 0 -313 -94l-51 104q192 102 375 102q145 0 243 -62.5t144 -174.5q71 110 185.5 173.5t246.5 63.5q233 0 367.5 -164t134.5 -440h-895q18 -167 129.5 -277t271.5 -110zM1403 967q-155 0 -265 -103.5t-130 -267.5h766q-12 165 -110 268t-261 103zM528 90q146 0 247.5 97
t101.5 237v78q-171 53 -336 53q-133 0 -223.5 -67t-90.5 -169q0 -106 81.5 -167.5t219.5 -61.5z" />
    <glyph glyph-name="ccedilla" unicode="&#xe7;" horiz-adv-x="1095" 
d="M668 -92q60 0 99.5 -37.5t39.5 -95.5q0 -73 -57 -120.5t-140 -47.5q-106 0 -176 57l37 80q58 -49 133 -49q44 0 75.5 25t31.5 59q0 32 -21.5 51.5t-60.5 19.5q-42 0 -70 -22l-33 35l49 117q-204 25 -340.5 180.5t-136.5 369.5q0 114 43 216.5t115.5 176t173 117
t211.5 43.5q104 0 200 -41t171 -114l-88 -86q-119 125 -283 125q-172 0 -291 -127t-119 -310q0 -184 119 -311t291 -127q82 0 156.5 34t130.5 95l88 -86q-145 -145 -344 -160l-29 -69q8 2 25 2z" />
    <glyph glyph-name="egrave" unicode="&#xe8;" horiz-adv-x="1218" 
d="M766 1180h-113l-274 262l135 31zM629 92q101 0 199 36.5t153 96.5l80 -86q-66 -72 -189.5 -118t-242.5 -46q-105 0 -202 43t-169.5 116.5t-116 177.5t-43.5 220q0 153 70.5 280t190.5 199t262 72q233 0 367 -164t134 -440h-895q18 -167 129.5 -277t272.5 -110zM625 967
q-155 0 -265.5 -103.5t-130.5 -267.5h766q-12 165 -109.5 268t-260.5 103z" />
    <glyph glyph-name="eacute" unicode="&#xe9;" horiz-adv-x="1218" 
d="M850 1442l-275 -262h-112l250 293zM629 92q101 0 199 36.5t153 96.5l80 -86q-66 -72 -189.5 -118t-242.5 -46q-105 0 -202 43t-169.5 116.5t-116 177.5t-43.5 220q0 153 70.5 280t190.5 199t262 72q233 0 367 -164t134 -440h-895q18 -167 129.5 -277t272.5 -110zM625 967
q-155 0 -265.5 -103.5t-130.5 -267.5h766q-12 165 -109.5 268t-260.5 103z" />
    <glyph glyph-name="ecircumflex" unicode="&#xea;" horiz-adv-x="1218" 
d="M621 1370l-164 -190h-109l209 280h125l213 -280h-109zM629 92q101 0 199 36.5t153 96.5l80 -86q-66 -72 -189.5 -118t-242.5 -46q-105 0 -202 43t-169.5 116.5t-116 177.5t-43.5 220q0 153 70.5 280t190.5 199t262 72q233 0 367 -164t134 -440h-895q18 -167 129.5 -277
t272.5 -110zM625 967q-155 0 -265.5 -103.5t-130.5 -267.5h766q-12 165 -109.5 268t-260.5 103z" />
    <glyph glyph-name="edieresis" unicode="&#xeb;" horiz-adv-x="1218" 
d="M424 1233q-35 0 -59.5 25t-24.5 59q0 33 24.5 58.5t59.5 25.5q33 0 58.5 -25.5t25.5 -58.5q0 -34 -25 -59t-59 -25zM817 1233q-35 0 -59.5 25t-24.5 59q0 33 24.5 58.5t59.5 25.5q33 0 58.5 -25.5t25.5 -58.5q0 -34 -25 -59t-59 -25zM629 92q101 0 199 36.5t153 96.5
l80 -86q-66 -72 -189.5 -118t-242.5 -46q-105 0 -202 43t-169.5 116.5t-116 177.5t-43.5 220q0 153 70.5 280t190.5 199t262 72q233 0 367 -164t134 -440h-895q18 -167 129.5 -277t272.5 -110zM625 967q-155 0 -265.5 -103.5t-130.5 -267.5h766q-12 165 -109.5 268
t-260.5 103z" />
    <glyph glyph-name="igrave" unicode="&#xec;" horiz-adv-x="434" 
d="M164 1180l-275 262l136 31l251 -293h-112zM154 0v1059h127v-1059h-127z" />
    <glyph glyph-name="iacute" unicode="&#xed;" horiz-adv-x="434" 
d="M160 1180l250 293l137 -31l-275 -262h-112zM154 0v1059h127v-1059h-127z" />
    <glyph glyph-name="icircumflex" unicode="&#xee;" horiz-adv-x="434" 
d="M-55 1180l209 280h125l213 -280h-109l-166 190l-164 -190h-108zM154 0v1059h127v-1059h-127z" />
    <glyph glyph-name="idieresis" unicode="&#xef;" horiz-adv-x="434" 
d="M20 1233q-35 0 -59 25t-24 59q0 33 24.5 58.5t58.5 25.5q33 0 58.5 -25.5t25.5 -58.5q0 -34 -25 -59t-59 -25zM414 1233q-35 0 -59.5 25t-24.5 59q0 33 24.5 58.5t59.5 25.5q33 0 58.5 -25.5t25.5 -58.5q0 -34 -25 -59t-59 -25zM154 0v1059h127v-1059h-127z" />
    <glyph glyph-name="eth" unicode="&#xf0;" horiz-adv-x="1273" 
d="M778 1251q183 -167 278 -341t95 -369q0 -249 -143 -407.5t-369 -158.5t-371 149.5t-145 381.5q0 227 136.5 372.5t348.5 145.5t350 -172q-92 176 -290 350l-254 -112l-47 106l198 88q-60 49 -176 127l125 53q88 -64 168 -129l201 90l47 -106zM639 92q166 0 272.5 115.5
t106.5 296.5q0 175 -105.5 290t-277.5 115q-167 0 -274 -113.5t-107 -291.5q0 -180 108 -296t277 -116z" />
    <glyph glyph-name="ntilde" unicode="&#xf1;" 
d="M481 1321q-82 0 -106 -147l-86 14q14 114 62.5 174.5t129.5 60.5q41 0 80.5 -21t65.5 -46.5t58 -46.5t60 -21q80 0 107 148l86 -15q-14 -114 -63 -174.5t-130 -60.5q-41 0 -80.5 21t-65.5 46.5t-58 46.5t-60 21zM633 1083q175 0 286 -113t111 -290v-680h-127v664
q0 133 -80.5 218t-206.5 85q-139 0 -235 -85t-96 -208v-674h-127v1059h127v-174q43 89 137.5 143.5t210.5 54.5z" />
    <glyph glyph-name="ograve" unicode="&#xf2;" horiz-adv-x="1292" 
d="M680 1180l-274 262l135 31l252 -293h-113zM647 -25q-109 0 -210.5 45t-175.5 119.5t-118.5 177t-44.5 213.5q0 148 75 275.5t201.5 202.5t272.5 75q109 0 210.5 -44.5t175 -119t117.5 -176.5t44 -213t-44 -213.5t-117.5 -177.5t-175 -119.5t-210.5 -44.5zM647 92
q169 0 291.5 129t122.5 309q0 178 -122.5 307.5t-291.5 129.5q-170 0 -293 -129t-123 -308q0 -180 123 -309t293 -129z" />
    <glyph glyph-name="oacute" unicode="&#xf3;" horiz-adv-x="1292" 
d="M489 1180l250 293l138 -31l-275 -262h-113zM647 -25q-109 0 -210.5 45t-175.5 119.5t-118.5 177t-44.5 213.5q0 148 75 275.5t201.5 202.5t272.5 75q109 0 210.5 -44.5t175 -119t117.5 -176.5t44 -213t-44 -213.5t-117.5 -177.5t-175 -119.5t-210.5 -44.5zM647 92
q169 0 291.5 129t122.5 309q0 178 -122.5 307.5t-291.5 129.5q-170 0 -293 -129t-123 -308q0 -180 123 -309t293 -129z" />
    <glyph glyph-name="ocircumflex" unicode="&#xf4;" horiz-adv-x="1292" 
d="M375 1180l209 280h125l213 -280h-109l-166 190l-164 -190h-108zM647 -25q-109 0 -210.5 45t-175.5 119.5t-118.5 177t-44.5 213.5q0 148 75 275.5t201.5 202.5t272.5 75q109 0 210.5 -44.5t175 -119t117.5 -176.5t44 -213t-44 -213.5t-117.5 -177.5t-175 -119.5
t-210.5 -44.5zM647 92q169 0 291.5 129t122.5 309q0 178 -122.5 307.5t-291.5 129.5q-170 0 -293 -129t-123 -308q0 -180 123 -309t293 -129z" />
    <glyph glyph-name="otilde" unicode="&#xf5;" horiz-adv-x="1292" 
d="M778 1186q-41 0 -80.5 21t-65.5 46.5t-58 46.5t-60 21q-82 0 -106 -147l-86 14q14 114 62.5 174.5t129.5 60.5q41 0 80.5 -21t65.5 -46.5t58 -46.5t60 -21q80 0 107 148l86 -15q-14 -114 -63 -174.5t-130 -60.5zM647 -25q-109 0 -210.5 45t-175.5 119.5t-118.5 177
t-44.5 213.5q0 148 75 275.5t201.5 202.5t272.5 75q109 0 210.5 -44.5t175 -119t117.5 -176.5t44 -213t-44 -213.5t-117.5 -177.5t-175 -119.5t-210.5 -44.5zM647 92q169 0 291.5 129t122.5 309q0 178 -122.5 307.5t-291.5 129.5q-170 0 -293 -129t-123 -308
q0 -180 123 -309t293 -129z" />
    <glyph glyph-name="odieresis" unicode="&#xf6;" horiz-adv-x="1292" 
d="M451 1233q-35 0 -59.5 25t-24.5 59q0 33 24.5 58.5t59.5 25.5q33 0 58.5 -25.5t25.5 -58.5q0 -34 -25 -59t-59 -25zM844 1233q-35 0 -59.5 25t-24.5 59q0 33 24.5 58.5t59.5 25.5q33 0 58.5 -25.5t25.5 -58.5q0 -34 -25 -59t-59 -25zM647 -25q-109 0 -210.5 45
t-175.5 119.5t-118.5 177t-44.5 213.5q0 148 75 275.5t201.5 202.5t272.5 75q109 0 210.5 -44.5t175 -119t117.5 -176.5t44 -213t-44 -213.5t-117.5 -177.5t-175 -119.5t-210.5 -44.5zM647 92q169 0 291.5 129t122.5 309q0 178 -122.5 307.5t-291.5 129.5q-170 0 -293 -129
t-123 -308q0 -180 123 -309t293 -129z" />
    <glyph glyph-name="divide" unicode="&#xf7;" horiz-adv-x="1214" 
d="M610 922q-41 0 -68.5 28t-27.5 68q0 37 27.5 64.5t68.5 27.5q38 0 65 -27.5t27 -64.5q0 -40 -27 -68t-65 -28zM137 621v127h940v-127h-940zM610 258q-41 0 -68.5 28t-27.5 68q0 37 27.5 64.5t68.5 27.5q38 0 65 -27.5t27 -64.5q0 -40 -27 -68t-65 -28z" />
    <glyph glyph-name="oslash" unicode="&#xf8;" horiz-adv-x="1292" 
d="M1044 905q70 -75 110 -172.5t40 -202.5q0 -111 -44 -213.5t-117.5 -177.5t-175 -119.5t-210.5 -44.5q-168 0 -309 101l-66 -76h-149l129 150q-72 77 -113 175.5t-41 204.5q0 148 75 275.5t201.5 202.5t272.5 75q168 0 314 -102l65 78h150zM231 530q0 -155 101 -284
l549 643q-108 78 -234 78q-170 0 -293 -129t-123 -308zM647 92q169 0 291.5 129t122.5 309q0 157 -98 279l-547 -641q107 -76 231 -76z" />
    <glyph glyph-name="ugrave" unicode="&#xf9;" 
d="M735 1180h-112l-275 262l135 31zM901 1059h127v-1059h-127v174q-43 -89 -137.5 -144t-210.5 -55q-175 0 -286 113.5t-111 290.5v680h127v-664q0 -133 80 -218t206 -85q139 0 235.5 85t96.5 208v674z" />
    <glyph glyph-name="uacute" unicode="&#xfa;" 
d="M819 1442l-274 -262h-113l250 293zM901 1059h127v-1059h-127v174q-43 -89 -137.5 -144t-210.5 -55q-175 0 -286 113.5t-111 290.5v680h127v-664q0 -133 80 -218t206 -85q139 0 235.5 85t96.5 208v674z" />
    <glyph glyph-name="ucircumflex" unicode="&#xfb;" 
d="M590 1370l-164 -190h-109l209 280h125l213 -280h-108zM901 1059h127v-1059h-127v174q-43 -89 -137.5 -144t-210.5 -55q-175 0 -286 113.5t-111 290.5v680h127v-664q0 -133 80 -218t206 -85q139 0 235.5 85t96.5 208v674z" />
    <glyph glyph-name="udieresis" unicode="&#xfc;" 
d="M393 1233q-35 0 -59.5 25t-24.5 59q0 33 24.5 58.5t59.5 25.5q33 0 58.5 -25.5t25.5 -58.5q0 -34 -25 -59t-59 -25zM786 1233q-35 0 -59.5 25t-24.5 59q0 33 24.5 58.5t59.5 25.5q33 0 58.5 -25.5t25.5 -58.5q0 -34 -25 -59t-59 -25zM901 1059h127v-1059h-127v174
q-43 -89 -137.5 -144t-210.5 -55q-175 0 -286 113.5t-111 290.5v680h127v-664q0 -133 80 -218t206 -85q139 0 235.5 85t96.5 208v674z" />
    <glyph glyph-name="yacute" unicode="&#xfd;" horiz-adv-x="1196" 
d="M434 1180l250 293l137 -31l-274 -262h-113zM295 -369q-93 0 -168 35l33 113q60 -31 131 -31q117 0 172 98l63 138l-465 1075h140l391 -924l371 924h137l-488 -1190q-50 -124 -127 -180t-190 -58z" />
    <glyph glyph-name="thorn" unicode="&#xfe;" horiz-adv-x="1286" 
d="M692 1083q134 0 245 -72t175 -199t64 -282q0 -156 -64 -283.5t-175 -199.5t-245 -72q-128 0 -230 61.5t-165 170.5v-559h-127v1784h127v-580q63 109 165 170t230 61zM670 92q160 0 267 125.5t107 312.5t-107 312t-267 125q-164 0 -268.5 -122.5t-104.5 -314.5t104.5 -315
t268.5 -123z" />
    <glyph glyph-name="ydieresis" unicode="&#xff;" horiz-adv-x="1196" 
d="M395 1233q-35 0 -59.5 25t-24.5 59q0 33 24.5 58.5t59.5 25.5q33 0 58.5 -25.5t25.5 -58.5q0 -34 -25 -59t-59 -25zM788 1233q-35 0 -59 25t-24 59q0 33 24.5 58.5t58.5 25.5q33 0 58.5 -25.5t25.5 -58.5q0 -34 -25 -59t-59 -25zM295 -369q-93 0 -168 35l33 113
q60 -31 131 -31q117 0 172 98l63 138l-465 1075h140l391 -924l371 924h137l-488 -1190q-50 -124 -127 -180t-190 -58z" />
    <glyph glyph-name="Amacron" unicode="&#x100;" horiz-adv-x="1515" 
d="M1075 1671v-100h-635v100h635zM1307 0l-146 332h-807l-145 -332h-143l620 1407h143l621 -1407h-143zM412 459h692l-346 786z" />
    <glyph glyph-name="amacron" unicode="&#x101;" horiz-adv-x="1161" 
d="M915 1323v-100h-634v100h634zM580 1083q204 0 314 -120t110 -318v-645h-127v168q-56 -90 -166.5 -141.5t-223.5 -51.5q-168 0 -276.5 93t-108.5 245q0 155 120 254t300 99q160 0 355 -64v43q0 63 -15.5 117.5t-49 103t-96 77t-147.5 28.5q-143 0 -313 -94l-51 104
q192 102 375 102zM508 90q77 0 151.5 25.5t136.5 82t81 134.5v170q-171 53 -336 53q-133 0 -223.5 -67t-90.5 -169q0 -104 80 -166.5t201 -62.5z" />
    <glyph glyph-name="Abreve" unicode="&#x102;" horiz-adv-x="1515" 
d="M1057 1677q-123 -123 -299 -123q-173 0 -299 123l82 82q93 -90 217 -90t217 90zM1307 0l-146 332h-807l-145 -332h-143l620 1407h143l621 -1407h-143zM412 459h692l-346 786z" />
    <glyph glyph-name="abreve" unicode="&#x103;" horiz-adv-x="1161" 
d="M897 1329q-123 -123 -299 -123q-173 0 -299 123l82 82q93 -90 217 -90t217 90zM580 1083q204 0 314 -120t110 -318v-645h-127v168q-56 -90 -166.5 -141.5t-223.5 -51.5q-168 0 -276.5 93t-108.5 245q0 155 120 254t300 99q160 0 355 -64v43q0 63 -15.5 117.5t-49 103
t-96 77t-147.5 28.5q-143 0 -313 -94l-51 104q192 102 375 102zM508 90q77 0 151.5 25.5t136.5 82t81 134.5v170q-171 53 -336 53q-133 0 -223.5 -67t-90.5 -169q0 -104 80 -166.5t201 -62.5z" />
    <glyph glyph-name="Aogonek" unicode="&#x104;" horiz-adv-x="1515" 
d="M1554 -207l58 -88q-71 -59 -172 -59q-97 0 -157 58.5t-60 156.5q0 47 21 88.5t56 66.5l-139 316h-807l-145 -332h-143l620 1407h143l621 -1407q-57 0 -92 -34.5t-35 -90.5q0 -59 33.5 -92t93.5 -33q64 0 104 43zM412 459h692l-346 786z" />
    <glyph glyph-name="aogonek" unicode="&#x105;" horiz-adv-x="1161" 
d="M1108 -207l57 -88q-71 -59 -172 -59q-97 0 -157 58.5t-60 156.5q0 55 28.5 101.5t72.5 68.5v137q-56 -90 -166.5 -141.5t-223.5 -51.5q-168 0 -276.5 93t-108.5 245q0 155 120 254t300 99q160 0 355 -64v43q0 63 -15.5 117.5t-49 103t-96 77t-147.5 28.5q-143 0 -313 -94
l-51 104q192 102 375 102q204 0 314 -120t110 -318v-645q-57 0 -92 -34.5t-35 -90.5q0 -59 33.5 -92t93.5 -33q64 0 104 43zM508 90q77 0 151.5 25.5t136.5 82t81 134.5v170q-171 53 -336 53q-133 0 -223.5 -67t-90.5 -169q0 -104 80 -166.5t201 -62.5z" />
    <glyph glyph-name="Cacute" unicode="&#x106;" horiz-adv-x="1392" 
d="M635 1528l250 293l137 -31l-274 -262h-113zM827 -25q-191 0 -357.5 99.5t-265 268t-98.5 362.5q0 145 58.5 279.5t156 232.5t230.5 156.5t276 58.5q144 0 275 -56.5t231 -158.5l-90 -91q-81 85 -189.5 134t-226.5 49q-117 0 -225.5 -48.5t-188 -130t-126.5 -193
t-47 -232.5q0 -162 79.5 -302t215 -222.5t292.5 -82.5q118 0 226.5 49.5t189.5 135.5l90 -93q-101 -101 -232 -158t-274 -57z" />
    <glyph glyph-name="cacute" unicode="&#x107;" horiz-adv-x="1095" 
d="M442 1180l250 293l137 -31l-274 -262h-113zM641 -25q-111 0 -211.5 43.5t-173 117.5t-115.5 177t-43 217t43 216.5t115.5 176t173 117t211.5 43.5q104 0 200 -41t171 -114l-88 -86q-119 125 -283 125q-172 0 -291 -127t-119 -310q0 -184 119 -311t291 -127q82 0 156.5 34
t130.5 95l88 -86q-75 -75 -172.5 -117.5t-202.5 -42.5z" />
    <glyph glyph-name="Ccaron" unicode="&#x10c;" horiz-adv-x="1392" 
d="M729 1528l-209 280h109l164 -190l165 190h109l-213 -280h-125zM827 -25q-191 0 -357.5 99.5t-265 268t-98.5 362.5q0 145 58.5 279.5t156 232.5t230.5 156.5t276 58.5q144 0 275 -56.5t231 -158.5l-90 -91q-81 85 -189.5 134t-226.5 49q-117 0 -225.5 -48.5t-188 -130
t-126.5 -193t-47 -232.5q0 -162 79.5 -302t215 -222.5t292.5 -82.5q118 0 226.5 49.5t189.5 135.5l90 -93q-101 -101 -232 -158t-274 -57z" />
    <glyph glyph-name="ccaron" unicode="&#x10d;" horiz-adv-x="1095" 
d="M537 1180l-209 280h108l164 -190l166 190h108l-212 -280h-125zM641 -25q-111 0 -211.5 43.5t-173 117.5t-115.5 177t-43 217t43 216.5t115.5 176t173 117t211.5 43.5q104 0 200 -41t171 -114l-88 -86q-119 125 -283 125q-172 0 -291 -127t-119 -310q0 -184 119 -311
t291 -127q82 0 156.5 34t130.5 95l88 -86q-75 -75 -172.5 -117.5t-202.5 -42.5z" />
    <glyph glyph-name="Dcaron" unicode="&#x10e;" horiz-adv-x="1548" 
d="M606 1528l-209 280h109l164 -190l166 190h108l-213 -280h-125zM193 0v1407h477q216 0 386.5 -89t265.5 -249t95 -364t-95 -364.5t-265.5 -250.5t-386.5 -90h-477zM324 121h346q270 0 443 164t173 420q0 255 -173 418t-443 163h-346v-1165z" />
    <glyph glyph-name="dcaron" unicode="&#x10f;" horiz-adv-x="1286" 
d="M989 852v580h127v-1432h-127v207q-63 -109 -165 -170.5t-230 -61.5q-134 0 -245 72t-174.5 199.5t-63.5 283.5q0 155 63.5 282t174.5 199t245 72q128 0 230 -61t165 -170zM1354 1432q41 0 66.5 -33.5t25.5 -87.5q0 -53 -28.5 -110.5t-100.5 -149.5l-62 45q79 89 97 170
q-35 0 -58.5 25t-23.5 59t24 58t60 24zM616 92q164 0 268.5 123t104.5 315t-104.5 314.5t-268.5 122.5q-160 0 -267 -125t-107 -312t107 -312.5t267 -125.5z" />
    <glyph glyph-name="Dcroat" unicode="&#x110;" horiz-adv-x="1593" 
d="M715 1407q216 0 386.5 -89t265.5 -249t95 -364t-95 -364.5t-265.5 -250.5t-386.5 -90h-477v653h-152v127h152v627h477zM715 121q270 0 443 164t173 420q0 255 -173 418t-443 163h-346v-506h432l-2 -127h-430v-532h346z" />
    <glyph glyph-name="dcroat" unicode="&#x111;" horiz-adv-x="1325" 
d="M1249 1296v-94h-133v-1202h-127v207q-63 -109 -165 -170.5t-230 -61.5q-134 0 -245 72t-174.5 199.5t-63.5 283.5q0 155 63.5 282t174.5 199t245 72q128 0 230 -61t165 -170v350h-360v94h360v136h127v-136h133zM616 92q164 0 268.5 123t104.5 315t-104.5 314.5
t-268.5 122.5q-160 0 -267 -125t-107 -312t107 -312.5t267 -125.5z" />
    <glyph glyph-name="Emacron" unicode="&#x112;" horiz-adv-x="1255" 
d="M971 1671v-100h-635v100h635zM1143 1282h-848v-502h770v-127h-770v-528h848v-125h-981v1407h981v-125z" />
    <glyph glyph-name="emacron" unicode="&#x113;" horiz-adv-x="1218" 
d="M938 1323v-100h-635v100h635zM629 92q101 0 199 36.5t153 96.5l80 -86q-66 -72 -189.5 -118t-242.5 -46q-105 0 -202 43t-169.5 116.5t-116 177.5t-43.5 220q0 153 70.5 280t190.5 199t262 72q233 0 367 -164t134 -440h-895q18 -167 129.5 -277t272.5 -110zM625 967
q-155 0 -265.5 -103.5t-130.5 -267.5h766q-12 165 -109.5 268t-260.5 103z" />
    <glyph glyph-name="Edotaccent" unicode="&#x116;" horiz-adv-x="1255" 
d="M653 1581q-35 0 -59.5 25t-24.5 59q0 33 24.5 58.5t59.5 25.5q33 0 57.5 -25.5t24.5 -58.5q0 -34 -24 -59t-58 -25zM1143 1282h-848v-502h770v-127h-770v-528h848v-125h-981v1407h981v-125z" />
    <glyph glyph-name="edotaccent" unicode="&#x117;" horiz-adv-x="1218" 
d="M621 1233q-35 0 -59.5 25t-24.5 59q0 33 24.5 58.5t59.5 25.5q33 0 57 -25.5t24 -58.5q0 -34 -24 -59t-57 -25zM629 92q101 0 199 36.5t153 96.5l80 -86q-66 -72 -189.5 -118t-242.5 -46q-105 0 -202 43t-169.5 116.5t-116 177.5t-43.5 220q0 153 70.5 280t190.5 199
t262 72q233 0 367 -164t134 -440h-895q18 -167 129.5 -277t272.5 -110zM625 967q-155 0 -265.5 -103.5t-130.5 -267.5h766q-12 165 -109.5 268t-260.5 103z" />
    <glyph glyph-name="Eogonek" unicode="&#x118;" horiz-adv-x="1255" 
d="M1143 1282h-848v-502h770v-127h-770v-528h848v-125h-162q-57 0 -92 -34.5t-35 -90.5q0 -59 33.5 -92t93.5 -33q64 0 104 43l58 -88q-71 -59 -172 -59q-97 0 -157 58.5t-60 156.5q0 82 57 139h-649v1407h981v-125z" />
    <glyph glyph-name="eogonek" unicode="&#x119;" horiz-adv-x="1218" 
d="M811 2q-39 -36 -39 -94q0 -59 33.5 -92t93.5 -33q65 0 105 43l57 -88q-72 -60 -172 -60q-96 0 -156.5 58.5t-60.5 157.5q0 45 18 86q-50 -5 -61 -5q-105 0 -202 43t-169.5 116.5t-116 177.5t-43.5 220q0 153 70.5 280t190.5 199t262 72q233 0 367 -164t134 -440h-895
q18 -167 129.5 -277t272.5 -110q101 0 199 36.5t153 96.5l80 -86q-83 -92 -250 -137zM625 967q-155 0 -265.5 -103.5t-130.5 -267.5h766q-12 165 -109.5 268t-260.5 103z" />
    <glyph glyph-name="Ecaron" unicode="&#x11a;" horiz-adv-x="1255" 
d="M715 1528h-125l-209 280h108l164 -190l166 190h109zM1143 1282h-848v-502h770v-127h-770v-528h848v-125h-981v1407h981v-125z" />
    <glyph glyph-name="ecaron" unicode="&#x11b;" horiz-adv-x="1218" 
d="M682 1180h-125l-209 280h109l164 -190l165 190h109zM629 92q101 0 199 36.5t153 96.5l80 -86q-66 -72 -189.5 -118t-242.5 -46q-105 0 -202 43t-169.5 116.5t-116 177.5t-43.5 220q0 153 70.5 280t190.5 199t262 72q233 0 367 -164t134 -440h-895q18 -167 129.5 -277
t272.5 -110zM625 967q-155 0 -265.5 -103.5t-130.5 -267.5h766q-12 165 -109.5 268t-260.5 103z" />
    <glyph glyph-name="Gbreve" unicode="&#x11e;" horiz-adv-x="1523" 
d="M1126 1677q-123 -123 -299 -123q-173 0 -299 123l82 82q93 -90 217 -90t217 90zM809 602v125h563v-539q-100 -97 -248 -155t-297 -58q-191 0 -357.5 99.5t-265 268t-98.5 362.5q0 145 58.5 279.5t156 232.5t230.5 156.5t276 58.5q150 0 298 -57.5t247 -155.5l-90 -93
q-83 84 -206.5 133.5t-248.5 49.5q-117 0 -225.5 -48.5t-188 -130t-126.5 -193t-47 -232.5q0 -162 79.5 -302t215 -222.5t292.5 -82.5q109 0 219 38.5t195 105.5v360h-432z" />
    <glyph glyph-name="gbreve" unicode="&#x11f;" horiz-adv-x="1275" 
d="M938 1329q-123 -123 -299 -123q-173 0 -299 123l82 82q93 -90 217 -90t217 90zM979 1059h127v-946q0 -204 -142 -334.5t-366 -130.5q-122 0 -238 39t-190 102l57 102q64 -58 160.5 -92.5t196.5 -34.5q182 0 288.5 94t106.5 255v192q-62 -108 -167.5 -167.5t-236.5 -59.5
q-206 0 -342.5 143.5t-136.5 360.5q0 215 136.5 358t342.5 143q133 0 237.5 -58.5t166.5 -166.5v201zM598 195q166 0 273.5 108.5t107.5 278.5q0 168 -107.5 276.5t-273.5 108.5q-158 0 -264.5 -110.5t-106.5 -274.5q0 -166 106.5 -276.5t264.5 -110.5z" />
    <glyph glyph-name="Gcommaaccent" unicode="&#x122;" horiz-adv-x="1523" 
d="M809 602v125h563v-539q-100 -97 -248 -155t-297 -58q-191 0 -357.5 99.5t-265 268t-98.5 362.5q0 145 58.5 279.5t156 232.5t230.5 156.5t276 58.5q150 0 298 -57.5t247 -155.5l-90 -93q-83 84 -206.5 133.5t-248.5 49.5q-117 0 -225.5 -48.5t-188 -130t-126.5 -193
t-47 -232.5q0 -162 79.5 -302t215 -222.5t292.5 -82.5q109 0 219 38.5t195 105.5v360h-432zM821 -178q41 0 66.5 -33.5t25.5 -87.5q0 -53 -28.5 -110.5t-100.5 -149.5l-61 45q78 88 96 170q-35 0 -58.5 25t-23.5 59t24 58t60 24z" />
    <glyph glyph-name="gcommaaccent" unicode="&#x123;" horiz-adv-x="1275" 
d="M621 1235q-41 0 -67 33.5t-26 87.5q0 53 28.5 110.5t100.5 149.5l62 -45q-78 -88 -96 -170q35 0 58.5 -25t23.5 -59t-24 -58t-60 -24zM979 1059h127v-946q0 -204 -142 -334.5t-366 -130.5q-122 0 -238 39t-190 102l57 102q64 -58 160.5 -92.5t196.5 -34.5q182 0 288.5 94
t106.5 255v192q-62 -108 -167.5 -167.5t-236.5 -59.5q-206 0 -342.5 143.5t-136.5 360.5q0 215 136.5 358t342.5 143q133 0 237.5 -58.5t166.5 -166.5v201zM598 195q166 0 273.5 108.5t107.5 278.5q0 168 -107.5 276.5t-273.5 108.5q-158 0 -264.5 -110.5t-106.5 -274.5
q0 -166 106.5 -276.5t264.5 -110.5z" />
    <glyph glyph-name="Imacron" unicode="&#x12a;" horiz-adv-x="454" 
d="M-90 1571v100h635v-100h-635zM162 0v1407h131v-1407h-131z" />
    <glyph glyph-name="imacron" unicode="&#x12b;" horiz-adv-x="434" 
d="M-100 1223v100h635v-100h-635zM154 0v1059h127v-1059h-127z" />
    <glyph glyph-name="Iogonek" unicode="&#x12e;" horiz-adv-x="454" 
d="M397 -207l58 -88q-71 -59 -172 -59q-97 0 -157 58.5t-60 156.5q0 54 26.5 99t69.5 69v1378h131v-1407q-57 0 -92 -34.5t-35 -90.5q0 -59 33.5 -92t93.5 -33q64 0 104 43z" />
    <glyph glyph-name="iogonek" unicode="&#x12f;" horiz-adv-x="434" 
d="M217 1233q-35 0 -59.5 25t-24.5 59q0 33 24.5 58.5t59.5 25.5q33 0 57.5 -25.5t24.5 -58.5q0 -34 -24 -59t-58 -25zM322 -207l57 -88q-71 -59 -172 -59q-97 0 -157 58.5t-60 156.5q0 64 36 114.5t91 65.5l37 -14v1032h127v-1059h-64q-57 0 -92 -34.5t-35 -90.5
q0 -59 33.5 -92t93.5 -33q65 0 105 43z" />
    <glyph glyph-name="Idotaccent" unicode="&#x130;" horiz-adv-x="454" 
d="M227 1581q-35 0 -59.5 25t-24.5 59q0 33 24.5 58.5t59.5 25.5q33 0 57.5 -25.5t24.5 -58.5q0 -34 -24 -59t-58 -25zM162 0v1407h131v-1407h-131z" />
    <glyph glyph-name="dotlessi" unicode="&#x131;" horiz-adv-x="434" 
d="M154 0v1059h127v-1059h-127z" />
    <glyph glyph-name="Kcommaaccent" unicode="&#x136;" horiz-adv-x="1318" 
d="M188 0v1407h131v-813l744 813h174l-590 -641l631 -766h-170l-551 676l-238 -254v-422h-131zM647 -559l-61 45q78 88 96 170q-35 0 -58.5 25t-23.5 59t24 58t60 24q41 0 66.5 -33.5t25.5 -87.5q0 -53 -28.5 -110.5t-100.5 -149.5z" />
    <glyph glyph-name="kcommaaccent" unicode="&#x137;" horiz-adv-x="1083" 
d="M1055 1059l-477 -486l450 -573h-160l-381 487l-206 -208v-279h-127v1432h127v-990l608 617h166zM555 -178q41 0 66.5 -33.5t25.5 -87.5q0 -53 -28.5 -110.5t-100.5 -149.5l-61 45q78 88 96 170q-35 0 -58.5 25t-23.5 59t24 58t60 24z" />
    <glyph glyph-name="Lacute" unicode="&#x139;" horiz-adv-x="1122" 
d="M537 1790l-275 -262h-112l249 293zM270 125h783v-125h-914v1407h131v-1282z" />
    <glyph glyph-name="lacute" unicode="&#x13a;" horiz-adv-x="438" 
d="M166 1552l250 293l137 -30l-274 -263h-113zM156 0v1432h127v-1432h-127z" />
    <glyph glyph-name="Lcaron" unicode="&#x13d;" horiz-adv-x="1122" 
d="M471 1051l-61 45q78 88 96 170q-35 0 -58.5 25t-23.5 59t24 58t60 24q41 0 66.5 -33.5t25.5 -87.5q0 -53 -28.5 -110.5t-100.5 -149.5zM270 125h783v-125h-914v1407h131v-1282z" />
    <glyph glyph-name="lcaron" unicode="&#x13e;" horiz-adv-x="438" 
d="M156 0v1432h127v-1432h-127zM483 1051l-61 45q78 88 96 170q-35 0 -58.5 25t-23.5 59t24 58t60 24q41 0 66.5 -33.5t25.5 -87.5q0 -53 -28.5 -110.5t-100.5 -149.5z" />
    <glyph glyph-name="Lslash" unicode="&#x141;" horiz-adv-x="1243" 
d="M391 125h783v-125h-914v586l-184 -94v131l184 94v690h131v-623l297 154v-131l-297 -154v-528z" />
    <glyph glyph-name="lslash" unicode="&#x142;" horiz-adv-x="602" 
d="M526 852v-131l-166 -86v-635h-127v571l-157 -82v132l157 81v730h127v-666z" />
    <glyph glyph-name="Nacute" unicode="&#x143;" horiz-adv-x="1548" 
d="M616 1528l250 293l138 -31l-275 -262h-113zM193 0v1407h131l901 -1194v1194h131v-1407h-131l-901 1194v-1194h-131z" />
    <glyph glyph-name="nacute" unicode="&#x144;" 
d="M844 1442l-275 -262h-112l250 293zM633 1083q175 0 286 -113t111 -290v-680h-127v664q0 133 -80.5 218t-206.5 85q-139 0 -235 -85t-96 -208v-674h-127v1059h127v-174q43 89 137.5 143.5t210.5 54.5z" />
    <glyph glyph-name="Ncommaaccent" unicode="&#x145;" horiz-adv-x="1548" 
d="M193 0v1407h131l901 -1194v1194h131v-1407h-131l-901 1194v-1194h-131zM737 -559l-61 45q78 88 96 170q-35 0 -58.5 25t-23.5 59t24 58t60 24q41 0 66.5 -33.5t25.5 -87.5q0 -53 -28.5 -110.5t-100.5 -149.5z" />
    <glyph glyph-name="ncommaaccent" unicode="&#x146;" 
d="M633 1083q175 0 286 -113t111 -290v-680h-127v664q0 133 -80.5 218t-206.5 85q-139 0 -235 -85t-96 -208v-674h-127v1059h127v-174q43 89 137.5 143.5t210.5 54.5zM614 -178q41 0 67 -33.5t26 -87.5q0 -53 -28.5 -110.5t-100.5 -149.5l-62 45q78 88 96 170
q-35 0 -58.5 25t-23.5 59t24 58t60 24z" />
    <glyph glyph-name="Ncaron" unicode="&#x147;" horiz-adv-x="1548" 
d="M711 1528l-209 280h108l164 -190l166 190h109l-213 -280h-125zM193 0v1407h131l901 -1194v1194h131v-1407h-131l-901 1194v-1194h-131z" />
    <glyph glyph-name="ncaron" unicode="&#x148;" 
d="M676 1180h-125l-209 280h109l163 -190l166 190h109zM633 1083q175 0 286 -113t111 -290v-680h-127v664q0 133 -80.5 218t-206.5 85q-139 0 -235 -85t-96 -208v-674h-127v1059h127v-174q43 89 137.5 143.5t210.5 54.5z" />
    <glyph glyph-name="Omacron" unicode="&#x14c;" horiz-adv-x="1652" 
d="M510 1571v100h635v-100h-635zM827 -25q-191 0 -357.5 99.5t-265 268t-98.5 362.5q0 145 58.5 279.5t156 232.5t230.5 156.5t276 58.5q144 0 277 -58.5t229.5 -156.5t154.5 -232.5t58 -279.5q0 -194 -97.5 -362.5t-263.5 -268t-358 -99.5zM827 98q157 0 292 82.5
t214.5 222.5t79.5 302q0 161 -79.5 300.5t-214.5 221.5t-292 82q-117 0 -225.5 -48.5t-188 -130t-126.5 -193t-47 -232.5q0 -162 79.5 -302t215 -222.5t292.5 -82.5z" />
    <glyph glyph-name="omacron" unicode="&#x14d;" horiz-adv-x="1292" 
d="M330 1223v100h635v-100h-635zM647 -25q-109 0 -210.5 45t-175.5 119.5t-118.5 177t-44.5 213.5q0 148 75 275.5t201.5 202.5t272.5 75q109 0 210.5 -44.5t175 -119t117.5 -176.5t44 -213t-44 -213.5t-117.5 -177.5t-175 -119.5t-210.5 -44.5zM647 92q169 0 291.5 129
t122.5 309q0 178 -122.5 307.5t-291.5 129.5q-170 0 -293 -129t-123 -308q0 -180 123 -309t293 -129z" />
    <glyph glyph-name="Ohungarumlaut" unicode="&#x150;" horiz-adv-x="1652" 
d="M559 1526l250 295l137 -31l-274 -264h-113zM946 1526l250 293l135 -31l-274 -262h-111zM827 -25q-191 0 -357.5 99.5t-265 268t-98.5 362.5q0 145 58.5 279.5t156 232.5t230.5 156.5t276 58.5q144 0 277 -58.5t229.5 -156.5t154.5 -232.5t58 -279.5q0 -194 -97.5 -362.5
t-263.5 -268t-358 -99.5zM827 98q157 0 292 82.5t214.5 222.5t79.5 302q0 161 -79.5 300.5t-214.5 221.5t-292 82q-117 0 -225.5 -48.5t-188 -130t-126.5 -193t-47 -232.5q0 -162 79.5 -302t215 -222.5t292.5 -82.5z" />
    <glyph glyph-name="ohungarumlaut" unicode="&#x151;" horiz-adv-x="1292" 
d="M387 1178l250 295l137 -31l-274 -264h-113zM774 1178l250 292l135 -30l-274 -262h-111zM647 -25q-109 0 -210.5 45t-175.5 119.5t-118.5 177t-44.5 213.5q0 148 75 275.5t201.5 202.5t272.5 75q109 0 210.5 -44.5t175 -119t117.5 -176.5t44 -213t-44 -213.5
t-117.5 -177.5t-175 -119.5t-210.5 -44.5zM647 92q169 0 291.5 129t122.5 309q0 178 -122.5 307.5t-291.5 129.5q-170 0 -293 -129t-123 -308q0 -180 123 -309t293 -129z" />
    <glyph glyph-name="OE" unicode="&#x152;" horiz-adv-x="2084" 
d="M1972 1282h-848v-502h770v-127h-770v-528h848v-125h-1145q-193 0 -358 89t-264 248.5t-99 352.5q0 145 58.5 278t156 229t230.5 153t276 57h1145v-125zM827 123h164v1161h-164q-118 0 -226 -47t-187.5 -126.5t-126.5 -189.5t-47 -231q0 -160 80 -291t214.5 -203.5
t292.5 -72.5z" />
    <glyph glyph-name="oe" unicode="&#x153;" horiz-adv-x="2183" 
d="M1593 92q101 0 199.5 37t153.5 96l79 -86q-66 -72 -189.5 -118t-242.5 -46q-147 0 -272.5 79.5t-194.5 213.5q-72 -133 -200 -213t-279 -80q-109 0 -210.5 45t-175.5 119.5t-118.5 177t-44.5 213.5q0 148 75 275.5t201.5 202.5t272.5 75q150 0 277.5 -78t199.5 -208
q67 132 190 209t271 77q233 0 367.5 -164t134.5 -440h-895q18 -167 129.5 -277t271.5 -110zM647 92q169 0 291.5 129t122.5 309q0 178 -122.5 307.5t-291.5 129.5q-170 0 -293 -129t-123 -308q0 -180 123 -309t293 -129zM1589 967q-155 0 -265 -103.5t-130 -267.5h766
q-12 165 -110 268t-261 103z" />
    <glyph glyph-name="Racute" unicode="&#x154;" horiz-adv-x="1323" 
d="M907 1790l-274 -262h-113l250 293zM1247 963q0 -168 -111 -286.5t-290 -148.5l373 -528h-152l-367 520h-407v-520h-131v1407h577q218 0 363 -125t145 -319zM293 1282v-637h424q179 0 289 86.5t110 231.5q0 146 -110 232.5t-289 86.5h-424z" />
    <glyph glyph-name="racute" unicode="&#x155;" horiz-adv-x="763" 
d="M672 1442l-275 -262h-112l250 293zM297 842q45 109 155.5 175t254.5 66v-116q-180 0 -295 -105.5t-115 -269.5v-592h-127v1059h127v-217z" />
    <glyph glyph-name="Rcommaaccent" unicode="&#x156;" horiz-adv-x="1323" 
d="M1247 963q0 -168 -111 -286.5t-290 -148.5l373 -528h-152l-367 520h-407v-520h-131v1407h577q218 0 363 -125t145 -319zM293 1282v-637h424q179 0 289 86.5t110 231.5q0 146 -110 232.5t-289 86.5h-424zM653 -178q41 0 66.5 -33.5t25.5 -87.5q0 -53 -28.5 -110.5
t-100.5 -149.5l-61 45q78 88 96 170q-35 0 -58.5 25t-23.5 59t24 58t60 24z" />
    <glyph glyph-name="rcommaaccent" unicode="&#x157;" horiz-adv-x="763" 
d="M297 842q45 109 155.5 175t254.5 66v-116q-180 0 -295 -105.5t-115 -269.5v-592h-127v1059h127v-217zM297 -178q41 0 66.5 -33.5t25.5 -87.5q0 -53 -28.5 -110.5t-100.5 -149.5l-61 45q78 88 96 170q-35 0 -58.5 25t-23.5 59t24 58t60 24z" />
    <glyph glyph-name="Rcaron" unicode="&#x158;" horiz-adv-x="1323" 
d="M739 1528h-125l-208 280h108l164 -190l166 190h108zM1247 963q0 -168 -111 -286.5t-290 -148.5l373 -528h-152l-367 520h-407v-520h-131v1407h577q218 0 363 -125t145 -319zM293 1282v-637h424q179 0 289 86.5t110 231.5q0 146 -110 232.5t-289 86.5h-424z" />
    <glyph glyph-name="rcaron" unicode="&#x159;" horiz-adv-x="763" 
d="M504 1180h-125l-209 280h109l163 -190l166 190h109zM297 842q45 109 155.5 175t254.5 66v-116q-180 0 -295 -105.5t-115 -269.5v-592h-127v1059h127v-217z" />
    <glyph glyph-name="Sacute" unicode="&#x15a;" horiz-adv-x="1249" 
d="M457 1528l250 293l137 -31l-275 -262h-112zM649 -23q-164 0 -305.5 58.5t-249.5 165.5l82 102q205 -205 477 -205q161 0 257 77.5t96 189.5q0 111 -93 173.5t-303 110.5q-238 56 -349 140.5t-111 242.5q0 172 132 287t332 115q271 0 492 -201l-82 -103q-89 87 -196 135
t-220 48q-141 0 -233 -78.5t-92 -192.5q0 -101 92 -158t301 -108q233 -55 348 -145.5t115 -253.5q0 -174 -131.5 -287t-358.5 -113z" />
    <glyph glyph-name="sacute" unicode="&#x15b;" horiz-adv-x="1009" 
d="M356 1180l250 293l137 -31l-274 -262h-113zM530 -25q-113 0 -229 41.5t-209 116.5l68 94q189 -135 370 -135q109 0 181.5 50t72.5 126q0 42 -19 74.5t-59.5 57.5t-85.5 43.5t-116 39.5q-193 56 -273.5 124t-80.5 179q0 130 104 213.5t260 83.5q199 0 379 -118l-64 -99
q-162 101 -315 101q-100 0 -169 -46t-69 -120q0 -69 62.5 -111t226.5 -96q84 -26 138.5 -49.5t106 -60t76.5 -86.5t25 -117q0 -133 -109.5 -219.5t-271.5 -86.5z" />
    <glyph glyph-name="Scedilla" unicode="&#x15e;" horiz-adv-x="1249" 
d="M1139 377q0 -167 -121.5 -279t-333.5 -121l-31 -71q8 2 25 2q60 0 99.5 -37.5t39.5 -95.5q0 -73 -56.5 -120.5t-139.5 -47.5q-107 0 -177 57l37 80q58 -49 133 -49q44 0 75.5 25t31.5 59q0 32 -21.5 51.5t-60.5 19.5q-42 0 -70 -22l-32 35l49 117q-288 20 -492 221
l82 102q205 -205 477 -205q161 0 257 77.5t96 189.5q0 111 -93 173.5t-303 110.5q-238 56 -349 140.5t-111 242.5q0 172 132 287t332 115q271 0 492 -201l-82 -103q-89 87 -196 135t-220 48q-141 0 -233 -78.5t-92 -192.5q0 -101 92 -158t301 -108q233 -55 348 -145.5
t115 -253.5z" />
    <glyph glyph-name="scedilla" unicode="&#x15f;" horiz-adv-x="1009" 
d="M911 281q0 -127 -100 -212t-252 -94l-29 -69q8 2 25 2q60 0 99.5 -37.5t39.5 -95.5q0 -73 -56.5 -120.5t-139.5 -47.5q-106 0 -176 57l36 80q58 -49 134 -49q44 0 75 25t31 59q0 32 -21.5 51.5t-60.5 19.5q-42 0 -70 -22l-32 35l49 117q-211 23 -371 153l68 94
q189 -135 370 -135q109 0 181.5 50t72.5 126q0 42 -19 74.5t-59.5 57.5t-85.5 43.5t-116 39.5q-193 56 -273.5 124t-80.5 179q0 130 104 213.5t260 83.5q199 0 379 -118l-64 -99q-162 101 -315 101q-100 0 -169 -46t-69 -120q0 -69 62.5 -111t226.5 -96q84 -26 138.5 -49.5
t106 -60t76.5 -86.5t25 -117z" />
    <glyph glyph-name="Scaron" unicode="&#x160;" horiz-adv-x="1249" 
d="M551 1528l-209 280h109l163 -190l166 190h109l-213 -280h-125zM649 -23q-164 0 -305.5 58.5t-249.5 165.5l82 102q205 -205 477 -205q161 0 257 77.5t96 189.5q0 111 -93 173.5t-303 110.5q-238 56 -349 140.5t-111 242.5q0 172 132 287t332 115q271 0 492 -201l-82 -103
q-89 87 -196 135t-220 48q-141 0 -233 -78.5t-92 -192.5q0 -101 92 -158t301 -108q233 -55 348 -145.5t115 -253.5q0 -174 -131.5 -287t-358.5 -113z" />
    <glyph glyph-name="scaron" unicode="&#x161;" horiz-adv-x="1009" 
d="M451 1180l-209 280h108l164 -190l166 190h108l-213 -280h-124zM530 -25q-113 0 -229 41.5t-209 116.5l68 94q189 -135 370 -135q109 0 181.5 50t72.5 126q0 42 -19 74.5t-59.5 57.5t-85.5 43.5t-116 39.5q-193 56 -273.5 124t-80.5 179q0 130 104 213.5t260 83.5
q199 0 379 -118l-64 -99q-162 101 -315 101q-100 0 -169 -46t-69 -120q0 -69 62.5 -111t226.5 -96q84 -26 138.5 -49.5t106 -60t76.5 -86.5t25 -117q0 -133 -109.5 -219.5t-271.5 -86.5z" />
    <glyph glyph-name="uni0162" unicode="&#x162;" horiz-adv-x="1290" 
d="M711 0h-13l-39 -94q8 2 25 2q60 0 99.5 -37.5t39.5 -95.5q0 -73 -56.5 -120.5t-139.5 -47.5q-106 0 -176 57l36 80q58 -49 134 -49q44 0 75 25t31 59q0 32 -21.5 51.5t-60.5 19.5q-42 0 -70 -22l-32 35l57 137h-20v1282h-488v125h1106v-125h-487v-1282z" />
    <glyph glyph-name="uni0163" unicode="&#x163;" horiz-adv-x="751" 
d="M543 -92q60 0 99.5 -37.5t39.5 -95.5q0 -73 -57 -120.5t-140 -47.5q-106 0 -176 57l37 80q58 -49 133 -49q44 0 75.5 25t31.5 59q0 32 -21.5 51.5t-60.5 19.5q-42 0 -70 -22l-33 35l50 117q-91 15 -147 88t-56 178v696h-172v117h172v291h127v-291h266v-117h-266v-696
q0 -67 37 -110.5t90 -43.5q75 0 123 45l65 -94q-65 -49 -141 -61l-31 -76q8 2 25 2z" />
    <glyph glyph-name="Tcaron" unicode="&#x164;" horiz-adv-x="1290" 
d="M582 1528l-209 280h108l164 -190l166 190h109l-213 -280h-125zM580 0v1282h-488v125h1106v-125h-487v-1282h-131z" />
    <glyph glyph-name="tcaron" unicode="&#x165;" horiz-adv-x="751" 
d="M883 1432q41 0 66.5 -33.5t25.5 -87.5q0 -53 -28.5 -110.5t-100.5 -149.5l-62 45q79 89 97 170q-35 0 -58.5 25t-23.5 59t24 58t60 24zM502 92q75 0 123 45l65 -94q-87 -68 -196 -68q-107 0 -176.5 76.5t-69.5 194.5v696h-172v117h172v291h127v-291h266v-117h-266v-696
q0 -67 37 -110.5t90 -43.5z" />
    <glyph glyph-name="Umacron" unicode="&#x16a;" horiz-adv-x="1499" 
d="M432 1571v100h635v-100h-635zM750 -25q-252 0 -413 166.5t-161 427.5v838h131v-838q0 -207 124.5 -340t318.5 -133q193 0 317.5 133t124.5 340v838h131v-838q0 -261 -160.5 -427.5t-412.5 -166.5z" />
    <glyph glyph-name="umacron" unicode="&#x16b;" 
d="M907 1323v-100h-635v100h635zM901 1059h127v-1059h-127v174q-43 -89 -137.5 -144t-210.5 -55q-175 0 -286 113.5t-111 290.5v680h127v-664q0 -133 80 -218t206 -85q139 0 235.5 85t96.5 208v674z" />
    <glyph glyph-name="Uring" unicode="&#x16e;" horiz-adv-x="1499" 
d="M750 1554q-88 0 -149.5 61.5t-61.5 149.5t61.5 149.5t149.5 61.5t149.5 -61.5t61.5 -149.5t-61.5 -149.5t-149.5 -61.5zM750 1638q52 0 89.5 37t37.5 90t-37.5 90t-89.5 37t-89.5 -37t-37.5 -90t37.5 -90t89.5 -37zM750 -25q-252 0 -413 166.5t-161 427.5v838h131v-838
q0 -207 124.5 -340t318.5 -133q193 0 317.5 133t124.5 340v838h131v-838q0 -261 -160.5 -427.5t-412.5 -166.5z" />
    <glyph glyph-name="uring" unicode="&#x16f;" 
d="M590 1206q-88 0 -149.5 61.5t-61.5 149.5t61.5 149.5t149.5 61.5t149.5 -61.5t61.5 -149.5t-61.5 -149.5t-149.5 -61.5zM590 1544q-52 0 -89.5 -37t-37.5 -90t37.5 -90t89.5 -37t89.5 37t37.5 90t-37.5 90t-89.5 37zM901 1059h127v-1059h-127v174q-43 -89 -137.5 -144
t-210.5 -55q-175 0 -286 113.5t-111 290.5v680h127v-664q0 -133 80 -218t206 -85q139 0 235.5 85t96.5 208v674z" />
    <glyph glyph-name="Uhungarumlaut" unicode="&#x170;" horiz-adv-x="1499" 
d="M473 1526l250 295l137 -31l-274 -264h-113zM860 1526l250 293l135 -31l-274 -262h-111zM750 -25q-252 0 -413 166.5t-161 427.5v838h131v-838q0 -207 124.5 -340t318.5 -133q193 0 317.5 133t124.5 340v838h131v-838q0 -261 -160.5 -427.5t-412.5 -166.5z" />
    <glyph glyph-name="uhungarumlaut" unicode="&#x171;" 
d="M711 1442l-275 -264h-112l249 295zM821 1178h-110l250 292l135 -30zM901 385v674h127v-1059h-127v174q-43 -89 -137.5 -144t-210.5 -55q-175 0 -286 113.5t-111 290.5v680h127v-664q0 -133 80 -218t206 -85q139 0 235.5 85t96.5 208z" />
    <glyph glyph-name="Uogonek" unicode="&#x172;" horiz-adv-x="1499" 
d="M1192 1407h131v-838q0 -261 -160.5 -427.5t-412.5 -166.5q-27 0 -39 2q-49 -36 -49 -102q0 -59 33 -92t93 -33q65 0 105 43l57 -88q-71 -59 -172 -59q-97 0 -157 58.5t-60 156.5q0 77 49 129q-196 45 -315 201.5t-119 377.5v838h131v-838q0 -207 124.5 -340t318.5 -133
q193 0 317.5 133t124.5 340v838z" />
    <glyph glyph-name="uogonek" unicode="&#x173;" 
d="M1133 -207l57 -88q-71 -59 -172 -59q-97 0 -157 58.5t-60 156.5q0 56 28 102t72 68v143q-43 -89 -137.5 -144t-210.5 -55q-175 0 -286 113.5t-111 290.5v680h127v-664q0 -133 80 -218t206 -85q139 0 235.5 85t96.5 208v674h127v-1059q-57 0 -92 -34.5t-35 -90.5
q0 -59 33.5 -92t93.5 -33q65 0 105 43z" />
    <glyph glyph-name="Wcircumflex" unicode="&#x174;" horiz-adv-x="2181" 
d="M819 1528l209 280h125l213 -280h-109l-165 190l-164 -190h-109zM553 0l-477 1407h147l404 -1188l391 1188h145l393 -1188l402 1188h147l-477 -1407h-133l-403 1229l-406 -1229h-133z" />
    <glyph glyph-name="wcircumflex" unicode="&#x175;" horiz-adv-x="1679" 
d="M569 1180l209 280h125l213 -280h-108l-166 190l-164 -190h-109zM424 0l-352 1059h135l280 -889l299 889h111l297 -889l283 889h135l-355 -1059h-127l-288 870l-291 -870h-127z" />
    <glyph glyph-name="Ycircumflex" unicode="&#x176;" horiz-adv-x="1347" 
d="M401 1528l209 280h125l213 -280h-108l-166 190l-164 -190h-109zM606 0v573l-569 834h164l473 -705l477 705h160l-568 -834v-573h-137z" />
    <glyph glyph-name="ycircumflex" unicode="&#x177;" horiz-adv-x="1196" 
d="M319 1180l209 280h125l213 -280h-108l-166 190l-164 -190h-109zM295 -369q-93 0 -168 35l33 113q60 -31 131 -31q117 0 172 98l63 138l-465 1075h140l391 -924l371 924h137l-488 -1190q-50 -124 -127 -180t-190 -58z" />
    <glyph glyph-name="Ydieresis" unicode="&#x178;" horiz-adv-x="1347" 
d="M477 1581q-35 0 -59.5 25t-24.5 59q0 33 24.5 58.5t59.5 25.5q33 0 58.5 -25.5t25.5 -58.5q0 -34 -25 -59t-59 -25zM870 1581q-35 0 -59.5 25t-24.5 59q0 33 24.5 58.5t59.5 25.5q33 0 58.5 -25.5t25.5 -58.5q0 -34 -25 -59t-59 -25zM606 0v573l-569 834h164l473 -705
l477 705h160l-568 -834v-573h-137z" />
    <glyph glyph-name="Zacute" unicode="&#x179;" horiz-adv-x="1294" 
d="M494 1528l249 293l138 -31l-275 -262h-112zM119 0v104l876 1178h-862v125h1038v-104l-878 -1178h887v-125h-1061z" />
    <glyph glyph-name="zacute" unicode="&#x17a;" horiz-adv-x="1052" 
d="M379 1180l250 293l137 -31l-274 -262h-113zM111 0v100l661 838h-649v121h819v-101l-663 -837h667v-121h-835z" />
    <glyph glyph-name="Zdotaccent" unicode="&#x17b;" horiz-adv-x="1294" 
d="M651 1581q-35 0 -59.5 25t-24.5 59q0 33 24.5 58.5t59.5 25.5q33 0 57.5 -25.5t24.5 -58.5q0 -34 -24 -59t-58 -25zM119 0v104l876 1178h-862v125h1038v-104l-878 -1178h887v-125h-1061z" />
    <glyph glyph-name="zdotaccent" unicode="&#x17c;" horiz-adv-x="1052" 
d="M537 1233q-35 0 -59.5 25t-24.5 59q0 33 24.5 58.5t59.5 25.5q33 0 57 -25.5t24 -58.5q0 -34 -24 -59t-57 -25zM111 0v100l661 838h-649v121h819v-101l-663 -837h667v-121h-835z" />
    <glyph glyph-name="Zcaron" unicode="&#x17d;" horiz-adv-x="1294" 
d="M588 1528l-209 280h108l164 -190l166 190h109l-213 -280h-125zM119 0v104l876 1178h-862v125h1038v-104l-878 -1178h887v-125h-1061z" />
    <glyph glyph-name="zcaron" unicode="&#x17e;" horiz-adv-x="1052" 
d="M473 1180l-209 280h109l164 -190l165 190h109l-213 -280h-125zM111 0v100l661 838h-649v121h819v-101l-663 -837h667v-121h-835z" />
    <glyph glyph-name="uni0237" unicode="&#x237;" horiz-adv-x="417" 
d="M27 -365q-91 0 -166 33l20 109q62 -25 137 -25q55 0 91 41.5t36 106.5v1159h127v-1159q0 -116 -69 -190.5t-176 -74.5z" />
    <glyph glyph-name="circumflex" unicode="&#x2c6;" horiz-adv-x="804" 
d="M129 1180l209 280h125l213 -280h-109l-166 190l-163 -190h-109z" />
    <glyph glyph-name="caron" unicode="&#x2c7;" horiz-adv-x="804" 
d="M338 1180l-209 280h109l163 -190l166 190h109l-213 -280h-125z" />
    <glyph glyph-name="breve" unicode="&#x2d8;" horiz-adv-x="856" 
d="M428 1206q-173 0 -299 123l82 82q93 -90 217 -90t217 90l82 -82q-123 -123 -299 -123z" />
    <glyph glyph-name="dotaccent" unicode="&#x2d9;" horiz-adv-x="423" 
d="M213 1233q-35 0 -59.5 25t-24.5 59q0 33 24.5 58.5t59.5 25.5q33 0 57.5 -25.5t24.5 -58.5q0 -34 -24 -59t-58 -25z" />
    <glyph glyph-name="ring" unicode="&#x2da;" horiz-adv-x="679" 
d="M340 1206q-88 0 -149.5 61.5t-61.5 149.5t61.5 149.5t149.5 61.5t149.5 -61.5t61.5 -149.5t-61.5 -149.5t-149.5 -61.5zM340 1290q52 0 89.5 37t37.5 90t-37.5 90t-89.5 37t-89.5 -37t-37.5 -90t37.5 -90t89.5 -37z" />
    <glyph glyph-name="ogonek" unicode="&#x2db;" horiz-adv-x="647" 
d="M346 -354q-97 0 -157 58.5t-60 156.5q0 64 36 114.5t91 65.5l100 -41q-57 0 -92 -34.5t-35 -90.5q0 -59 33.5 -92t93.5 -33q65 0 105 43l57 -88q-71 -59 -172 -59z" />
    <glyph glyph-name="tilde" unicode="&#x2dc;" horiz-adv-x="923" 
d="M594 1186q-41 0 -80.5 21t-65.5 46.5t-58 46.5t-60 21q-83 0 -107 -147l-86 14q14 114 63 174.5t130 60.5q41 0 80.5 -21t65.5 -46.5t58 -46.5t60 -21q79 0 106 148l86 -15q-14 -114 -62.5 -174.5t-129.5 -60.5z" />
    <glyph glyph-name="hungarumlaut" unicode="&#x2dd;" horiz-adv-x="1032" 
d="M129 1178l250 295l137 -31l-274 -264h-113zM516 1178l250 292l135 -30l-274 -262h-111z" />
    <glyph glyph-name="uni0326" unicode="&#x326;" horiz-adv-x="0" 
d="M-287 -559l-61 45q78 88 96 170q-35 0 -58.5 25t-23.5 59t24 58t60 24q41 0 66.5 -33.5t25.5 -87.5q0 -53 -28.5 -110.5t-100.5 -149.5z" />
    <glyph glyph-name="Wgrave" unicode="&#x1e80;" horiz-adv-x="2181" 
d="M1038 1528l-274 262l135 31l252 -293h-113zM553 0l-477 1407h147l404 -1188l391 1188h145l393 -1188l402 1188h147l-477 -1407h-133l-403 1229l-406 -1229h-133z" />
    <glyph glyph-name="wgrave" unicode="&#x1e81;" horiz-adv-x="1679" 
d="M788 1180l-274 262l135 31l252 -293h-113zM424 0l-352 1059h135l280 -889l299 889h111l297 -889l283 889h135l-355 -1059h-127l-288 870l-291 -870h-127z" />
    <glyph glyph-name="Wacute" unicode="&#x1e82;" horiz-adv-x="2181" 
d="M1034 1528l250 293l137 -31l-274 -262h-113zM553 0l-477 1407h147l404 -1188l391 1188h145l393 -1188l402 1188h147l-477 -1407h-133l-403 1229l-406 -1229h-133z" />
    <glyph glyph-name="wacute" unicode="&#x1e83;" horiz-adv-x="1679" 
d="M784 1180l250 293l137 -31l-274 -262h-113zM424 0l-352 1059h135l280 -889l299 889h111l297 -889l283 889h135l-355 -1059h-127l-288 870l-291 -870h-127z" />
    <glyph glyph-name="Wdieresis" unicode="&#x1e84;" horiz-adv-x="2181" 
d="M895 1581q-35 0 -59.5 25t-24.5 59q0 33 24.5 58.5t59.5 25.5q33 0 58.5 -25.5t25.5 -58.5q0 -34 -25 -59t-59 -25zM1288 1581q-35 0 -59.5 25t-24.5 59q0 33 24.5 58.5t59.5 25.5q33 0 58.5 -25.5t25.5 -58.5q0 -34 -25 -59t-59 -25zM553 0l-477 1407h147l404 -1188
l391 1188h145l393 -1188l402 1188h147l-477 -1407h-133l-403 1229l-406 -1229h-133z" />
    <glyph glyph-name="wdieresis" unicode="&#x1e85;" horiz-adv-x="1679" 
d="M645 1233q-35 0 -59.5 25t-24.5 59q0 33 24.5 58.5t59.5 25.5q33 0 58.5 -25.5t25.5 -58.5q0 -34 -25 -59t-59 -25zM1038 1233q-35 0 -59.5 25t-24.5 59q0 33 24.5 58.5t59.5 25.5q33 0 58.5 -25.5t25.5 -58.5q0 -34 -25 -59t-59 -25zM424 0l-352 1059h135l280 -889
l299 889h111l297 -889l283 889h135l-355 -1059h-127l-288 870l-291 -870h-127z" />
    <glyph glyph-name="uni1EB8" unicode="&#x1eb8;" horiz-adv-x="1255" 
d="M1143 1282h-848v-502h770v-127h-770v-528h848v-125h-981v1407h981v-125zM653 -174q33 0 57.5 -25.5t24.5 -58.5q0 -34 -24 -59t-58 -25q-35 0 -59.5 25t-24.5 59q0 33 24.5 58.5t59.5 25.5z" />
    <glyph glyph-name="uni1EB9" unicode="&#x1eb9;" horiz-adv-x="1218" 
d="M629 92q101 0 199 36.5t153 96.5l80 -86q-66 -72 -189.5 -118t-242.5 -46q-105 0 -202 43t-169.5 116.5t-116 177.5t-43.5 220q0 153 70.5 280t190.5 199t262 72q233 0 367 -164t134 -440h-895q18 -167 129.5 -277t272.5 -110zM625 967q-155 0 -265.5 -103.5
t-130.5 -267.5h766q-12 165 -109.5 268t-260.5 103zM618 -176q33 0 57.5 -25.5t24.5 -58.5q0 -34 -24 -59t-58 -25q-35 0 -59 25t-24 59q0 33 24.5 58.5t58.5 25.5z" />
    <glyph glyph-name="uni1EBC" unicode="&#x1ebc;" horiz-adv-x="1255" 
d="M520 1669q-82 0 -106 -147l-86 14q14 114 62.5 175t129.5 61q41 0 80.5 -21t65.5 -47t58 -47t60 -21q80 0 107 148l86 -15q-14 -114 -63 -174.5t-130 -60.5q-41 0 -80.5 21t-65.5 46.5t-58 46.5t-60 21zM1143 1282h-848v-502h770v-127h-770v-528h848v-125h-981v1407h981
v-125z" />
    <glyph glyph-name="uni1EBD" unicode="&#x1ebd;" horiz-adv-x="1218" 
d="M487 1321q-82 0 -106 -147l-86 14q14 114 62.5 174.5t129.5 60.5q41 0 80.5 -21t66 -46.5t58.5 -46.5t60 -21q79 0 106 148l86 -15q-14 -114 -62.5 -174.5t-129.5 -60.5q-41 0 -80.5 21t-66 46.5t-58.5 46.5t-60 21zM629 92q101 0 199 36.5t153 96.5l80 -86
q-66 -72 -189.5 -118t-242.5 -46q-105 0 -202 43t-169.5 116.5t-116 177.5t-43.5 220q0 153 70.5 280t190.5 199t262 72q233 0 367 -164t134 -440h-895q18 -167 129.5 -277t272.5 -110zM625 967q-155 0 -265.5 -103.5t-130.5 -267.5h766q-12 165 -109.5 268t-260.5 103z" />
    <glyph glyph-name="Ygrave" unicode="&#x1ef2;" horiz-adv-x="1347" 
d="M707 1528l-275 262l135 31l252 -293h-112zM606 0v573l-569 834h164l473 -705l477 705h160l-568 -834v-573h-137z" />
    <glyph glyph-name="ygrave" unicode="&#x1ef3;" horiz-adv-x="1196" 
d="M625 1180l-275 262l135 31l252 -293h-112zM295 -369q-93 0 -168 35l33 113q60 -31 131 -31q117 0 172 98l63 138l-465 1075h140l391 -924l371 924h137l-488 -1190q-50 -124 -127 -180t-190 -58z" />
    <glyph glyph-name="endash" unicode="&#x2013;" horiz-adv-x="1181" 
d="M115 496v120h952v-120h-952z" />
    <glyph glyph-name="emdash" unicode="&#x2014;" horiz-adv-x="1806" 
d="M115 496v120h1577v-120h-1577z" />
    <glyph glyph-name="quoteleft" unicode="&#x2018;" horiz-adv-x="524" 
d="M295 1372l67 -51q-80 -92 -106 -191q40 0 67 -28t27 -68q0 -38 -27 -65t-69 -27q-47 0 -75.5 38t-28.5 99t32 126t113 167z" />
    <glyph glyph-name="quoteright" unicode="&#x2019;" horiz-adv-x="524" 
d="M229 934l-67 51q80 92 106 191q-40 0 -67 28t-27 68q0 38 27 65t69 27q47 0 76 -38.5t29 -98.5t-32.5 -125.5t-113.5 -167.5z" />
    <glyph glyph-name="quotedblleft" unicode="&#x201c;" horiz-adv-x="921" 
d="M295 1372l67 -51q-80 -92 -106 -191q40 0 67 -28t27 -68q0 -38 -27 -65t-69 -27q-47 0 -75.5 38t-28.5 99t32 126t113 167zM692 1372l68 -51q-81 -93 -107 -191q40 0 67.5 -28t27.5 -68q0 -38 -27.5 -65t-69.5 -27q-47 0 -75.5 38t-28.5 99t32 126t113 167z" />
    <glyph glyph-name="quotedblright" unicode="&#x201d;" horiz-adv-x="921" 
d="M229 934l-67 51q80 92 106 191q-40 0 -67 28t-27 68q0 38 27 65t69 27q47 0 76 -38.5t29 -98.5t-32.5 -125.5t-113.5 -167.5zM625 934l-68 51q81 93 107 191q-40 0 -67.5 28t-27.5 68q0 38 27.5 65t69.5 27q47 0 75.5 -38t28.5 -99t-32 -126t-113 -167z" />
    <glyph glyph-name="ellipsis" unicode="&#x2026;" horiz-adv-x="1280" 
d="M246 -25q-41 0 -68.5 28.5t-27.5 68.5q0 37 27.5 64.5t68.5 27.5q38 0 65 -27.5t27 -64.5q0 -40 -27 -68.5t-65 -28.5zM641 -25q-41 0 -68.5 28.5t-27.5 68.5q0 37 27.5 64.5t68.5 27.5q38 0 65 -27.5t27 -64.5q0 -40 -27 -68.5t-65 -28.5zM1038 -25q-41 0 -68.5 28.5
t-27.5 68.5q0 37 27.5 64.5t68.5 27.5q38 0 65 -27.5t27 -64.5q0 -40 -27 -68.5t-65 -28.5z" />
    <glyph glyph-name="perthousand" unicode="&#x2030;" horiz-adv-x="2375" 
d="M412 715q-138 0 -227 100t-89 248q0 154 90 255t228 101q139 0 228 -100.5t89 -251.5q0 -152 -89.5 -252t-229.5 -100zM264 0l963 1407h123l-963 -1407h-123zM414 813q90 0 148.5 71.5t58.5 180.5q0 110 -59 183t-150 73q-89 0 -147 -72t-58 -184q0 -108 59 -180t148 -72
zM1194 -20q-136 0 -225.5 100t-89.5 252q0 150 89 251t228 101t228 -101t89 -249q0 -153 -90 -253.5t-229 -100.5zM1958 -20q-138 0 -227 99.5t-89 252.5q0 150 89.5 251t228.5 101t228 -101t89 -249q0 -153 -90 -253.5t-229 -100.5zM1196 78q92 0 149.5 71.5t57.5 182.5
q0 109 -59.5 181.5t-149.5 72.5t-147.5 -72t-57.5 -180q0 -111 58.5 -183.5t148.5 -72.5zM1960 78q91 0 149 71.5t58 182.5q0 109 -59.5 181.5t-149.5 72.5t-147.5 -72t-57.5 -180q0 -111 58.5 -183.5t148.5 -72.5z" />
    <glyph glyph-name="Euro" unicode="&#x20ac;" horiz-adv-x="1392" 
d="M827 98q118 0 226.5 49.5t189.5 135.5l90 -93q-101 -101 -232 -158t-274 -57q-235 0 -426.5 147t-261.5 372h-188v116h162q-7 54 -7 95q0 61 13 131h-168v116h201q78 210 264.5 345t410.5 135q144 0 275 -56.5t231 -158.5l-90 -91q-81 85 -189.5 134t-226.5 49
q-172 0 -317 -99t-217 -258h674v-116h-713q-14 -60 -14 -131q0 -54 8 -95h719v-116h-688q64 -174 214.5 -285t333.5 -111z" />
    <glyph glyph-name="minus" unicode="&#x2212;" horiz-adv-x="1214" 
d="M137 621v127h940v-127h-940z" />
    <glyph glyph-name="a.alt" horiz-adv-x="1280" 
d="M983 1059h127v-1059h-127v207q-63 -109 -165 -170.5t-230 -61.5q-134 0 -245 72t-175 199.5t-64 283.5q0 155 64 282t175 199t245 72q128 0 230 -61t165 -170v207zM610 92q164 0 268.5 123t104.5 315t-104.5 314.5t-268.5 122.5q-160 0 -267 -125t-107 -312t107 -312.5
t267 -125.5z" />
    <glyph glyph-name="aacute.alt" horiz-adv-x="1280" 
d="M868 1442l-274 -262h-113l250 293zM983 1059h127v-1059h-127v207q-63 -109 -165 -170.5t-230 -61.5q-134 0 -245 72t-175 199.5t-64 283.5q0 155 64 282t175 199t245 72q128 0 230 -61t165 -170v207zM610 92q164 0 268.5 123t104.5 315t-104.5 314.5t-268.5 122.5
q-160 0 -267 -125t-107 -312t107 -312.5t267 -125.5z" />
    <glyph glyph-name="abreve.alt" horiz-adv-x="1280" 
d="M938 1329q-123 -123 -299 -123q-173 0 -299 123l82 82q93 -90 217 -90t217 90zM983 1059h127v-1059h-127v207q-63 -109 -165 -170.5t-230 -61.5q-134 0 -245 72t-175 199.5t-64 283.5q0 155 64 282t175 199t245 72q128 0 230 -61t165 -170v207zM610 92q164 0 268.5 123
t104.5 315t-104.5 314.5t-268.5 122.5q-160 0 -267 -125t-107 -312t107 -312.5t267 -125.5z" />
    <glyph glyph-name="acircumflex.alt" horiz-adv-x="1280" 
d="M639 1370l-164 -190h-108l208 280h125l213 -280h-108zM983 1059h127v-1059h-127v207q-63 -109 -165 -170.5t-230 -61.5q-134 0 -245 72t-175 199.5t-64 283.5q0 155 64 282t175 199t245 72q128 0 230 -61t165 -170v207zM610 92q164 0 268.5 123t104.5 315t-104.5 314.5
t-268.5 122.5q-160 0 -267 -125t-107 -312t107 -312.5t267 -125.5z" />
    <glyph glyph-name="adieresis.alt" horiz-adv-x="1280" 
d="M442 1233q-35 0 -59.5 25t-24.5 59q0 33 24.5 58.5t59.5 25.5q33 0 58.5 -25.5t25.5 -58.5q0 -34 -25 -59t-59 -25zM836 1233q-35 0 -59.5 25t-24.5 59q0 33 24.5 58.5t59.5 25.5q33 0 58.5 -25.5t25.5 -58.5q0 -34 -25 -59t-59 -25zM983 1059h127v-1059h-127v207
q-63 -109 -165 -170.5t-230 -61.5q-134 0 -245 72t-175 199.5t-64 283.5q0 155 64 282t175 199t245 72q128 0 230 -61t165 -170v207zM610 92q164 0 268.5 123t104.5 315t-104.5 314.5t-268.5 122.5q-160 0 -267 -125t-107 -312t107 -312.5t267 -125.5z" />
    <glyph glyph-name="agrave.alt" horiz-adv-x="1280" 
d="M784 1180h-112l-275 262l135 31zM983 1059h127v-1059h-127v207q-63 -109 -165 -170.5t-230 -61.5q-134 0 -245 72t-175 199.5t-64 283.5q0 155 64 282t175 199t245 72q128 0 230 -61t165 -170v207zM610 92q164 0 268.5 123t104.5 315t-104.5 314.5t-268.5 122.5
q-160 0 -267 -125t-107 -312t107 -312.5t267 -125.5z" />
    <glyph glyph-name="amacron.alt" horiz-adv-x="1280" 
d="M956 1323v-100h-634v100h634zM983 1059h127v-1059h-127v207q-63 -109 -165 -170.5t-230 -61.5q-134 0 -245 72t-175 199.5t-64 283.5q0 155 64 282t175 199t245 72q128 0 230 -61t165 -170v207zM610 92q164 0 268.5 123t104.5 315t-104.5 314.5t-268.5 122.5
q-160 0 -267 -125t-107 -312t107 -312.5t267 -125.5z" />
    <glyph glyph-name="aogonek.alt" horiz-adv-x="1280" 
d="M1214 -207l58 -88q-71 -59 -172 -59q-97 0 -157 58.5t-60 156.5q0 56 28 102t72 68v176q-63 -109 -165 -170.5t-230 -61.5q-134 0 -245 72t-175 199.5t-64 283.5q0 155 64 282t175 199t245 72q128 0 230 -61t165 -170v207h127v-1059q-57 0 -92 -34.5t-35 -90.5
q0 -59 33.5 -92t93.5 -33q64 0 104 43zM610 92q164 0 268.5 123t104.5 315t-104.5 314.5t-268.5 122.5q-160 0 -267 -125t-107 -312t107 -312.5t267 -125.5z" />
    <glyph glyph-name="aring.alt" horiz-adv-x="1280" 
d="M639 1206q-88 0 -149.5 61.5t-61.5 149.5t61.5 149.5t149.5 61.5t149.5 -61.5t61.5 -149.5t-61.5 -149.5t-149.5 -61.5zM639 1544q-53 0 -90 -37t-37 -90t37 -90t90 -37t90 37t37 90t-37 90t-90 37zM983 1059h127v-1059h-127v207q-63 -109 -165 -170.5t-230 -61.5
q-134 0 -245 72t-175 199.5t-64 283.5q0 155 64 282t175 199t245 72q128 0 230 -61t165 -170v207zM610 92q164 0 268.5 123t104.5 315t-104.5 314.5t-268.5 122.5q-160 0 -267 -125t-107 -312t107 -312.5t267 -125.5z" />
    <glyph glyph-name="atilde.alt" horiz-adv-x="1280" 
d="M506 1321q-83 0 -107 -147l-86 14q14 114 63 174.5t130 60.5q41 0 80.5 -21t65.5 -46.5t58 -46.5t60 -21q80 0 107 148l86 -15q-14 -114 -63 -174.5t-130 -60.5q-41 0 -80.5 21t-65.5 46.5t-58 46.5t-60 21zM983 1059h127v-1059h-127v207q-63 -109 -165 -170.5
t-230 -61.5q-134 0 -245 72t-175 199.5t-64 283.5q0 155 64 282t175 199t245 72q128 0 230 -61t165 -170v207zM610 92q164 0 268.5 123t104.5 315t-104.5 314.5t-268.5 122.5q-160 0 -267 -125t-107 -312t107 -312.5t267 -125.5z" />
    <glyph glyph-name="ascender" horiz-adv-x="1286" 
d="M170 0v1432h127v-1432h-127z" />
    <glyph glyph-name="descender" horiz-adv-x="1286" 
d="M170 -352v1411h127v-1411h-127z" />
    </font>
</defs>
</svg>
