<?xml version="1.0" standalone="no"?>
<!DOCTYPE svg PUBLIC "-//W3C//DTD SVG 1.1//EN" "http://www.w3.org/Graphics/SVG/1.1/DTD/svg11.dtd" >
<svg xmlns="http://www.w3.org/2000/svg" xmlns:xlink="http://www.w3.org/1999/xlink" version="1.1">
<metadata>
Created by FontForge 20170731 at Wed Jan  5 16:17:03 2022
 By Aleksey,,,
Copyright (c) 2016 by Chris Simpson.
</metadata>
<defs>
<font id="Metropolis-Medium" horiz-adv-x="1294" >
  <font-face 
    font-family="Metropolis Medium"
    font-weight="500"
    font-stretch="normal"
    units-per-em="2048"
    panose-1="0 0 6 0 0 0 0 0 0 0"
    ascent="1628"
    descent="-420"
    x-height="1059"
    cap-height="1407"
    bbox="-387 -573 2337 1985"
    underline-thickness="40"
    underline-position="-312"
    unicode-range="U+0020-2212"
  />
<missing-glyph horiz-adv-x="1024" 
d="M840 1628v-2048h-650v2048h650zM682 1491h-338v-68h133v-75h-135v-68h340v68h-135v75h135v68zM547 1227h-205v-213h340v69h-135v144zM477 1157v-74h-67v74h67zM682 958h-340v-67h135v-76h-135v-67h205v143h135v67zM682 836h-68v-136h-272v-69h340v205zM682 586h-205v-115
h70v47h67v-96h-204v164h-68v-232h340v232zM682 231h-340v-231h340v231zM614 164v-96h-204v96h204zM682 -47h-340v-68h143l-143 -96v-68h340v68h-209l143 96h66v68z" />
    <glyph glyph-name=".notdef" horiz-adv-x="1024" 
d="M840 1628v-2048h-650v2048h650zM682 1491h-338v-68h133v-75h-135v-68h340v68h-135v75h135v68zM547 1227h-205v-213h340v69h-135v144zM477 1157v-74h-67v74h67zM682 958h-340v-67h135v-76h-135v-67h205v143h135v67zM682 836h-68v-136h-272v-69h340v205zM682 586h-205v-115
h70v47h67v-96h-204v164h-68v-232h340v232zM682 231h-340v-231h340v231zM614 164v-96h-204v96h204zM682 -47h-340v-68h143l-143 -96v-68h340v68h-209l143 96h66v68z" />
    <glyph glyph-name=".null" horiz-adv-x="0" 
 />
    <glyph glyph-name="nonmarkingreturn" horiz-adv-x="682" 
 />
    <glyph glyph-name="space" unicode=" " horiz-adv-x="585" 
 />
    <glyph glyph-name="exclam" unicode="!" horiz-adv-x="581" 
d="M225 428l-49 979h240l-51 -979h-140zM293 -25q-58 0 -97.5 41t-39.5 99q0 53 40 93t97 40q55 0 94 -40t39 -93q0 -57 -39 -98.5t-94 -41.5z" />
    <glyph glyph-name="quotedbl" unicode="&#x22;" horiz-adv-x="917" 
d="M205 854q-66 320 -66 424q0 47 34.5 82t80.5 35t80.5 -35t34.5 -82q0 -104 -66 -424h-98zM614 854q-65 315 -65 424q0 47 34.5 82t80.5 35t80 -35t34 -82q0 -109 -65 -424h-99z" />
    <glyph glyph-name="numbersign" unicode="#" horiz-adv-x="1380" 
d="M1268 897h-228l-98 -389h227l-39 -154h-225l-90 -354h-164l90 354h-284l-90 -354h-162l90 354h-221l39 154h219l98 389h-223l39 154h223l90 356h162l-90 -356h284l91 356h163l-90 -356h226zM778 508l99 389h-285l-98 -389h284z" />
    <glyph glyph-name="dollar" unicode="$" horiz-adv-x="1269" 
d="M1169 395q0 -173 -119.5 -287.5t-336.5 -127.5v-132h-172v136q-268 34 -463 219l125 153q153 -146 338 -184v457q-100 27 -170 57t-127 75t-85 109.5t-28 149.5q0 159 114 273t296 137v124h172v-127q227 -24 420 -192l-119 -156q-139 127 -301 162v-438
q109 -27 186.5 -58t141.5 -78t96 -114.5t32 -157.5zM342 1038q0 -71 48 -113.5t151 -76.5v397q-88 -19 -143.5 -77.5t-55.5 -129.5zM713 162q118 10 183 71t65 142q0 82 -59 129t-189 82v-424z" />
    <glyph glyph-name="percent" unicode="%" horiz-adv-x="1658" 
d="M424 711q-148 0 -241 101t-93 249q0 154 94 256t242 102t241 -101.5t93 -252.5q0 -152 -94.5 -253t-241.5 -101zM266 0l967 1407h164l-969 -1407h-162zM426 842q78 0 129 62t51 159q0 96 -52 159.5t-130 63.5q-79 0 -129.5 -62.5t-50.5 -160.5q0 -95 52 -158t130 -63z
M1231 -20q-145 0 -239.5 101t-94.5 253q0 149 94.5 251.5t241.5 102.5q148 0 241 -102t93 -250q0 -153 -94.5 -254.5t-241.5 -101.5zM1233 113q79 0 129.5 62t50.5 159q0 96 -52 159.5t-130 63.5q-79 0 -129.5 -63t-50.5 -158q0 -97 51.5 -160t130.5 -63z" />
    <glyph glyph-name="ampersand" unicode="&#x26;" horiz-adv-x="1378" 
d="M1303 61l-179 -81q-70 70 -172 176q-187 -181 -424 -181q-198 0 -325 109t-127 293q0 137 76 235t239 170q-60 83 -86 154t-26 149q0 142 106 240t266 98q150 0 251.5 -98t101.5 -238q0 -64 -22 -115.5t-69 -93.5t-103.5 -74t-141.5 -69q158 -180 286 -313
q91 132 152 295l162 -74q-94 -206 -195 -346zM651 1262q-80 0 -132 -48.5t-52 -128.5q0 -102 102 -233q136 55 191 104.5t55 128.5q0 74 -46.5 125.5t-117.5 51.5zM545 143q148 0 291 133q-225 234 -349 383q-211 -109 -211 -274q0 -110 78 -176t191 -66z" />
    <glyph glyph-name="quotesingle" unicode="'" horiz-adv-x="507" 
d="M205 854q-66 320 -66 424q0 47 34.5 82t80.5 35t80.5 -35t34.5 -82q0 -104 -66 -424h-98z" />
    <glyph glyph-name="parenleft" unicode="(" horiz-adv-x="749" 
d="M557 -348q-211 169 -324.5 397.5t-113.5 493.5q0 266 113.5 494t324.5 397l107 -111q-171 -174 -253.5 -359t-82.5 -421q0 -235 82.5 -421t253.5 -358z" />
    <glyph glyph-name="parenright" unicode=")" horiz-adv-x="749" 
d="M193 -348l-107 112q170 173 253 358.5t83 420.5t-82.5 420t-253.5 360l107 111q211 -169 324.5 -397t113.5 -494q0 -265 -113.5 -493.5t-324.5 -397.5z" />
    <glyph glyph-name="asterisk" unicode="*" horiz-adv-x="829" 
d="M414 750q-25 0 -42.5 15.5t-17.5 37.5q0 48 17 137.5t20 112.5q-26 -19 -91.5 -76t-104.5 -80q-19 -11 -42.5 -3.5t-35.5 28.5q-12 23 -7.5 44.5t23.5 32.5q41 24 127 55t107 40q-22 10 -108 40t-126 54q-19 10 -23.5 33t7.5 45t35.5 29t42.5 -5q39 -23 104.5 -80
t91.5 -75q-3 23 -20 112t-17 137q0 22 17.5 38t42.5 16q26 0 43.5 -16t17.5 -38q0 -48 -17 -137t-20 -112q20 15 88.5 73t108.5 82q19 11 42 4t36 -28q12 -23 6 -45t-25 -33q-41 -24 -126 -54.5t-107 -39.5q16 -7 104 -39t129 -56q19 -11 25 -33t-6 -44q-14 -22 -36.5 -29.5
t-41.5 4.5q-40 24 -108 82t-89 74q3 -23 20 -112.5t17 -137.5q0 -22 -17.5 -37.5t-43.5 -15.5z" />
    <glyph glyph-name="plus" unicode="+" horiz-adv-x="1220" 
d="M1090 774v-182h-385v-385h-189v385h-383v182h383v389h189v-389h385z" />
    <glyph glyph-name="comma" unicode="," horiz-adv-x="561" 
d="M250 -281l-86 66q86 89 112 190q-55 0 -94 40.5t-39 97.5q0 55 40 95t98 40q67 0 107 -54.5t40 -140.5q0 -72 -40 -146.5t-138 -187.5z" />
    <glyph glyph-name="hyphen" unicode="-" horiz-adv-x="755" 
d="M106 467v184h541v-184h-541z" />
    <glyph glyph-name="period" unicode="." horiz-adv-x="542" 
d="M274 -25q-58 0 -97.5 41t-39.5 99q0 53 39.5 93t97.5 40q55 0 94.5 -40t39.5 -93q0 -57 -39.5 -98.5t-94.5 -41.5z" />
    <glyph glyph-name="slash" unicode="/" horiz-adv-x="882" 
d="M-39 -152l715 1674h221l-715 -1674h-221z" />
    <glyph glyph-name="zero" unicode="0" horiz-adv-x="1423" 
d="M713 -25q-131 0 -243 54t-191 150t-123.5 232t-44.5 294q0 211 76 376.5t213.5 258t312.5 92.5q173 0 310 -92.5t213.5 -258.5t76.5 -376q0 -211 -76.5 -378t-213.5 -259.5t-310 -92.5zM713 166q170 0 278.5 151.5t108.5 387.5t-108.5 386t-278.5 150q-172 0 -281.5 -150
t-109.5 -386t109.5 -387.5t281.5 -151.5z" />
    <glyph glyph-name="one" unicode="1" horiz-adv-x="765" 
d="M375 0v1161l-244 -155l-86 149l371 252h168v-1407h-209z" />
    <glyph glyph-name="two" unicode="2" horiz-adv-x="1220" 
d="M96 0v170l516 426q139 117 199.5 212.5t60.5 192.5q0 111 -78 177.5t-188 66.5t-198 -53.5t-166 -155.5l-140 123q198 273 512 273q200 0 335.5 -118.5t135.5 -307.5q0 -142 -75.5 -265t-255.5 -270l-330 -278h674v-193h-1002z" />
    <glyph glyph-name="three" unicode="3" horiz-adv-x="1214" 
d="M602 -25q-171 0 -307 66t-223 174l133 137q73 -89 174 -139.5t219 -50.5q136 0 217.5 65.5t81.5 171.5q0 108 -86.5 164.5t-245.5 54.5h-153v185l153 -2q137 0 220 57.5t83 161.5q0 98 -81.5 161.5t-204.5 63.5q-195 0 -355 -188l-129 127q192 248 498 248
q214 0 348.5 -107t134.5 -276q0 -124 -75.5 -208t-194.5 -120q58 -13 109.5 -39.5t95.5 -66.5t70 -99.5t26 -130.5q0 -180 -140.5 -295t-367.5 -115z" />
    <glyph glyph-name="four" unicode="4" horiz-adv-x="1292" 
d="M793 0v324h-699l-22 165l682 918h245v-901h203v-182h-203v-324h-206zM299 506h494v665z" />
    <glyph glyph-name="five" unicode="5" horiz-adv-x="1239" 
d="M612 -25q-307 0 -512 222l129 147q179 -186 389 -186q135 0 220.5 80t85.5 200q0 121 -85.5 196t-222.5 75q-164 0 -301 -103l-145 66l20 735h867v-193h-670l-12 -417q136 90 293 90q95 0 179 -30t148 -85t101 -139t37 -187q0 -212 -145 -341.5t-376 -129.5z" />
    <glyph glyph-name="six" unicode="6" horiz-adv-x="1290" 
d="M705 889q131 0 237 -51t171 -152.5t65 -236.5q0 -204 -144 -339t-366 -135q-115 0 -208 35t-157.5 98t-108 152t-63.5 194.5t-20 227.5q0 158 45 297t123.5 238.5t189.5 157t238 57.5q225 0 409 -162l-106 -160q-73 67 -144 101t-161 34q-161 0 -269.5 -154.5
t-113.5 -388.5q65 88 165.5 137.5t217.5 49.5zM659 152q136 0 221 87t85 199q0 126 -88.5 201.5t-221.5 75.5q-117 0 -203 -62.5t-114 -165.5q29 -158 108.5 -246.5t212.5 -88.5z" />
    <glyph glyph-name="seven" unicode="7" horiz-adv-x="1230" 
d="M266 0l586 1214h-739v193h983v-156l-592 -1251h-238z" />
    <glyph glyph-name="eight" unicode="8" horiz-adv-x="1253" 
d="M627 -25q-149 0 -269 48t-191 139t-71 209q0 125 83 218t216 138q-122 48 -192 130.5t-70 197.5q0 87 41.5 159.5t110.5 119.5t157.5 72.5t184.5 25.5q132 0 244 -45t181.5 -132t69.5 -200q0 -118 -72.5 -200.5t-189.5 -127.5q133 -47 215 -139.5t82 -216.5
q0 -119 -71 -210t-191 -138.5t-268 -47.5zM627 805q68 4 132 30t110 78t46 119q0 93 -83 155t-205 62t-204.5 -62t-82.5 -155q0 -68 47 -120.5t110 -77.5t130 -29zM627 158q137 0 229 65t92 166q0 71 -52 128t-124 85.5t-145 30.5q-72 -2 -144 -30.5t-125 -85.5t-53 -128
q0 -101 92.5 -166t229.5 -65z" />
    <glyph glyph-name="nine" unicode="9" horiz-adv-x="1290" 
d="M623 1432q115 0 208 -35t157.5 -98t108 -152t63.5 -194.5t20 -227.5q0 -158 -45 -297t-123.5 -238.5t-189.5 -157t-238 -57.5q-226 0 -410 162l107 160q73 -67 144 -101t161 -34q161 0 269.5 154.5t113.5 388.5q-65 -88 -165.5 -137.5t-217.5 -49.5q-131 0 -237 51
t-171 152.5t-65 236.5q0 204 144 339t366 135zM635 692q117 0 203 62.5t114 165.5q-29 158 -108.5 246.5t-212.5 88.5q-136 0 -220.5 -87t-84.5 -199q0 -126 88 -201.5t221 -75.5z" />
    <glyph glyph-name="colon" unicode=":" horiz-adv-x="542" 
d="M274 788q-58 0 -97.5 41t-39.5 99q0 54 39.5 93.5t97.5 39.5q55 0 94.5 -40t39.5 -93q0 -57 -39.5 -98.5t-94.5 -41.5zM274 -25q-58 0 -97.5 41t-39.5 99q0 53 39.5 93t97.5 40q55 0 94.5 -40t39.5 -93q0 -57 -39.5 -98.5t-94.5 -41.5z" />
    <glyph glyph-name="semicolon" unicode=";" horiz-adv-x="561" 
d="M281 788q-58 0 -98 41t-40 99q0 53 40 93t98 40q55 0 94 -40t39 -93q0 -57 -39 -98.5t-94 -41.5zM250 -281l-86 66q86 89 112 190q-55 0 -94 40.5t-39 97.5q0 55 40 95t98 40q67 0 107 -54.5t40 -140.5q0 -72 -40 -146.5t-138 -187.5z" />
    <glyph glyph-name="less" unicode="&#x3c;" horiz-adv-x="1204" 
d="M1053 176l-940 449v157l940 449v-176l-760 -350l760 -351v-178z" />
    <glyph glyph-name="equal" unicode="=" horiz-adv-x="1220" 
d="M133 823v183h957v-183h-957zM133 367v182h957v-182h-957z" />
    <glyph glyph-name="greater" unicode="&#x3e;" horiz-adv-x="1204" 
d="M152 176v178l759 351l-759 350v176l940 -449v-157z" />
    <glyph glyph-name="question" unicode="?" horiz-adv-x="1036" 
d="M367 424v369q167 12 274 78t107 157q0 89 -70 153t-184 64q-176 0 -320 -172l-127 127q194 232 469 232q195 0 317.5 -109.5t122.5 -273.5q0 -138 -110.5 -250.5t-282.5 -149.5v-225h-196zM465 -25q-58 0 -97.5 41t-39.5 99q0 53 40 93t97 40q55 0 94 -40t39 -93
q0 -57 -39 -98.5t-94 -41.5z" />
    <glyph glyph-name="at" unicode="@" horiz-adv-x="1804" 
d="M872 -238q-158 0 -303 61.5t-250 164.5t-167 245t-62 297q0 170 68.5 327.5t183.5 272.5t273.5 183.5t330.5 68.5q156 0 298.5 -58.5t245 -156t163.5 -231t61 -277.5q0 -122 -34 -220.5t-90 -158t-123 -91t-138 -31.5q-96 0 -158.5 45t-83.5 125q-135 -170 -321 -170
q-150 0 -246 100t-96 260q0 104 40.5 200t106 163.5t151 108t173.5 40.5q99 0 169.5 -44.5t109.5 -115.5l24 129l174 -12q-7 -35 -20 -101q-26 -129 -37.5 -188t-25 -133t-18.5 -110.5t-5 -55.5q0 -61 34 -94t93 -33q44 0 85.5 22.5t77.5 67.5t58 122t22 175
q0 174 -92.5 323.5t-252.5 237t-349 87.5q-155 0 -298 -62t-246.5 -166.5t-165.5 -248t-62 -298.5q0 -188 94.5 -348t257.5 -254t355 -94q125 0 228 29.5t212 95.5l39 -57q-118 -74 -232.5 -108t-251.5 -34zM819 307q127 0 209 92.5t96 235.5q12 115 -39 180.5t-159 65.5
q-130 0 -224 -105t-94 -246q0 -101 58 -162t153 -61z" />
    <glyph glyph-name="A" unicode="A" horiz-adv-x="1544" 
d="M1262 0l-123 287h-733l-123 -287h-230l604 1407h230l604 -1407h-229zM485 473h574l-287 668z" />
    <glyph glyph-name="B" unicode="B" horiz-adv-x="1409" 
d="M178 0v1407h668q177 0 289 -98t112 -252q0 -106 -50.5 -181t-149.5 -131q124 -61 191 -153.5t67 -208.5q0 -168 -122 -275.5t-311 -107.5h-694zM385 821h410q106 0 173.5 56.5t67.5 144.5t-68 145.5t-173 57.5h-410v-404zM385 182h440q118 0 193.5 65.5t75.5 166.5
t-75.5 166t-193.5 65h-440v-463z" />
    <glyph glyph-name="C" unicode="C" horiz-adv-x="1402" 
d="M829 -25q-145 0 -280 59t-234 157.5t-158 233.5t-59 280t59 279.5t158 232.5t234 156.5t280 58.5q148 0 282.5 -58.5t236.5 -163.5l-146 -139q-73 79 -170 124.5t-203 45.5q-138 0 -257.5 -72.5t-190 -196.5t-70.5 -267q0 -144 70.5 -268.5t190 -197.5t257.5 -73
q106 0 203 45.5t170 124.5l146 -139q-102 -104 -237 -163t-282 -59z" />
    <glyph glyph-name="D" unicode="D" horiz-adv-x="1560" 
d="M178 0v1407h486q225 0 402.5 -89t276.5 -249.5t99 -363.5q0 -204 -99 -364.5t-276.5 -250.5t-402.5 -90h-486zM385 188h291q244 0 398.5 144.5t154.5 372.5q0 226 -154.5 370t-398.5 144h-291v-1031z" />
    <glyph glyph-name="E" unicode="E" 
d="M1188 1214h-826v-401h746v-192h-746v-428h826v-193h-1034v1407h1034v-193z" />
    <glyph glyph-name="F" unicode="F" horiz-adv-x="1263" 
d="M1188 1214h-826v-409h746v-193h-746v-612h-208v1407h1034v-193z" />
    <glyph glyph-name="G" unicode="G" horiz-adv-x="1523" 
d="M803 578v180h581v-561q-99 -101 -251 -161.5t-302 -60.5q-145 0 -280.5 59t-234.5 157.5t-158.5 233.5t-59.5 280t59.5 279.5t158.5 232.5t234.5 156.5t280.5 58.5q151 0 302.5 -60t250.5 -162l-145 -139q-71 77 -184.5 123.5t-223.5 46.5q-139 0 -259 -73t-190.5 -196.5
t-70.5 -266.5q0 -144 70.5 -268.5t190.5 -197.5t259 -73q90 0 184 31t165 86v295h-377z" />
    <glyph glyph-name="H" unicode="H" horiz-adv-x="1488" 
d="M1128 1407h207v-1407h-207v621h-768v-621h-206v1407h206v-594h768v594z" />
    <glyph glyph-name="I" unicode="I" horiz-adv-x="518" 
d="M156 0v1407h206v-1407h-206z" />
    <glyph glyph-name="J" unicode="J" horiz-adv-x="1110" 
d="M489 -25q-129 0 -253.5 65.5t-192.5 168.5l145 141q38 -82 120 -134t171 -52q114 0 187 85t73 218v940h207v-948q0 -212 -128 -348t-329 -136z" />
    <glyph glyph-name="K" unicode="K" horiz-adv-x="1378" 
d="M176 0v1407h207v-733l664 733h264l-578 -633l617 -774h-260l-502 631l-205 -219v-412h-207z" />
    <glyph glyph-name="L" unicode="L" horiz-adv-x="1153" 
d="M344 193h746v-193h-955v1407h209v-1214z" />
    <glyph glyph-name="M" unicode="M" horiz-adv-x="1757" 
d="M178 0v1407h207l494 -920l493 920h207v-1407h-207v1001l-493 -919l-494 919v-1001h-207z" />
    <glyph glyph-name="N" unicode="N" horiz-adv-x="1579" 
d="M178 0v1407h207l809 -1067v1067h207v-1407h-207l-809 1067v-1067h-207z" />
    <glyph glyph-name="O" unicode="O" horiz-adv-x="1656" 
d="M829 -25q-145 0 -280 59t-234 157.5t-158 233.5t-59 280t59 279.5t158 232.5t234 156.5t280 58.5t279.5 -58.5t232.5 -156.5t156.5 -232.5t58.5 -279.5t-58.5 -280t-156.5 -233.5t-232.5 -157.5t-279.5 -59zM829 166q103 0 199 43.5t165.5 116t111 172t41.5 207.5
q0 107 -41.5 206t-111 171.5t-165.5 115.5t-199 43q-138 0 -257.5 -72.5t-190 -196.5t-70.5 -267q0 -144 70.5 -268.5t190 -197.5t257.5 -73z" />
    <glyph glyph-name="P" unicode="P" horiz-adv-x="1329" 
d="M154 0v1407h591q224 0 373.5 -129.5t149.5 -329.5t-149.5 -329.5t-373.5 -129.5h-385v-489h-206zM360 682h357q154 0 247 71.5t93 194.5t-93 194.5t-247 71.5h-357v-532z" />
    <glyph glyph-name="Q" unicode="Q" horiz-adv-x="1656" 
d="M1556 705q0 -242 -149 -437l149 -129l-118 -139l-158 137q-202 -162 -451 -162q-145 0 -280 59t-234 157.5t-158 233.5t-59 280t59 279.5t158 232.5t234 156.5t280 58.5t279.5 -58.5t232.5 -156.5t156.5 -232.5t58.5 -279.5zM829 166q163 0 299 102l-200 174l119 140
l206 -181q93 144 93 304q0 107 -41.5 206t-111 171.5t-165.5 115.5t-199 43q-138 0 -257.5 -72.5t-190 -196.5t-70.5 -267q0 -144 70.5 -268.5t190 -197.5t257.5 -73z" />
    <glyph glyph-name="R" unicode="R" horiz-adv-x="1349" 
d="M1268 948q0 -160 -99.5 -278t-261.5 -160l359 -510h-238l-344 489h-324v-489h-206v1407h591q224 0 373.5 -129.5t149.5 -329.5zM360 1214v-532h357q154 0 247 71.5t93 194.5t-93 194.5t-247 71.5h-357z" />
    <glyph glyph-name="S" unicode="S" horiz-adv-x="1269" 
d="M657 -23q-342 0 -579 226l125 153q206 -196 463 -196q139 0 217 62.5t78 152.5q0 95 -81.5 144.5t-271.5 92.5q-94 22 -161 44t-130 55.5t-101.5 75t-61.5 100t-23 133.5q0 178 138 296t349 118q289 0 515 -199l-119 -156q-188 172 -404 172q-116 0 -192 -63t-76 -150
q0 -39 15.5 -69.5t41 -52.5t72.5 -42t97 -34.5t126 -32.5q91 -21 158 -44t129.5 -57t102 -76t62.5 -101.5t23 -133.5q0 -185 -135 -301.5t-377 -116.5z" />
    <glyph glyph-name="T" unicode="T" horiz-adv-x="1296" 
d="M545 0v1214h-461v193h1130v-193h-462v-1214h-207z" />
    <glyph glyph-name="U" unicode="U" horiz-adv-x="1533" 
d="M768 -25q-265 0 -434.5 173.5t-169.5 443.5v815h207v-811q0 -189 111.5 -310.5t285.5 -121.5q173 0 284 121.5t111 310.5v811h209v-815q0 -270 -170 -443.5t-434 -173.5z" />
    <glyph glyph-name="V" unicode="V" horiz-adv-x="1544" 
d="M1262 1407h229l-604 -1407h-230l-604 1407h230l489 -1141z" />
    <glyph glyph-name="W" unicode="W" horiz-adv-x="2211" 
d="M526 0l-463 1407h230l346 -1073l352 1073h230l352 -1073l346 1073h229l-462 -1407h-207l-371 1120l-375 -1120h-207z" />
    <glyph glyph-name="X" unicode="X" horiz-adv-x="1437" 
d="M1374 1407l-530 -702l530 -705h-252l-405 539l-406 -539h-248l531 702l-531 705h250l406 -539l407 539h248z" />
    <glyph glyph-name="Y" unicode="Y" horiz-adv-x="1390" 
d="M590 0v551l-563 856h249l420 -659l426 659h240l-559 -856v-551h-213z" />
    <glyph glyph-name="Z" unicode="Z" horiz-adv-x="1323" 
d="M113 0l-2 162l813 1052h-797v193h1081v-162l-813 -1052h822v-193h-1104z" />
    <glyph glyph-name="bracketleft" unicode="[" horiz-adv-x="761" 
d="M160 -254v1739h506v-144h-338v-1452h338v-143h-506z" />
    <glyph glyph-name="backslash" unicode="\" horiz-adv-x="882" 
d="M698 -152l-714 1674h221l715 -1674h-222z" />
    <glyph glyph-name="bracketright" unicode="]" horiz-adv-x="761" 
d="M96 -254v143h340v1452h-340v144h508v-1739h-508z" />
    <glyph glyph-name="asciicircum" unicode="^" horiz-adv-x="1001" 
d="M102 846l326 561h150l321 -561h-160l-239 424l-240 -424h-158z" />
    <glyph glyph-name="underscore" unicode="_" horiz-adv-x="1212" 
d="M-4 -297v150h1221v-150h-1221z" />
    <glyph glyph-name="grave" unicode="`" horiz-adv-x="700" 
d="M424 1180l-295 262l197 41l245 -303h-147z" />
    <glyph glyph-name="a" unicode="a" horiz-adv-x="1179" 
d="M592 1083q210 0 326 -120.5t116 -321.5v-641h-198v145q-56 -80 -154 -125t-199 -45q-171 0 -281 92.5t-110 245.5q0 155 123 254t301 99q151 0 320 -58v33q0 53 -13.5 99.5t-43.5 87t-85 64t-131 23.5q-127 0 -299 -88l-74 150q212 106 402 106zM522 135q106 0 197.5 52
t116.5 145v141q-131 41 -289 41q-108 0 -184 -55t-76 -140q0 -84 66.5 -134t168.5 -50z" />
    <glyph glyph-name="b" unicode="b" horiz-adv-x="1320" 
d="M735 1083q210 0 349 -155.5t139 -397.5q0 -243 -138.5 -399t-349.5 -156q-121 0 -218 54.5t-159 154.5v-184h-200v1432h200v-555q62 98 159 152t218 54zM686 152q146 0 239 106t93 272t-93 271.5t-239 105.5q-143 0 -235.5 -106t-92.5 -271t92.5 -271.5t235.5 -106.5z
" />
    <glyph glyph-name="c" unicode="c" horiz-adv-x="1114" 
d="M647 -25q-148 0 -276.5 75.5t-204.5 203.5t-76 276t76 275.5t205 202.5t278 75q112 0 212 -43t177 -120l-137 -127q-47 54 -114 84t-140 30q-144 0 -248 -111.5t-104 -265.5q0 -155 104 -266.5t250 -111.5q73 0 140.5 31t117.5 87l137 -125q-167 -170 -397 -170z" />
    <glyph glyph-name="d" unicode="d" horiz-adv-x="1320" 
d="M963 1432h200v-1432h-200v184q-62 -100 -159 -154.5t-218 -54.5q-211 0 -349.5 156t-138.5 399q0 242 139 397.5t349 155.5q121 0 218 -54t159 -152v555zM635 152q143 0 235.5 106.5t92.5 271.5t-92.5 271t-235.5 106q-146 0 -239 -105.5t-93 -271.5t93 -272t239 -106z
" />
    <glyph glyph-name="e" unicode="e" horiz-adv-x="1216" 
d="M633 156q83 0 169.5 32.5t133.5 81.5l127 -131q-69 -73 -190.5 -118.5t-237.5 -45.5q-147 0 -271.5 70.5t-199 199t-74.5 287.5q0 155 70.5 282t191.5 198t266 71q240 0 375 -168.5t135 -455.5h-833q21 -134 112.5 -218.5t225.5 -84.5zM627 903q-124 0 -214.5 -77
t-115.5 -205h635q-18 129 -95.5 205.5t-209.5 76.5z" />
    <glyph glyph-name="f" unicode="f" horiz-adv-x="737" 
d="M426 1176v-117h250v-172h-250v-887h-199v887h-159v172h159v127q0 127 78 208t201 81q119 0 211 -76l-74 -135q-39 39 -108 39q-45 0 -77 -36t-32 -91z" />
    <glyph glyph-name="g" unicode="g" horiz-adv-x="1310" 
d="M952 1059h203v-946q0 -204 -151 -334.5t-386 -130.5q-130 0 -247.5 38.5t-194.5 102.5l80 152q58 -55 147 -86t185 -31q171 0 267.5 77.5t96.5 215.5v153q-64 -92 -160 -142t-214 -50q-210 0 -346 141.5t-136 362.5q0 220 136 360.5t346 140.5q118 0 215.5 -51.5
t158.5 -142.5v170zM629 254q141 0 232 92t91 236q0 142 -91 233.5t-232 91.5t-231.5 -91.5t-90.5 -233.5q0 -144 90.5 -236t231.5 -92z" />
    <glyph glyph-name="h" unicode="h" horiz-adv-x="1226" 
d="M686 1083q175 0 286 -114.5t111 -294.5v-674h-198v639q0 118 -68.5 193t-175.5 75q-120 0 -206.5 -73.5t-86.5 -176.5v-657h-201v1432h201v-531q48 81 139.5 131.5t198.5 50.5z" />
    <glyph glyph-name="i" unicode="i" horiz-adv-x="493" 
d="M248 1235q-52 0 -87.5 36.5t-35.5 86.5q0 48 36 84.5t87 36.5q49 0 85 -36.5t36 -84.5q0 -50 -36 -86.5t-85 -36.5zM145 0v1059h203v-1059h-203z" />
    <glyph glyph-name="j" unicode="j" horiz-adv-x="493" 
d="M248 1235q-52 0 -87.5 36.5t-35.5 86.5q0 48 36 84.5t87 36.5q49 0 85 -36.5t36 -84.5q0 -50 -36 -86.5t-85 -36.5zM66 -365q-101 0 -181 37l27 158q52 -20 123 -20q49 0 79.5 35.5t30.5 91.5v1122h203v-1133q0 -128 -79 -209.5t-203 -81.5z" />
    <glyph glyph-name="k" unicode="k" horiz-adv-x="1130" 
d="M1110 1059l-457 -479l437 -580h-242l-332 444l-170 -172v-272h-201v1432h201v-914l518 541h246z" />
    <glyph glyph-name="l" unicode="l" horiz-adv-x="495" 
d="M147 0v1432h201v-1432h-201z" />
    <glyph glyph-name="m" unicode="m" horiz-adv-x="1855" 
d="M1331 1083q166 0 273.5 -114.5t107.5 -294.5v-674h-199v643q0 117 -62.5 190.5t-162.5 73.5q-114 0 -186 -68t-72 -177v-662h-199v643q0 117 -62.5 190.5t-162.5 73.5q-114 0 -186 -68t-72 -177v-662h-203v1059h203v-148q40 79 119.5 125.5t179.5 46.5q114 0 204 -57
t136 -156q37 98 130.5 155.5t213.5 57.5z" />
    <glyph glyph-name="n" unicode="n" horiz-adv-x="1226" 
d="M686 1083q175 0 286 -114.5t111 -294.5v-674h-198v639q0 118 -68.5 193t-175.5 75q-111 0 -195 -63.5t-96 -157.5v-686h-203v1059h203v-154q48 79 139 128.5t197 49.5z" />
    <glyph glyph-name="o" unicode="o" 
d="M649 -25q-149 0 -278 75.5t-205 203.5t-76 276t76 275.5t205 202.5t278 75q148 0 276 -75t203.5 -202.5t75.5 -275.5t-75.5 -276t-203.5 -203.5t-276 -75.5zM649 152q143 0 247.5 111.5t104.5 266.5q0 153 -104.5 265t-247.5 112q-146 0 -251 -111.5t-105 -265.5
q0 -155 105 -266.5t251 -111.5z" />
    <glyph glyph-name="p" unicode="p" horiz-adv-x="1320" 
d="M735 1083q210 0 349 -155.5t139 -397.5q0 -243 -138.5 -399t-349.5 -156q-121 0 -218 54.5t-159 154.5v-536h-200v1411h200v-182q62 98 159 152t218 54zM686 152q146 0 239 106t93 272t-93 271.5t-239 105.5q-143 0 -235.5 -106t-92.5 -271t92.5 -271.5t235.5 -106.5z
" />
    <glyph glyph-name="q" unicode="q" horiz-adv-x="1320" 
d="M963 1059h200v-1411h-200v536q-62 -100 -159 -154.5t-218 -54.5q-211 0 -349.5 156t-138.5 399q0 242 139 397.5t349 155.5q121 0 218 -54t159 -152v182zM635 152q143 0 235.5 106.5t92.5 271.5t-92.5 271t-235.5 106q-146 0 -239 -105.5t-93 -271.5t93 -272t239 -106z
" />
    <glyph glyph-name="r" unicode="r" horiz-adv-x="804" 
d="M360 856q52 106 155.5 166.5t238.5 60.5v-176q-164 0 -272.5 -83.5t-121.5 -221.5v-602h-202v1059h202v-203z" />
    <glyph glyph-name="s" unicode="s" horiz-adv-x="1019" 
d="M530 -25q-119 0 -238.5 41t-213.5 117l96 146q178 -129 358 -129q89 0 145 38t56 99q0 28 -13.5 51.5t-31.5 38.5t-55 30.5t-62.5 23.5t-76.5 22q-98 27 -161 53t-112 62t-70.5 83t-21.5 111q-1 145 106.5 233t278.5 88q206 0 391 -122l-90 -150q-159 98 -301 98
q-81 0 -133.5 -33.5t-52.5 -91.5t48.5 -87t194.5 -74q48 -14 76 -23t71 -26t69 -32.5t57 -40t48 -52t28.5 -65t11.5 -81.5q0 -149 -113 -238.5t-289 -89.5z" />
    <glyph glyph-name="t" unicode="t" horiz-adv-x="776" 
d="M643 190l74 -139q-92 -76 -211 -76q-123 0 -201 81t-78 208v623h-159v172h159v291h199v-291h250v-172h-250v-608q0 -55 32 -91t77 -36q70 0 108 38z" />
    <glyph glyph-name="u" unicode="u" horiz-adv-x="1226" 
d="M877 1059h202v-1059h-202v154q-48 -80 -139.5 -129.5t-196.5 -49.5q-175 0 -286.5 115t-111.5 295v674h199v-639q0 -118 68.5 -193t175.5 -75q111 0 195 63.5t96 157.5v686z" />
    <glyph glyph-name="v" unicode="v" horiz-adv-x="1181" 
d="M500 0l-455 1059h219l330 -823l324 823h219l-447 -1059h-190z" />
    <glyph glyph-name="w" unicode="w" horiz-adv-x="1712" 
d="M416 0l-357 1059h207l244 -789l262 789h172l262 -789l242 789h207l-357 -1059h-186l-254 786l-256 -786h-186z" />
    <glyph glyph-name="x" unicode="x" horiz-adv-x="1138" 
d="M1085 0h-227l-289 389l-290 -389h-226l404 541l-387 518h229l270 -365l273 365h225l-385 -516z" />
    <glyph glyph-name="y" unicode="y" horiz-adv-x="1220" 
d="M334 -369q-116 0 -201 45l45 156q59 -33 129 -33q51 0 85.5 18.5t60.5 63.5l53 113l-455 1065h217l340 -836l322 836h211l-467 -1155q-56 -140 -140 -205.5t-200 -67.5z" />
    <glyph glyph-name="z" unicode="z" horiz-adv-x="1064" 
d="M102 0v152l594 725h-581v182h848v-152l-594 -725h598v-182h-865z" />
    <glyph glyph-name="braceleft" unicode="{" horiz-adv-x="815" 
d="M713 -340q-241 24 -337.5 106t-96.5 248l2 275q0 100 -46 144t-153 44v135q107 0 153 44.5t46 144.5l-2 272q0 167 96.5 248.5t337.5 105.5l16 -133q-92 -14 -145 -29t-85.5 -42.5t-42.5 -63.5t-10 -98l3 -283q0 -93 -39 -149.5t-117 -83.5q79 -28 117.5 -85t38.5 -151
l-3 -280q0 -82 23 -125t81.5 -68t178.5 -43z" />
    <glyph glyph-name="bar" unicode="|" horiz-adv-x="583" 
d="M217 -152v1674h150v-1674h-150z" />
    <glyph glyph-name="braceright" unicode="}" horiz-adv-x="815" 
d="M102 -340l-16 133q120 18 178.5 43t81.5 68t23 125l-2 280q0 180 155 236q-155 53 -155 233l2 283q0 62 -10 98t-42.5 63.5t-85.5 42.5t-145 29l16 133q242 -24 338.5 -105.5t96.5 -248.5l-2 -272q0 -100 45.5 -144.5t154.5 -44.5v-135q-107 0 -153.5 -44t-46.5 -144
l2 -275q0 -166 -96 -248t-339 -106z" />
    <glyph glyph-name="asciitilde" unicode="~" horiz-adv-x="915" 
d="M592 610q-40 0 -80.5 19.5t-68 43t-59.5 43t-58 19.5q-39 0 -63 -30.5t-34 -98.5l-112 19q31 252 207 252q40 0 80.5 -19.5t68 -43t59.5 -43t58 -19.5q73 0 96 129l113 -17q-31 -254 -207 -254z" />
    <glyph glyph-name="exclamdown" unicode="&#xa1;" horiz-adv-x="581" 
d="M289 1083q58 0 97.5 -40.5t39.5 -98.5q0 -54 -40 -93.5t-97 -39.5q-55 0 -94 40t-39 93q0 57 39 98t94 41zM356 631l50 -979h-240l51 979h139z" />
    <glyph glyph-name="cent" unicode="&#xa2;" horiz-adv-x="1114" 
d="M1044 145q-141 -144 -335 -165v-132h-172v140q-190 39 -318.5 192.5t-128.5 349.5q0 195 128 348t319 193v135h172v-127q191 -21 329 -159l-137 -127q-74 86 -192 108v-743q120 22 198 112zM295 530q0 -123 68 -221t174 -137v715q-106 -37 -174 -136t-68 -221z" />
    <glyph glyph-name="sterling" unicode="&#xa3;" horiz-adv-x="1292" 
d="M461 180h745v-180h-1100v94l148 86v350h-131v146h131v272q0 212 128.5 348t328.5 136q142 0 266 -65.5t180 -168.5l-145 -141q-26 82 -107.5 134t-181.5 52q-115 0 -188.5 -84.5t-73.5 -218.5v-264h387v-146h-387v-350z" />
    <glyph glyph-name="yen" unicode="&#xa5;" horiz-adv-x="1390" 
d="M1362 1407l-481 -737h323v-146h-401v-153h401v-146h-401v-225h-213v225h-402v146h402v153h-402v146h324l-485 737h249l420 -659l426 659h240z" />
    <glyph glyph-name="dieresis" unicode="&#xa8;" horiz-adv-x="886" 
d="M240 1214q-47 0 -79 32.5t-32 78.5q0 44 32.5 77.5t78.5 33.5q45 0 77.5 -33.5t32.5 -77.5q0 -46 -32 -78.5t-78 -32.5zM647 1214q-47 0 -78.5 32.5t-31.5 78.5q0 44 32 77.5t78 33.5q44 0 77.5 -34t33.5 -77q0 -45 -33 -78t-78 -33z" />
    <glyph glyph-name="macron" unicode="&#xaf;" horiz-adv-x="917" 
d="M129 1208v133h659v-133h-659z" />
    <glyph glyph-name="acute" unicode="&#xb4;" horiz-adv-x="700" 
d="M129 1180l244 303l198 -41l-295 -262h-147z" />
    <glyph glyph-name="cedilla" unicode="&#xb8;" horiz-adv-x="651" 
d="M377 -90q63 0 104 -38.5t41 -98.5q0 -76 -59.5 -123t-149.5 -47q-107 0 -184 59l43 96q58 -47 131 -47q41 0 68.5 20.5t27.5 51.5q0 29 -19 47t-56 18q-36 0 -66 -20l-37 37l66 158h123l-50 -113h17z" />
    <glyph glyph-name="questiondown" unicode="&#xbf;" horiz-adv-x="1036" 
d="M571 1083q58 0 98 -41t40 -98q0 -53 -40 -93t-98 -40q-55 0 -94 40t-39 93q0 57 39 98t94 41zM670 635v-369q-167 -12 -274 -78t-107 -157q0 -89 70 -153t184 -64q175 0 319 172l127 -127q-194 -232 -469 -232q-195 0 -317.5 109.5t-122.5 273.5q0 138 110.5 250.5
t282.5 149.5v225h197z" />
    <glyph glyph-name="Agrave" unicode="&#xc0;" horiz-adv-x="1544" 
d="M850 1528h-148l-294 262l196 41zM1262 0l-123 287h-733l-123 -287h-230l604 1407h230l604 -1407h-229zM485 473h574l-287 668z" />
    <glyph glyph-name="Aacute" unicode="&#xc1;" horiz-adv-x="1544" 
d="M1137 1790l-295 -262h-148l244 303zM1262 0l-123 287h-733l-123 -287h-230l604 1407h230l604 -1407h-229zM485 473h574l-287 668z" />
    <glyph glyph-name="Acircumflex" unicode="&#xc2;" horiz-adv-x="1544" 
d="M772 1696l-158 -168h-139l209 287h178l211 -287h-141zM1262 0l-123 287h-733l-123 -287h-230l604 1407h230l604 -1407h-229zM485 473h574l-287 668z" />
    <glyph glyph-name="Atilde" unicode="&#xc3;" horiz-adv-x="1544" 
d="M639 1649q-39 0 -62.5 -30.5t-33.5 -98.5l-113 18q31 252 207 252q40 0 80.5 -19.5t68 -43t59.5 -43t58 -19.5q73 0 96 129l113 -16q-31 -254 -207 -254q-40 0 -80.5 19.5t-68 43t-59.5 43t-58 19.5zM1262 0l-123 287h-733l-123 -287h-230l604 1407h230l604 -1407h-229z
M485 473h574l-287 668z" />
    <glyph glyph-name="Adieresis" unicode="&#xc4;" horiz-adv-x="1544" 
d="M569 1563q-47 0 -78.5 32t-31.5 78q0 44 32 77.5t78 33.5q45 0 78 -34t33 -77q0 -46 -32.5 -78t-78.5 -32zM977 1563q-47 0 -79 32t-32 78q0 44 32.5 77.5t78.5 33.5q44 0 77 -34t33 -77q0 -45 -32.5 -77.5t-77.5 -32.5zM1262 0l-123 287h-733l-123 -287h-230l604 1407
h230l604 -1407h-229zM485 473h574l-287 668z" />
    <glyph glyph-name="Aring" unicode="&#xc5;" horiz-adv-x="1544" 
d="M772 1548q-91 0 -155 64t-64 155t64 154.5t155 63.5t154 -63.5t63 -154.5t-63 -155t-154 -64zM772 1884q-47 0 -82 -35t-35 -82t35 -81.5t82 -34.5t82 34.5t35 81.5t-35 82t-82 35zM1262 0l-123 287h-733l-123 -287h-230l604 1407h230l604 -1407h-229zM485 473h574
l-287 668z" />
    <glyph glyph-name="AE" unicode="&#xc6;" horiz-adv-x="2134" 
d="M2028 1214h-826v-401h746v-192h-746v-428h826v-193h-1035v293h-530l-170 -293h-240l811 1407h1164v-193zM565 473h428v739z" />
    <glyph glyph-name="Ccedilla" unicode="&#xc7;" horiz-adv-x="1402" 
d="M829 166q106 0 203 45.5t170 124.5l146 -139q-94 -96 -218.5 -154.5t-259.5 -65.5l-28 -67h16q63 0 104.5 -38.5t41.5 -98.5q0 -76 -59.5 -123t-149.5 -47q-108 0 -185 59l43 96q58 -47 131 -47q41 0 69 20.5t28 51.5q0 29 -19.5 47t-56.5 18q-36 0 -66 -20l-37 37
l48 115q-132 15 -252.5 79t-208 160t-139.5 223t-52 263q0 145 59 279.5t158 232.5t234 156.5t280 58.5q148 0 282.5 -58.5t236.5 -163.5l-146 -139q-73 79 -170 124.5t-203 45.5q-138 0 -257.5 -72.5t-190 -196.5t-70.5 -267q0 -144 70.5 -268.5t190 -197.5t257.5 -73z" />
    <glyph glyph-name="Egrave" unicode="&#xc8;" 
d="M831 1528h-147l-295 262l197 41zM1188 1214h-826v-401h746v-192h-746v-428h826v-193h-1034v1407h1034v-193z" />
    <glyph glyph-name="Eacute" unicode="&#xc9;" 
d="M934 1790l-295 -262h-147l243 303zM1188 1214h-826v-401h746v-192h-746v-428h826v-193h-1034v1407h1034v-193z" />
    <glyph glyph-name="Ecircumflex" unicode="&#xca;" 
d="M672 1696l-158 -168h-139l209 287h178l211 -287h-142zM1188 1214h-826v-401h746v-192h-746v-428h826v-193h-1034v1407h1034v-193z" />
    <glyph glyph-name="Edieresis" unicode="&#xcb;" 
d="M469 1563q-47 0 -79 32t-32 78q0 44 32.5 77.5t78.5 33.5q45 0 78 -34t33 -77q0 -46 -32.5 -78t-78.5 -32zM877 1563q-47 0 -79 32t-32 78q0 44 32.5 77.5t78.5 33.5q44 0 77 -34t33 -77q0 -45 -32.5 -77.5t-77.5 -32.5zM1188 1214h-826v-401h746v-192h-746v-428h826
v-193h-1034v1407h1034v-193z" />
    <glyph glyph-name="Igrave" unicode="&#xcc;" horiz-adv-x="518" 
d="M188 1528l-294 262l196 41l246 -303h-148zM156 0v1407h206v-1407h-206z" />
    <glyph glyph-name="Iacute" unicode="&#xcd;" horiz-adv-x="518" 
d="M184 1528l244 303l199 -41l-295 -262h-148zM156 0v1407h206v-1407h-206z" />
    <glyph glyph-name="Icircumflex" unicode="&#xce;" horiz-adv-x="518" 
d="M-37 1528l209 287h178l211 -287h-141l-160 168l-158 -168h-139zM156 0v1407h206v-1407h-206z" />
    <glyph glyph-name="Idieresis" unicode="&#xcf;" horiz-adv-x="518" 
d="M57 1563q-47 0 -78.5 32t-31.5 78q0 44 32 77.5t78 33.5q45 0 78 -34t33 -77q0 -46 -32.5 -78t-78.5 -32zM465 1563q-47 0 -79 32t-32 78q0 44 32.5 77.5t78.5 33.5q44 0 77 -34t33 -77q0 -45 -32.5 -77.5t-77.5 -32.5zM156 0v1407h206v-1407h-206z" />
    <glyph glyph-name="Eth" unicode="&#xd0;" horiz-adv-x="1611" 
d="M715 1407q225 0 402.5 -89t276.5 -249.5t99 -363.5q0 -204 -99 -364.5t-276.5 -250.5t-402.5 -90h-486v618h-143v193h143v596h486zM727 188q244 0 398.5 144.5t154.5 372.5q0 226 -154.5 370t-398.5 144h-291v-408h385l-2 -193h-383v-430h291z" />
    <glyph glyph-name="Ntilde" unicode="&#xd1;" horiz-adv-x="1579" 
d="M924 1524q-40 0 -81 19.5t-68.5 43t-59.5 43t-58 19.5q-39 0 -62.5 -30.5t-33.5 -98.5l-112 18q31 252 206 252q40 0 81 -19.5t68.5 -43t59.5 -43t58 -19.5q73 0 96 129l112 -16q-31 -254 -206 -254zM178 0v1407h207l809 -1067v1067h207v-1407h-207l-809 1067v-1067h-207
z" />
    <glyph glyph-name="Ograve" unicode="&#xd2;" horiz-adv-x="1656" 
d="M762 1528l-295 262l197 41l245 -303h-147zM829 -25q-145 0 -280 59t-234 157.5t-158 233.5t-59 280t59 279.5t158 232.5t234 156.5t280 58.5t279.5 -58.5t232.5 -156.5t156.5 -232.5t58.5 -279.5t-58.5 -280t-156.5 -233.5t-232.5 -157.5t-279.5 -59zM829 166
q103 0 199 43.5t165.5 116t111 172t41.5 207.5q0 107 -41.5 206t-111 171.5t-165.5 115.5t-199 43q-138 0 -257.5 -72.5t-190 -196.5t-70.5 -267q0 -144 70.5 -268.5t190 -197.5t257.5 -73z" />
    <glyph glyph-name="Oacute" unicode="&#xd3;" horiz-adv-x="1656" 
d="M752 1528l243 303l199 -41l-295 -262h-147zM829 -25q-145 0 -280 59t-234 157.5t-158 233.5t-59 280t59 279.5t158 232.5t234 156.5t280 58.5t279.5 -58.5t232.5 -156.5t156.5 -232.5t58.5 -279.5t-58.5 -280t-156.5 -233.5t-232.5 -157.5t-279.5 -59zM829 166
q103 0 199 43.5t165.5 116t111 172t41.5 207.5q0 107 -41.5 206t-111 171.5t-165.5 115.5t-199 43q-138 0 -257.5 -72.5t-190 -196.5t-70.5 -267q0 -144 70.5 -268.5t190 -197.5t257.5 -73z" />
    <glyph glyph-name="Ocircumflex" unicode="&#xd4;" horiz-adv-x="1656" 
d="M532 1528l209 287h179l210 -287h-141l-160 168l-157 -168h-140zM829 -25q-145 0 -280 59t-234 157.5t-158 233.5t-59 280t59 279.5t158 232.5t234 156.5t280 58.5t279.5 -58.5t232.5 -156.5t156.5 -232.5t58.5 -279.5t-58.5 -280t-156.5 -233.5t-232.5 -157.5t-279.5 -59
zM829 166q103 0 199 43.5t165.5 116t111 172t41.5 207.5q0 107 -41.5 206t-111 171.5t-165.5 115.5t-199 43q-138 0 -257.5 -72.5t-190 -196.5t-70.5 -267q0 -144 70.5 -268.5t190 -197.5t257.5 -73z" />
    <glyph glyph-name="Otilde" unicode="&#xd5;" horiz-adv-x="1656" 
d="M963 1524q-40 0 -81 19.5t-68.5 43t-59.5 43t-58 19.5q-39 0 -62.5 -30.5t-33.5 -98.5l-113 18q31 252 207 252q40 0 81 -19.5t68.5 -43t59.5 -43t58 -19.5q73 0 96 129l112 -16q-31 -254 -206 -254zM829 -25q-145 0 -280 59t-234 157.5t-158 233.5t-59 280t59 279.5
t158 232.5t234 156.5t280 58.5t279.5 -58.5t232.5 -156.5t156.5 -232.5t58.5 -279.5t-58.5 -280t-156.5 -233.5t-232.5 -157.5t-279.5 -59zM829 166q103 0 199 43.5t165.5 116t111 172t41.5 207.5q0 107 -41.5 206t-111 171.5t-165.5 115.5t-199 43q-138 0 -257.5 -72.5
t-190 -196.5t-70.5 -267q0 -144 70.5 -268.5t190 -197.5t257.5 -73z" />
    <glyph glyph-name="Odieresis" unicode="&#xd6;" horiz-adv-x="1656" 
d="M627 1563q-47 0 -79 32t-32 78q0 44 32.5 77.5t78.5 33.5q45 0 77.5 -33.5t32.5 -77.5q0 -46 -32 -78t-78 -32zM1034 1563q-47 0 -78.5 32t-31.5 78q0 44 32 77.5t78 33.5q44 0 77.5 -34t33.5 -77q0 -45 -33 -77.5t-78 -32.5zM829 -25q-145 0 -280 59t-234 157.5
t-158 233.5t-59 280t59 279.5t158 232.5t234 156.5t280 58.5t279.5 -58.5t232.5 -156.5t156.5 -232.5t58.5 -279.5t-58.5 -280t-156.5 -233.5t-232.5 -157.5t-279.5 -59zM829 166q103 0 199 43.5t165.5 116t111 172t41.5 207.5q0 107 -41.5 206t-111 171.5t-165.5 115.5
t-199 43q-138 0 -257.5 -72.5t-190 -196.5t-70.5 -267q0 -144 70.5 -268.5t190 -197.5t257.5 -73z" />
    <glyph glyph-name="multiply" unicode="&#xd7;" horiz-adv-x="1122" 
d="M965 414l-134 -133l-272 272l-270 -270l-131 127l272 272l-274 274l133 134l274 -275l273 272l127 -131l-271 -270z" />
    <glyph glyph-name="Oslash" unicode="&#xd8;" horiz-adv-x="1656" 
d="M1360 1198q93 -100 144.5 -227.5t51.5 -265.5q0 -145 -58.5 -280t-156.5 -233.5t-232.5 -157.5t-279.5 -59q-223 0 -413 134l-94 -109h-205l182 209q-95 100 -148 228.5t-53 267.5q0 145 59 279.5t158 232.5t234 156.5t280 58.5q222 0 414 -132l92 107h205zM311 705
q0 -194 121 -340l680 786q-129 90 -283 90q-138 0 -257.5 -72.5t-190 -196.5t-70.5 -267zM829 166q103 0 199 43.5t165.5 116t111 172t41.5 207.5q0 188 -119 339l-682 -786q132 -92 284 -92z" />
    <glyph glyph-name="Ugrave" unicode="&#xd9;" horiz-adv-x="1533" 
d="M780 1528l-295 262l197 41l246 -303h-148zM768 -25q-265 0 -434.5 173.5t-169.5 443.5v815h207v-811q0 -189 111.5 -310.5t285.5 -121.5q173 0 284 121.5t111 310.5v811h209v-815q0 -270 -170 -443.5t-434 -173.5z" />
    <glyph glyph-name="Uacute" unicode="&#xda;" horiz-adv-x="1533" 
d="M588 1528l243 303l199 -41l-295 -262h-147zM768 -25q-265 0 -434.5 173.5t-169.5 443.5v815h207v-811q0 -189 111.5 -310.5t285.5 -121.5q173 0 284 121.5t111 310.5v811h209v-815q0 -270 -170 -443.5t-434 -173.5z" />
    <glyph glyph-name="Ucircumflex" unicode="&#xdb;" horiz-adv-x="1533" 
d="M471 1528l209 287h178l211 -287h-141l-160 168l-158 -168h-139zM768 -25q-265 0 -434.5 173.5t-169.5 443.5v815h207v-811q0 -189 111.5 -310.5t285.5 -121.5q173 0 284 121.5t111 310.5v811h209v-815q0 -270 -170 -443.5t-434 -173.5z" />
    <glyph glyph-name="Udieresis" unicode="&#xdc;" horiz-adv-x="1533" 
d="M565 1563q-47 0 -78.5 32t-31.5 78q0 44 32 77.5t78 33.5q45 0 78 -34t33 -77q0 -46 -32.5 -78t-78.5 -32zM973 1563q-47 0 -79 32t-32 78q0 44 32.5 77.5t78.5 33.5q44 0 77 -34t33 -77q0 -45 -32.5 -77.5t-77.5 -32.5zM768 -25q-265 0 -434.5 173.5t-169.5 443.5v815
h207v-811q0 -189 111.5 -310.5t285.5 -121.5q173 0 284 121.5t111 310.5v811h209v-815q0 -270 -170 -443.5t-434 -173.5z" />
    <glyph glyph-name="Yacute" unicode="&#xdd;" horiz-adv-x="1390" 
d="M516 1528l244 303l198 -41l-294 -262h-148zM590 0v551l-563 856h249l420 -659l426 659h240l-559 -856v-551h-213z" />
    <glyph glyph-name="Thorn" unicode="&#xde;" horiz-adv-x="1329" 
d="M154 0v1407h208v-240h383q147 0 266.5 -58t188 -163t68.5 -237q0 -133 -68.5 -238t-188 -163t-266.5 -58h-385v-250h-206zM360 442h357q154 0 247 72t93 195t-93 193.5t-247 70.5h-357v-531z" />
    <glyph glyph-name="germandbls" unicode="&#xdf;" horiz-adv-x="1204" 
d="M158 0v1073q0 167 127 274t325 107t323.5 -107t125.5 -274q0 -215 -199 -328q123 -61 189.5 -153.5t66.5 -208.5q0 -168 -121.5 -275.5t-310.5 -107.5h-168v182h123q117 0 191.5 65.5t74.5 166.5t-74.5 166t-191.5 65h-123v176h90q104 0 173 64t69 153q0 96 -67.5 157.5
t-174.5 61.5q-105 0 -173 -64t-68 -163v-1030h-207z" />
    <glyph glyph-name="agrave" unicode="&#xe0;" horiz-adv-x="1179" 
d="M764 1180h-148l-294 262l196 41zM592 1083q210 0 326 -120.5t116 -321.5v-641h-198v145q-56 -80 -154 -125t-199 -45q-171 0 -281 92.5t-110 245.5q0 155 123 254t301 99q151 0 320 -58v33q0 53 -13.5 99.5t-43.5 87t-85 64t-131 23.5q-127 0 -299 -88l-74 150
q212 106 402 106zM522 135q106 0 197.5 52t116.5 145v141q-131 41 -289 41q-108 0 -184 -55t-76 -140q0 -84 66.5 -134t168.5 -50z" />
    <glyph glyph-name="aacute" unicode="&#xe1;" horiz-adv-x="1179" 
d="M866 1442l-295 -262h-147l244 303zM592 1083q210 0 326 -120.5t116 -321.5v-641h-198v145q-56 -80 -154 -125t-199 -45q-171 0 -281 92.5t-110 245.5q0 155 123 254t301 99q151 0 320 -58v33q0 53 -13.5 99.5t-43.5 87t-85 64t-131 23.5q-127 0 -299 -88l-74 150
q212 106 402 106zM522 135q106 0 197.5 52t116.5 145v141q-131 41 -289 41q-108 0 -184 -55t-76 -140q0 -84 66.5 -134t168.5 -50z" />
    <glyph glyph-name="acircumflex" unicode="&#xe2;" horiz-adv-x="1179" 
d="M604 1348l-158 -168h-139l209 286h178l211 -286h-141zM592 1083q210 0 326 -120.5t116 -321.5v-641h-198v145q-56 -80 -154 -125t-199 -45q-171 0 -281 92.5t-110 245.5q0 155 123 254t301 99q151 0 320 -58v33q0 53 -13.5 99.5t-43.5 87t-85 64t-131 23.5
q-127 0 -299 -88l-74 150q212 106 402 106zM522 135q106 0 197.5 52t116.5 145v141q-131 41 -289 41q-108 0 -184 -55t-76 -140q0 -84 66.5 -134t168.5 -50z" />
    <glyph glyph-name="atilde" unicode="&#xe3;" horiz-adv-x="1179" 
d="M471 1300q-39 0 -62.5 -30.5t-33.5 -98.5l-113 19q31 252 207 252q40 0 80.5 -19.5t68 -43t59.5 -43t58 -19.5q73 0 96 129l113 -16q-31 -254 -207 -254q-40 0 -80.5 19.5t-68 42.5t-59.5 42.5t-58 19.5zM592 1083q210 0 326 -120.5t116 -321.5v-641h-198v145
q-56 -80 -154 -125t-199 -45q-171 0 -281 92.5t-110 245.5q0 155 123 254t301 99q151 0 320 -58v33q0 53 -13.5 99.5t-43.5 87t-85 64t-131 23.5q-127 0 -299 -88l-74 150q212 106 402 106zM522 135q106 0 197.5 52t116.5 145v141q-131 41 -289 41q-108 0 -184 -55t-76 -140
q0 -84 66.5 -134t168.5 -50z" />
    <glyph glyph-name="adieresis" unicode="&#xe4;" horiz-adv-x="1179" 
d="M401 1214q-47 0 -78.5 32.5t-31.5 78.5q0 44 32 77.5t78 33.5q45 0 78 -34t33 -77q0 -46 -32.5 -78.5t-78.5 -32.5zM809 1214q-47 0 -79 32.5t-32 78.5q0 44 32.5 77.5t78.5 33.5q44 0 77.5 -34t33.5 -77q0 -45 -33 -78t-78 -33zM592 1083q210 0 326 -120.5t116 -321.5
v-641h-198v145q-56 -80 -154 -125t-199 -45q-171 0 -281 92.5t-110 245.5q0 155 123 254t301 99q151 0 320 -58v33q0 53 -13.5 99.5t-43.5 87t-85 64t-131 23.5q-127 0 -299 -88l-74 150q212 106 402 106zM522 135q106 0 197.5 52t116.5 145v141q-131 41 -289 41
q-108 0 -184 -55t-76 -140q0 -84 66.5 -134t168.5 -50z" />
    <glyph glyph-name="aring" unicode="&#xe5;" horiz-adv-x="1179" 
d="M604 1200q-91 0 -155 64t-64 155t64 154t155 63t154 -63t63 -154t-63 -155t-154 -64zM604 1536q-47 0 -82 -35t-35 -82t35 -81.5t82 -34.5t82 34.5t35 81.5t-35 82t-82 35zM592 1083q210 0 326 -120.5t116 -321.5v-641h-198v145q-56 -80 -154 -125t-199 -45
q-171 0 -281 92.5t-110 245.5q0 155 123 254t301 99q151 0 320 -58v33q0 53 -13.5 99.5t-43.5 87t-85 64t-131 23.5q-127 0 -299 -88l-74 150q212 106 402 106zM522 135q106 0 197.5 52t116.5 145v141q-131 41 -289 41q-108 0 -184 -55t-76 -140q0 -84 66.5 -134t168.5 -50z
" />
    <glyph glyph-name="ae" unicode="&#xe6;" horiz-adv-x="1961" 
d="M1378 156q84 0 170 32.5t133 81.5l127 -131q-69 -73 -190.5 -118.5t-237.5 -45.5q-131 0 -246 58.5t-190 161.5q-67 -102 -181 -161t-251 -59q-195 0 -307.5 90t-112.5 248q0 155 123 254t301 99q151 0 320 -58v33q0 53 -13.5 99.5t-43.5 87t-85 64t-131 23.5
q-127 0 -299 -88l-74 150q212 106 394 106q132 0 227 -50.5t147 -141.5q73 90 179 141t227 51q240 0 375 -168.5t135 -455.5h-834q21 -134 112.5 -218.5t225.5 -84.5zM1372 903q-124 0 -214.5 -77t-115.5 -205h635q-18 129 -95.5 205.5t-209.5 76.5zM539 135q123 0 210 77.5
t87 186.5v74q-131 41 -289 41q-108 0 -184 -55t-76 -140q0 -86 67.5 -135t184.5 -49z" />
    <glyph glyph-name="ccedilla" unicode="&#xe7;" horiz-adv-x="1114" 
d="M1044 145q-150 -153 -352 -168l-30 -67h16q63 0 104 -38.5t41 -98.5q0 -76 -59.5 -123t-149.5 -47q-107 0 -184 59l43 96q58 -47 131 -47q41 0 68.5 20.5t27.5 51.5q0 29 -19 47t-56 18q-36 0 -66 -20l-37 37l49 117q-202 29 -341.5 186.5t-139.5 361.5q0 148 76 275.5
t205 202.5t278 75q112 0 212 -43t177 -120l-137 -127q-47 54 -114 84t-140 30q-144 0 -248 -111.5t-104 -265.5q0 -155 104 -266.5t250 -111.5q73 0 140.5 31t117.5 87z" />
    <glyph glyph-name="egrave" unicode="&#xe8;" horiz-adv-x="1216" 
d="M778 1180h-147l-295 262l196 41zM633 156q83 0 169.5 32.5t133.5 81.5l127 -131q-69 -73 -190.5 -118.5t-237.5 -45.5q-147 0 -271.5 70.5t-199 199t-74.5 287.5q0 155 70.5 282t191.5 198t266 71q240 0 375 -168.5t135 -455.5h-833q21 -134 112.5 -218.5t225.5 -84.5z
M627 903q-124 0 -214.5 -77t-115.5 -205h635q-18 129 -95.5 205.5t-209.5 76.5z" />
    <glyph glyph-name="eacute" unicode="&#xe9;" horiz-adv-x="1216" 
d="M881 1442l-295 -262h-148l244 303zM633 156q83 0 169.5 32.5t133.5 81.5l127 -131q-69 -73 -190.5 -118.5t-237.5 -45.5q-147 0 -271.5 70.5t-199 199t-74.5 287.5q0 155 70.5 282t191.5 198t266 71q240 0 375 -168.5t135 -455.5h-833q21 -134 112.5 -218.5t225.5 -84.5z
M627 903q-124 0 -214.5 -77t-115.5 -205h635q-18 129 -95.5 205.5t-209.5 76.5z" />
    <glyph glyph-name="ecircumflex" unicode="&#xea;" horiz-adv-x="1216" 
d="M618 1348l-157 -168h-139l208 286h179l211 -286h-142zM633 156q83 0 169.5 32.5t133.5 81.5l127 -131q-69 -73 -190.5 -118.5t-237.5 -45.5q-147 0 -271.5 70.5t-199 199t-74.5 287.5q0 155 70.5 282t191.5 198t266 71q240 0 375 -168.5t135 -455.5h-833
q21 -134 112.5 -218.5t225.5 -84.5zM627 903q-124 0 -214.5 -77t-115.5 -205h635q-18 129 -95.5 205.5t-209.5 76.5z" />
    <glyph glyph-name="edieresis" unicode="&#xeb;" horiz-adv-x="1216" 
d="M416 1214q-47 0 -79 32.5t-32 78.5q0 44 32.5 77.5t78.5 33.5q45 0 77.5 -33.5t32.5 -77.5q0 -46 -32 -78.5t-78 -32.5zM823 1214q-47 0 -78.5 32.5t-31.5 78.5q0 44 32 77.5t78 33.5q44 0 77.5 -34t33.5 -77q0 -45 -33 -78t-78 -33zM633 156q83 0 169.5 32.5t133.5 81.5
l127 -131q-69 -73 -190.5 -118.5t-237.5 -45.5q-147 0 -271.5 70.5t-199 199t-74.5 287.5q0 155 70.5 282t191.5 198t266 71q240 0 375 -168.5t135 -455.5h-833q21 -134 112.5 -218.5t225.5 -84.5zM627 903q-124 0 -214.5 -77t-115.5 -205h635q-18 129 -95.5 205.5
t-209.5 76.5z" />
    <glyph glyph-name="igrave" unicode="&#xec;" horiz-adv-x="493" 
d="M176 1180l-295 262l197 41l246 -303h-148zM145 0v1059h203v-1059h-203z" />
    <glyph glyph-name="iacute" unicode="&#xed;" horiz-adv-x="493" 
d="M172 1180l244 303l198 -41l-295 -262h-147zM145 0v1059h203v-1059h-203z" />
    <glyph glyph-name="icircumflex" unicode="&#xee;" horiz-adv-x="493" 
d="M-49 1180l209 286h178l211 -286h-141l-160 168l-158 -168h-139zM145 0v1059h203v-1059h-203z" />
    <glyph glyph-name="idieresis" unicode="&#xef;" horiz-adv-x="493" 
d="M45 1214q-47 0 -79 32.5t-32 78.5q0 44 32.5 77.5t78.5 33.5q45 0 78 -34t33 -77q0 -46 -32.5 -78.5t-78.5 -32.5zM453 1214q-47 0 -79 32.5t-32 78.5q0 44 32.5 77.5t78.5 33.5q44 0 77 -34t33 -77q0 -45 -32.5 -78t-77.5 -33zM145 0v1059h203v-1059h-203z" />
    <glyph glyph-name="eth" unicode="&#xf0;" horiz-adv-x="1288" 
d="M817 1251q184 -171 271.5 -334.5t87.5 -357.5q0 -257 -148 -420.5t-381 -163.5q-235 0 -384.5 150t-149.5 385q0 222 132.5 365t338.5 143q196 0 334 -160q-80 156 -267 318l-239 -107l-60 137l166 74q-58 45 -160 113l195 80q112 -89 141 -113l197 88l61 -137zM647 154
q143 0 233.5 97t90.5 251q0 146 -90.5 245t-239.5 99q-143 0 -234.5 -96t-91.5 -246q0 -154 93 -252t239 -98z" />
    <glyph glyph-name="ntilde" unicode="&#xf1;" horiz-adv-x="1226" 
d="M512 1300q-39 0 -62.5 -30.5t-33.5 -98.5l-113 19q31 252 207 252q40 0 80.5 -19.5t68 -43t59.5 -43t58 -19.5q73 0 96 129l113 -16q-31 -254 -207 -254q-40 0 -80.5 19.5t-68 42.5t-59.5 42.5t-58 19.5zM686 1083q175 0 286 -114.5t111 -294.5v-674h-198v639
q0 118 -68.5 193t-175.5 75q-111 0 -195 -63.5t-96 -157.5v-686h-203v1059h203v-154q48 79 139 128.5t197 49.5z" />
    <glyph glyph-name="ograve" unicode="&#xf2;" 
d="M662 1180l-295 262l196 41l246 -303h-147zM649 -25q-149 0 -278 75.5t-205 203.5t-76 276t76 275.5t205 202.5t278 75q148 0 276 -75t203.5 -202.5t75.5 -275.5t-75.5 -276t-203.5 -203.5t-276 -75.5zM649 152q143 0 247.5 111.5t104.5 266.5q0 153 -104.5 265
t-247.5 112q-146 0 -251 -111.5t-105 -265.5q0 -155 105 -266.5t251 -111.5z" />
    <glyph glyph-name="oacute" unicode="&#xf3;" 
d="M469 1180l244 303l198 -41l-295 -262h-147zM649 -25q-149 0 -278 75.5t-205 203.5t-76 276t76 275.5t205 202.5t278 75q148 0 276 -75t203.5 -202.5t75.5 -275.5t-75.5 -276t-203.5 -203.5t-276 -75.5zM649 152q143 0 247.5 111.5t104.5 266.5q0 153 -104.5 265
t-247.5 112q-146 0 -251 -111.5t-105 -265.5q0 -155 105 -266.5t251 -111.5z" />
    <glyph glyph-name="ocircumflex" unicode="&#xf4;" 
d="M352 1180l209 286h178l211 -286h-141l-160 168l-157 -168h-140zM649 -25q-149 0 -278 75.5t-205 203.5t-76 276t76 275.5t205 202.5t278 75q148 0 276 -75t203.5 -202.5t75.5 -275.5t-75.5 -276t-203.5 -203.5t-276 -75.5zM649 152q143 0 247.5 111.5t104.5 266.5
q0 153 -104.5 265t-247.5 112q-146 0 -251 -111.5t-105 -265.5q0 -155 105 -266.5t251 -111.5z" />
    <glyph glyph-name="otilde" unicode="&#xf5;" 
d="M782 1176q-40 0 -80.5 19.5t-68 42.5t-59.5 42.5t-58 19.5q-39 0 -62.5 -30.5t-33.5 -98.5l-113 19q31 252 207 252q40 0 80.5 -19.5t68 -43t59.5 -43t58 -19.5q74 0 97 129l112 -16q-31 -254 -207 -254zM649 -25q-149 0 -278 75.5t-205 203.5t-76 276t76 275.5
t205 202.5t278 75q148 0 276 -75t203.5 -202.5t75.5 -275.5t-75.5 -276t-203.5 -203.5t-276 -75.5zM649 152q143 0 247.5 111.5t104.5 266.5q0 153 -104.5 265t-247.5 112q-146 0 -251 -111.5t-105 -265.5q0 -155 105 -266.5t251 -111.5z" />
    <glyph glyph-name="odieresis" unicode="&#xf6;" 
d="M446 1214q-47 0 -78.5 32.5t-31.5 78.5q0 44 32 77.5t78 33.5q45 0 78 -34t33 -77q0 -46 -32.5 -78.5t-78.5 -32.5zM854 1214q-47 0 -79 32.5t-32 78.5q0 44 32.5 77.5t78.5 33.5q44 0 77.5 -34t33.5 -77q0 -45 -33 -78t-78 -33zM649 -25q-149 0 -278 75.5t-205 203.5
t-76 276t76 275.5t205 202.5t278 75q148 0 276 -75t203.5 -202.5t75.5 -275.5t-75.5 -276t-203.5 -203.5t-276 -75.5zM649 152q143 0 247.5 111.5t104.5 266.5q0 153 -104.5 265t-247.5 112q-146 0 -251 -111.5t-105 -265.5q0 -155 105 -266.5t251 -111.5z" />
    <glyph glyph-name="divide" unicode="&#xf7;" horiz-adv-x="1220" 
d="M614 905q-55 0 -93 38.5t-38 92.5q0 52 38 89.5t93 37.5q52 0 88.5 -37.5t36.5 -89.5q0 -54 -36.5 -92.5t-88.5 -38.5zM133 594v182h957v-182h-957zM614 205q-55 0 -93 38.5t-38 92.5q0 52 38 89.5t93 37.5q52 0 88.5 -37.5t36.5 -89.5q0 -54 -36.5 -92.5t-88.5 -38.5z
" />
    <glyph glyph-name="oslash" unicode="&#xf8;" 
d="M1061 899q143 -163 143 -369q0 -148 -75.5 -276t-203.5 -203.5t-276 -75.5q-164 0 -301 91l-57 -66h-189l136 158q-148 164 -148 372q0 148 76 275.5t205 202.5t278 75q161 0 303 -92l58 68h188zM293 530q0 -124 72 -225l466 547q-83 55 -182 55q-146 0 -251 -111.5
t-105 -265.5zM649 152q143 0 247.5 111.5t104.5 266.5q0 125 -67 220l-467 -543q83 -55 182 -55z" />
    <glyph glyph-name="ugrave" unicode="&#xf9;" horiz-adv-x="1226" 
d="M770 1180h-147l-295 262l196 41zM877 1059h202v-1059h-202v154q-48 -80 -139.5 -129.5t-196.5 -49.5q-175 0 -286.5 115t-111.5 295v674h199v-639q0 -118 68.5 -193t175.5 -75q111 0 195 63.5t96 157.5v686z" />
    <glyph glyph-name="uacute" unicode="&#xfa;" horiz-adv-x="1226" 
d="M872 1442l-294 -262h-148l244 303zM877 1059h202v-1059h-202v154q-48 -80 -139.5 -129.5t-196.5 -49.5q-175 0 -286.5 115t-111.5 295v674h199v-639q0 -118 68.5 -193t175.5 -75q111 0 195 63.5t96 157.5v686z" />
    <glyph glyph-name="ucircumflex" unicode="&#xfb;" horiz-adv-x="1226" 
d="M610 1348l-157 -168h-140l209 286h178l211 -286h-141zM877 1059h202v-1059h-202v154q-48 -80 -139.5 -129.5t-196.5 -49.5q-175 0 -286.5 115t-111.5 295v674h199v-639q0 -118 68.5 -193t175.5 -75q111 0 195 63.5t96 157.5v686z" />
    <glyph glyph-name="udieresis" unicode="&#xfc;" horiz-adv-x="1226" 
d="M408 1214q-47 0 -79 32.5t-32 78.5q0 44 32.5 77.5t78.5 33.5q45 0 77.5 -33.5t32.5 -77.5q0 -46 -32 -78.5t-78 -32.5zM815 1214q-47 0 -78.5 32.5t-31.5 78.5q0 44 32 77.5t78 33.5q44 0 77.5 -34t33.5 -77q0 -45 -33 -78t-78 -33zM877 1059h202v-1059h-202v154
q-48 -80 -139.5 -129.5t-196.5 -49.5q-175 0 -286.5 115t-111.5 295v674h199v-639q0 -118 68.5 -193t175.5 -75q111 0 195 63.5t96 157.5v686z" />
    <glyph glyph-name="yacute" unicode="&#xfd;" horiz-adv-x="1220" 
d="M428 1180l244 303l198 -41l-295 -262h-147zM334 -369q-116 0 -201 45l45 156q59 -33 129 -33q51 0 85.5 18.5t60.5 63.5l53 113l-455 1065h217l340 -836l322 836h211l-467 -1155q-56 -140 -140 -205.5t-200 -67.5z" />
    <glyph glyph-name="thorn" unicode="&#xfe;" horiz-adv-x="1320" 
d="M735 1083q210 0 349 -155.5t139 -397.5q0 -243 -138.5 -399t-349.5 -156q-121 0 -218 54.5t-159 154.5v-536h-200v1784h200v-555q62 98 159 152t218 54zM686 152q146 0 239 106t93 272t-93 271.5t-239 105.5q-143 0 -235.5 -106t-92.5 -271t92.5 -271.5t235.5 -106.5z
" />
    <glyph glyph-name="ydieresis" unicode="&#xff;" horiz-adv-x="1220" 
d="M406 1214q-47 0 -79 32.5t-32 78.5q0 44 32.5 77.5t78.5 33.5q45 0 77.5 -33.5t32.5 -77.5q0 -46 -32 -78.5t-78 -32.5zM813 1214q-47 0 -79 32.5t-32 78.5q0 44 32.5 77.5t78.5 33.5q44 0 77.5 -34t33.5 -77q0 -45 -33 -78t-78 -33zM334 -369q-116 0 -201 45l45 156
q59 -33 129 -33q51 0 85.5 18.5t60.5 63.5l53 113l-455 1065h217l340 -836l322 836h211l-467 -1155q-56 -140 -140 -205.5t-200 -67.5z" />
    <glyph glyph-name="Amacron" unicode="&#x100;" horiz-adv-x="1544" 
d="M1102 1690v-134h-660v134h660zM1262 0l-123 287h-733l-123 -287h-230l604 1407h230l604 -1407h-229zM485 473h574l-287 668z" />
    <glyph glyph-name="amacron" unicode="&#x101;" horiz-adv-x="1179" 
d="M934 1341v-133h-660v133h660zM592 1083q210 0 326 -120.5t116 -321.5v-641h-198v145q-56 -80 -154 -125t-199 -45q-171 0 -281 92.5t-110 245.5q0 155 123 254t301 99q151 0 320 -58v33q0 53 -13.5 99.5t-43.5 87t-85 64t-131 23.5q-127 0 -299 -88l-74 150
q212 106 402 106zM522 135q106 0 197.5 52t116.5 145v141q-131 41 -289 41q-108 0 -184 -55t-76 -140q0 -84 66.5 -134t168.5 -50z" />
    <glyph glyph-name="Abreve" unicode="&#x102;" horiz-adv-x="1544" 
d="M1081 1675q-127 -127 -309 -127q-179 0 -309 127l106 109q42 -40 95.5 -63t107.5 -23t107.5 23t95.5 63zM1262 0l-123 287h-733l-123 -287h-230l604 1407h230l604 -1407h-229zM485 473h574l-287 668z" />
    <glyph glyph-name="abreve" unicode="&#x103;" horiz-adv-x="1179" 
d="M913 1327q-127 -127 -309 -127q-179 0 -309 127l106 109q42 -40 95.5 -63t107.5 -23t107.5 23t95.5 63zM592 1083q210 0 326 -120.5t116 -321.5v-641h-198v145q-56 -80 -154 -125t-199 -45q-171 0 -281 92.5t-110 245.5q0 155 123 254t301 99q151 0 320 -58v33
q0 53 -13.5 99.5t-43.5 87t-85 64t-131 23.5q-127 0 -299 -88l-74 150q212 106 402 106zM522 135q106 0 197.5 52t116.5 145v141q-131 41 -289 41q-108 0 -184 -55t-76 -140q0 -84 66.5 -134t168.5 -50z" />
    <glyph glyph-name="Aogonek" unicode="&#x104;" horiz-adv-x="1544" 
d="M1579 -178l61 -115q-70 -61 -174 -61q-101 0 -163 59.5t-62 161.5q0 76 47 133h-26l-123 287h-733l-123 -287h-230l604 1407h230l604 -1407q-49 0 -80 -30.5t-31 -78.5q0 -49 29 -76.5t82 -27.5q57 0 88 35zM485 473h574l-287 668z" />
    <glyph glyph-name="aogonek" unicode="&#x105;" horiz-adv-x="1179" 
d="M1122 -178l62 -115q-70 -61 -174 -61q-101 0 -163.5 59.5t-62.5 161.5q0 78 52 137v141q-56 -80 -154 -125t-199 -45q-171 0 -281 92.5t-110 245.5q0 155 123 254t301 99q151 0 320 -58v33q0 53 -13.5 99.5t-43.5 87t-85 64t-131 23.5q-127 0 -299 -88l-74 150
q212 106 402 106q210 0 326 -120.5t116 -321.5v-641q-49 0 -79.5 -30.5t-30.5 -78.5q0 -50 29 -77t81 -27q56 0 88 35zM522 135q106 0 197.5 52t116.5 145v141q-131 41 -289 41q-108 0 -184 -55t-76 -140q0 -84 66.5 -134t168.5 -50z" />
    <glyph glyph-name="Cacute" unicode="&#x106;" horiz-adv-x="1402" 
d="M606 1528l244 303l199 -41l-295 -262h-148zM829 -25q-145 0 -280 59t-234 157.5t-158 233.5t-59 280t59 279.5t158 232.5t234 156.5t280 58.5q148 0 282.5 -58.5t236.5 -163.5l-146 -139q-73 79 -170 124.5t-203 45.5q-138 0 -257.5 -72.5t-190 -196.5t-70.5 -267
q0 -144 70.5 -268.5t190 -197.5t257.5 -73q106 0 203 45.5t170 124.5l146 -139q-102 -104 -237 -163t-282 -59z" />
    <glyph glyph-name="cacute" unicode="&#x107;" horiz-adv-x="1114" 
d="M426 1180l244 303l198 -41l-295 -262h-147zM647 -25q-148 0 -276.5 75.5t-204.5 203.5t-76 276t76 275.5t205 202.5t278 75q112 0 212 -43t177 -120l-137 -127q-47 54 -114 84t-140 30q-144 0 -248 -111.5t-104 -265.5q0 -155 104 -266.5t250 -111.5q73 0 140.5 31
t117.5 87l137 -125q-167 -170 -397 -170z" />
    <glyph glyph-name="Ccaron" unicode="&#x10c;" horiz-adv-x="1402" 
d="M698 1528l-209 287h140l157 -168l160 168h141l-210 -287h-179zM829 -25q-145 0 -280 59t-234 157.5t-158 233.5t-59 280t59 279.5t158 232.5t234 156.5t280 58.5q148 0 282.5 -58.5t236.5 -163.5l-146 -139q-73 79 -170 124.5t-203 45.5q-138 0 -257.5 -72.5t-190 -196.5
t-70.5 -267q0 -144 70.5 -268.5t190 -197.5t257.5 -73q106 0 203 45.5t170 124.5l146 -139q-102 -104 -237 -163t-282 -59z" />
    <glyph glyph-name="ccaron" unicode="&#x10d;" horiz-adv-x="1114" 
d="M518 1180l-209 286h140l157 -168l160 168h141l-211 -286h-178zM647 -25q-148 0 -276.5 75.5t-204.5 203.5t-76 276t76 275.5t205 202.5t278 75q112 0 212 -43t177 -120l-137 -127q-47 54 -114 84t-140 30q-144 0 -248 -111.5t-104 -265.5q0 -155 104 -266.5t250 -111.5
q73 0 140.5 31t117.5 87l137 -125q-167 -170 -397 -170z" />
    <glyph glyph-name="Dcaron" unicode="&#x10e;" horiz-adv-x="1560" 
d="M575 1528l-208 287h139l158 -168l159 168h142l-211 -287h-179zM178 0v1407h486q225 0 402.5 -89t276.5 -249.5t99 -363.5q0 -204 -99 -364.5t-276.5 -250.5t-402.5 -90h-486zM385 188h291q244 0 398.5 144.5t154.5 372.5q0 226 -154.5 370t-398.5 144h-291v-1031z" />
    <glyph glyph-name="dcaron" unicode="&#x10f;" horiz-adv-x="1320" 
d="M963 877v555h200v-1432h-200v184q-62 -100 -159 -154.5t-218 -54.5q-211 0 -349.5 156t-138.5 399q0 242 139 397.5t349 155.5q121 0 218 -54t159 -152zM1421 1432q55 0 88 -44t33 -114q0 -58 -32.5 -118t-112.5 -155l-72 52q74 77 92 159q-43 0 -74.5 32.5t-31.5 76.5
q0 45 32.5 78t77.5 33zM635 152q143 0 235.5 106.5t92.5 271.5t-92.5 271t-235.5 106q-146 0 -239 -105.5t-93 -271.5t93 -272t239 -106z" />
    <glyph glyph-name="Dcroat" unicode="&#x110;" horiz-adv-x="1611" 
d="M715 1407q225 0 402.5 -89t276.5 -249.5t99 -363.5q0 -204 -99 -364.5t-276.5 -250.5t-402.5 -90h-486v618h-143v193h143v596h486zM727 188q244 0 398.5 144.5t154.5 372.5q0 226 -154.5 370t-398.5 144h-291v-408h385l-2 -193h-383v-430h291z" />
    <glyph glyph-name="dcroat" unicode="&#x111;" horiz-adv-x="1366" 
d="M1294 1309v-119h-131v-1190h-200v184q-62 -100 -159 -154.5t-218 -54.5q-211 0 -349.5 156t-138.5 399q0 242 139 397.5t349 155.5q121 0 218 -54t159 -152v313h-336v119h336v123h200v-123h131zM635 152q143 0 235.5 106.5t92.5 271.5t-92.5 271t-235.5 106
q-146 0 -239 -105.5t-93 -271.5t93 -272t239 -106z" />
    <glyph glyph-name="Emacron" unicode="&#x112;" 
d="M1001 1690v-134h-659v134h659zM1188 1214h-826v-401h746v-192h-746v-428h826v-193h-1034v1407h1034v-193z" />
    <glyph glyph-name="emacron" unicode="&#x113;" horiz-adv-x="1216" 
d="M948 1341v-133h-659v133h659zM633 156q83 0 169.5 32.5t133.5 81.5l127 -131q-69 -73 -190.5 -118.5t-237.5 -45.5q-147 0 -271.5 70.5t-199 199t-74.5 287.5q0 155 70.5 282t191.5 198t266 71q240 0 375 -168.5t135 -455.5h-833q21 -134 112.5 -218.5t225.5 -84.5z
M627 903q-124 0 -214.5 -77t-115.5 -205h635q-18 129 -95.5 205.5t-209.5 76.5z" />
    <glyph glyph-name="Edotaccent" unicode="&#x116;" 
d="M672 1563q-47 0 -79 32t-32 78q0 44 32.5 77.5t78.5 33.5q45 0 77.5 -33.5t32.5 -77.5q0 -46 -32 -78t-78 -32zM1188 1214h-826v-401h746v-192h-746v-428h826v-193h-1034v1407h1034v-193z" />
    <glyph glyph-name="edotaccent" unicode="&#x117;" horiz-adv-x="1216" 
d="M618 1214q-47 0 -78.5 32.5t-31.5 78.5q0 44 32 77.5t78 33.5q45 0 78 -34t33 -77q0 -46 -32.5 -78.5t-78.5 -32.5zM633 156q83 0 169.5 32.5t133.5 81.5l127 -131q-69 -73 -190.5 -118.5t-237.5 -45.5q-147 0 -271.5 70.5t-199 199t-74.5 287.5q0 155 70.5 282
t191.5 198t266 71q240 0 375 -168.5t135 -455.5h-833q21 -134 112.5 -218.5t225.5 -84.5zM627 903q-124 0 -214.5 -77t-115.5 -205h635q-18 129 -95.5 205.5t-209.5 76.5z" />
    <glyph glyph-name="Eogonek" unicode="&#x118;" 
d="M1188 1214h-826v-401h746v-192h-746v-428h826v-193h-150q-49 0 -79.5 -30.5t-30.5 -78.5q0 -50 29 -77t81 -27q56 0 88 35l62 -115q-70 -61 -174 -61q-101 0 -163.5 59.5t-62.5 161.5q0 75 48 133h-682v1407h1034v-193z" />
    <glyph glyph-name="eogonek" unicode="&#x119;" horiz-adv-x="1216" 
d="M1063 139q-78 -84 -234 -133q-28 -28 -28 -76q0 -50 29 -77t81 -27q57 0 88 35l62 -115q-70 -61 -174 -61q-101 0 -163 59.5t-62 161.5q0 36 12 71q-12 -2 -39 -2q-147 0 -271.5 70.5t-199 199t-74.5 287.5q0 155 70.5 282t191.5 198t266 71q240 0 375 -168.5t135 -455.5
h-833q21 -134 112.5 -218.5t225.5 -84.5q83 0 169.5 32.5t133.5 81.5zM627 903q-124 0 -214.5 -77t-115.5 -205h635q-18 129 -95.5 205.5t-209.5 76.5z" />
    <glyph glyph-name="Ecaron" unicode="&#x11a;" 
d="M762 1528h-178l-209 287h139l158 -168l159 168h142zM1188 1214h-826v-401h746v-192h-746v-428h826v-193h-1034v1407h1034v-193z" />
    <glyph glyph-name="ecaron" unicode="&#x11b;" horiz-adv-x="1216" 
d="M709 1180h-179l-208 286h139l157 -168l160 168h142zM633 156q83 0 169.5 32.5t133.5 81.5l127 -131q-69 -73 -190.5 -118.5t-237.5 -45.5q-147 0 -271.5 70.5t-199 199t-74.5 287.5q0 155 70.5 282t191.5 198t266 71q240 0 375 -168.5t135 -455.5h-833
q21 -134 112.5 -218.5t225.5 -84.5zM627 903q-124 0 -214.5 -77t-115.5 -205h635q-18 129 -95.5 205.5t-209.5 76.5z" />
    <glyph glyph-name="Gbreve" unicode="&#x11e;" horiz-adv-x="1523" 
d="M1141 1675q-62 -62 -143 -94.5t-167 -32.5q-179 0 -309 127l107 109q89 -86 202 -86q54 0 107.5 23t95.5 63zM803 578v180h581v-561q-99 -101 -251 -161.5t-302 -60.5q-145 0 -280.5 59t-234.5 157.5t-158.5 233.5t-59.5 280t59.5 279.5t158.5 232.5t234.5 156.5
t280.5 58.5q151 0 302.5 -60t250.5 -162l-145 -139q-71 77 -184.5 123.5t-223.5 46.5q-139 0 -259 -73t-190.5 -196.5t-70.5 -266.5q0 -144 70.5 -268.5t190.5 -197.5t259 -73q90 0 184 31t165 86v295h-377z" />
    <glyph glyph-name="gbreve" unicode="&#x11f;" horiz-adv-x="1310" 
d="M983 1327q-127 -127 -309 -127q-179 0 -309 127l106 109q42 -40 95.5 -63t107.5 -23t107.5 23t95.5 63zM952 1059h203v-946q0 -204 -151 -334.5t-386 -130.5q-130 0 -247.5 38.5t-194.5 102.5l80 152q58 -55 147 -86t185 -31q171 0 267.5 77.5t96.5 215.5v153
q-64 -92 -160 -142t-214 -50q-210 0 -346 141.5t-136 362.5q0 220 136 360.5t346 140.5q118 0 215.5 -51.5t158.5 -142.5v170zM629 254q141 0 232 92t91 236q0 142 -91 233.5t-232 91.5t-231.5 -91.5t-90.5 -233.5q0 -144 90.5 -236t231.5 -92z" />
    <glyph glyph-name="Gcommaaccent" unicode="&#x122;" horiz-adv-x="1523" 
d="M803 578v180h581v-561q-99 -101 -251 -161.5t-302 -60.5q-145 0 -280.5 59t-234.5 157.5t-158.5 233.5t-59.5 280t59.5 279.5t158.5 232.5t234.5 156.5t280.5 58.5q151 0 302.5 -60t250.5 -162l-145 -139q-71 77 -184.5 123.5t-223.5 46.5q-139 0 -259 -73t-190.5 -196.5
t-70.5 -266.5q0 -144 70.5 -268.5t190.5 -197.5t259 -73q90 0 184 31t165 86v295h-377zM825 -143q55 0 88 -44t33 -114q0 -58 -32 -117.5t-113 -154.5l-72 51q74 77 92 160q-43 0 -74.5 32t-31.5 76q0 45 32.5 78t77.5 33z" />
    <glyph glyph-name="gcommaaccent" unicode="&#x123;" horiz-adv-x="1310" 
d="M643 1214q-55 0 -88 44t-33 114q0 58 32.5 118t113.5 155l71 -52q-74 -77 -92 -159q43 0 75 -32.5t32 -76.5q0 -45 -33 -78t-78 -33zM952 1059h203v-946q0 -204 -151 -334.5t-386 -130.5q-130 0 -247.5 38.5t-194.5 102.5l80 152q58 -55 147 -86t185 -31
q171 0 267.5 77.5t96.5 215.5v153q-64 -92 -160 -142t-214 -50q-210 0 -346 141.5t-136 362.5q0 220 136 360.5t346 140.5q118 0 215.5 -51.5t158.5 -142.5v170zM629 254q141 0 232 92t91 236q0 142 -91 233.5t-232 91.5t-231.5 -91.5t-90.5 -233.5q0 -144 90.5 -236
t231.5 -92z" />
    <glyph glyph-name="Imacron" unicode="&#x12a;" horiz-adv-x="518" 
d="M-70 1556v134h660v-134h-660zM156 0v1407h206v-1407h-206z" />
    <glyph glyph-name="imacron" unicode="&#x12b;" horiz-adv-x="493" 
d="M-82 1208v133h660v-133h-660zM145 0v1059h203v-1059h-203z" />
    <glyph glyph-name="Iogonek" unicode="&#x12e;" horiz-adv-x="518" 
d="M438 -178l62 -115q-70 -61 -174 -61q-101 0 -163.5 59.5t-62.5 161.5q0 82 56 141v1399h206v-1407h-12q-49 0 -79.5 -30.5t-30.5 -78.5q0 -50 29 -77t81 -27q56 0 88 35z" />
    <glyph glyph-name="iogonek" unicode="&#x12f;" horiz-adv-x="493" 
d="M248 1214q-47 0 -79 32.5t-32 78.5q0 44 32.5 77.5t78.5 33.5q45 0 77.5 -33.5t32.5 -77.5q0 -46 -32 -78.5t-78 -32.5zM336 -178l61 -115q-70 -61 -174 -61q-101 0 -163 59.5t-62 161.5q0 60 30.5 109t77.5 71l39 -12v1024h203v-1059h-100q-49 0 -80 -30.5t-31 -78.5
q0 -49 29 -76.5t82 -27.5q56 0 88 35z" />
    <glyph glyph-name="Idotaccent" unicode="&#x130;" horiz-adv-x="518" 
d="M260 1563q-47 0 -78.5 32t-31.5 78q0 44 32 77.5t78 33.5q45 0 78 -34t33 -77q0 -46 -32.5 -78t-78.5 -32zM156 0v1407h206v-1407h-206z" />
    <glyph glyph-name="dotlessi" unicode="&#x131;" horiz-adv-x="493" 
d="M145 0v1059h203v-1059h-203z" />
    <glyph glyph-name="Kcommaaccent" unicode="&#x136;" horiz-adv-x="1378" 
d="M176 0v1407h207v-733l664 733h264l-578 -633l617 -774h-260l-502 631l-205 -219v-412h-207zM688 -573l-72 51q75 78 93 160q-43 0 -75 32t-32 76q0 45 33 78t78 33q55 0 88 -44t33 -114q0 -57 -32.5 -116.5t-113.5 -155.5z" />
    <glyph glyph-name="kcommaaccent" unicode="&#x137;" horiz-adv-x="1130" 
d="M1110 1059l-457 -479l437 -580h-242l-332 444l-170 -172v-272h-201v1432h201v-914l518 541h246zM580 -143q55 0 87.5 -44t32.5 -114q0 -58 -32 -117.5t-113 -154.5l-72 51q74 77 92 160q-43 0 -74.5 32t-31.5 76q0 45 33 78t78 33z" />
    <glyph glyph-name="Lacute" unicode="&#x139;" horiz-adv-x="1153" 
d="M606 1790l-295 -262h-147l244 303zM344 193h746v-193h-955v1407h209v-1214z" />
    <glyph glyph-name="lacute" unicode="&#x13a;" horiz-adv-x="495" 
d="M174 1552l244 303l198 -40l-294 -263h-148zM147 0v1432h201v-1432h-201z" />
    <glyph glyph-name="Lcaron" unicode="&#x13d;" horiz-adv-x="1153" 
d="M596 1212q-43 0 -75 32.5t-32 76.5q0 45 33 78t78 33q55 0 88 -44t33 -114q0 -58 -32.5 -118t-113.5 -155l-71 52q74 77 92 159zM344 193h746v-193h-955v1407h209v-1214z" />
    <glyph glyph-name="lcaron" unicode="&#x13e;" horiz-adv-x="495" 
d="M147 0v1432h201v-1432h-201zM582 1001l-72 52q74 77 92 159q-43 0 -74.5 32.5t-31.5 76.5q0 45 32.5 78t77.5 33q55 0 88 -44t33 -114q0 -58 -32.5 -118t-112.5 -155z" />
    <glyph glyph-name="Lslash" unicode="&#x141;" horiz-adv-x="1249" 
d="M440 193h746v-193h-955v541l-163 -84v190l163 84v676h209v-571l269 137v-191l-269 -137v-452z" />
    <glyph glyph-name="lslash" unicode="&#x142;" horiz-adv-x="659" 
d="M592 915v-192l-166 -84v-639h-201v537l-157 -80v190l157 80v705h201v-601z" />
    <glyph glyph-name="Nacute" unicode="&#x143;" horiz-adv-x="1579" 
d="M610 1528l244 303l199 -41l-295 -262h-148zM178 0v1407h207l809 -1067v1067h207v-1407h-207l-809 1067v-1067h-207z" />
    <glyph glyph-name="nacute" unicode="&#x144;" horiz-adv-x="1226" 
d="M907 1442l-295 -262h-147l244 303zM686 1083q175 0 286 -114.5t111 -294.5v-674h-198v639q0 118 -68.5 193t-175.5 75q-111 0 -195 -63.5t-96 -157.5v-686h-203v1059h203v-154q48 79 139 128.5t197 49.5z" />
    <glyph glyph-name="Ncommaaccent" unicode="&#x145;" horiz-adv-x="1579" 
d="M178 0v1407h207l809 -1067v1067h207v-1407h-207l-809 1067v-1067h-207zM766 -573l-72 51q74 77 92 160q-43 0 -74.5 32t-31.5 76q0 45 33 78t78 33q55 0 87.5 -44t32.5 -114q0 -58 -32 -117.5t-113 -154.5z" />
    <glyph glyph-name="ncommaaccent" unicode="&#x146;" horiz-adv-x="1226" 
d="M686 1083q175 0 286 -114.5t111 -294.5v-674h-198v639q0 118 -68.5 193t-175.5 75q-111 0 -195 -63.5t-96 -157.5v-686h-203v1059h203v-154q48 79 139 128.5t197 49.5zM645 -143q55 0 88 -44t33 -114q0 -58 -32 -117.5t-113 -154.5l-72 51q74 77 92 160q-43 0 -74.5 32
t-31.5 76q0 45 32.5 78t77.5 33z" />
    <glyph glyph-name="Ncaron" unicode="&#x147;" horiz-adv-x="1579" 
d="M702 1528l-208 287h139l158 -168l159 168h142l-211 -287h-179zM178 0v1407h207l809 -1067v1067h207v-1407h-207l-809 1067v-1067h-207z" />
    <glyph glyph-name="ncaron" unicode="&#x148;" horiz-adv-x="1226" 
d="M735 1180h-178l-209 286h139l158 -168l160 168h141zM686 1083q175 0 286 -114.5t111 -294.5v-674h-198v639q0 118 -68.5 193t-175.5 75q-111 0 -195 -63.5t-96 -157.5v-686h-203v1059h203v-154q48 79 139 128.5t197 49.5z" />
    <glyph glyph-name="Omacron" unicode="&#x14c;" horiz-adv-x="1656" 
d="M500 1556v134h659v-134h-659zM829 -25q-145 0 -280 59t-234 157.5t-158 233.5t-59 280t59 279.5t158 232.5t234 156.5t280 58.5t279.5 -58.5t232.5 -156.5t156.5 -232.5t58.5 -279.5t-58.5 -280t-156.5 -233.5t-232.5 -157.5t-279.5 -59zM829 166q103 0 199 43.5
t165.5 116t111 172t41.5 207.5q0 107 -41.5 206t-111 171.5t-165.5 115.5t-199 43q-138 0 -257.5 -72.5t-190 -196.5t-70.5 -267q0 -144 70.5 -268.5t190 -197.5t257.5 -73z" />
    <glyph glyph-name="omacron" unicode="&#x14d;" 
d="M319 1208v133h660v-133h-660zM649 -25q-149 0 -278 75.5t-205 203.5t-76 276t76 275.5t205 202.5t278 75q148 0 276 -75t203.5 -202.5t75.5 -275.5t-75.5 -276t-203.5 -203.5t-276 -75.5zM649 152q143 0 247.5 111.5t104.5 266.5q0 153 -104.5 265t-247.5 112
q-146 0 -251 -111.5t-105 -265.5q0 -155 105 -266.5t251 -111.5z" />
    <glyph glyph-name="Ohungarumlaut" unicode="&#x150;" horiz-adv-x="1656" 
d="M516 1526l244 305l198 -41l-294 -264h-148zM950 1526l244 301l197 -41l-295 -260h-146zM829 -25q-145 0 -280 59t-234 157.5t-158 233.5t-59 280t59 279.5t158 232.5t234 156.5t280 58.5t279.5 -58.5t232.5 -156.5t156.5 -232.5t58.5 -279.5t-58.5 -280t-156.5 -233.5
t-232.5 -157.5t-279.5 -59zM829 166q103 0 199 43.5t165.5 116t111 172t41.5 207.5q0 107 -41.5 206t-111 171.5t-165.5 115.5t-199 43q-138 0 -257.5 -72.5t-190 -196.5t-70.5 -267q0 -144 70.5 -268.5t190 -197.5t257.5 -73z" />
    <glyph glyph-name="ohungarumlaut" unicode="&#x151;" 
d="M346 1178l244 305l198 -41l-294 -264h-148zM780 1178l244 301l197 -41l-295 -260h-146zM649 -25q-149 0 -278 75.5t-205 203.5t-76 276t76 275.5t205 202.5t278 75q148 0 276 -75t203.5 -202.5t75.5 -275.5t-75.5 -276t-203.5 -203.5t-276 -75.5zM649 152
q143 0 247.5 111.5t104.5 266.5q0 153 -104.5 265t-247.5 112q-146 0 -251 -111.5t-105 -265.5q0 -155 105 -266.5t251 -111.5z" />
    <glyph glyph-name="OE" unicode="&#x152;" horiz-adv-x="2119" 
d="M2013 1214h-825v-401h745v-192h-745v-428h825v-193h-1184q-146 0 -280.5 52.5t-233.5 143t-158 219t-59 273.5t59 278.5t158 229.5t233.5 153.5t280.5 57.5h1184v-193zM829 190h150v1027h-150q-138 0 -257.5 -71t-190 -193t-70.5 -265t71 -258t189 -177.5t258 -62.5z" />
    <glyph glyph-name="oe" unicode="&#x153;" horiz-adv-x="2131" 
d="M1548 156q84 0 170 32.5t133 81.5l127 -131q-69 -73 -190.5 -118.5t-237.5 -45.5q-137 0 -255.5 63.5t-194.5 174.5q-76 -109 -195.5 -173.5t-255.5 -64.5q-149 0 -278 75.5t-205 203.5t-76 276t76 275.5t205 202.5t278 75q134 0 253.5 -62.5t195.5 -168.5
q73 107 188 169t248 62q240 0 375 -168.5t135 -455.5h-834q21 -134 112.5 -218.5t225.5 -84.5zM649 152q143 0 247.5 111.5t104.5 266.5q0 153 -104.5 265t-247.5 112q-146 0 -251 -111.5t-105 -265.5q0 -155 105 -266.5t251 -111.5zM1542 903q-124 0 -214.5 -77
t-115.5 -205h635q-18 129 -95.5 205.5t-209.5 76.5z" />
    <glyph glyph-name="Racute" unicode="&#x154;" horiz-adv-x="1349" 
d="M950 1790l-295 -262h-147l244 303zM1268 948q0 -160 -99.5 -278t-261.5 -160l359 -510h-238l-344 489h-324v-489h-206v1407h591q224 0 373.5 -129.5t149.5 -329.5zM360 1214v-532h357q154 0 247 71.5t93 194.5t-93 194.5t-247 71.5h-357z" />
    <glyph glyph-name="racute" unicode="&#x155;" horiz-adv-x="804" 
d="M725 1442l-295 -262h-147l243 303zM360 856q52 106 155.5 166.5t238.5 60.5v-176q-164 0 -272.5 -83.5t-121.5 -221.5v-602h-202v1059h202v-203z" />
    <glyph glyph-name="Rcommaaccent" unicode="&#x156;" horiz-adv-x="1349" 
d="M1268 948q0 -160 -99.5 -278t-261.5 -160l359 -510h-238l-344 489h-324v-489h-206v1407h591q224 0 373.5 -129.5t149.5 -329.5zM360 1214v-532h357q154 0 247 71.5t93 194.5t-93 194.5t-247 71.5h-357zM666 -143q55 0 87.5 -44t32.5 -114q0 -58 -32 -117.5t-113 -154.5
l-72 51q75 78 93 160q-43 0 -75 32t-32 76q0 45 33 78t78 33z" />
    <glyph glyph-name="rcommaaccent" unicode="&#x157;" horiz-adv-x="804" 
d="M360 856q52 106 155.5 166.5t238.5 60.5v-176q-164 0 -272.5 -83.5t-121.5 -221.5v-602h-202v1059h202v-203zM344 -143q55 0 88 -44t33 -114q0 -57 -32.5 -116.5t-113.5 -155.5l-71 51q74 77 92 160q-43 0 -75 32t-32 76q0 45 33 78t78 33z" />
    <glyph glyph-name="Rcaron" unicode="&#x158;" horiz-adv-x="1349" 
d="M778 1528h-178l-209 287h139l158 -168l160 168h141zM1268 948q0 -160 -99.5 -278t-261.5 -160l359 -510h-238l-344 489h-324v-489h-206v1407h591q224 0 373.5 -129.5t149.5 -329.5zM360 1214v-532h357q154 0 247 71.5t93 194.5t-93 194.5t-247 71.5h-357z" />
    <glyph glyph-name="rcaron" unicode="&#x159;" horiz-adv-x="804" 
d="M553 1180h-178l-209 286h139l158 -168l160 168h141zM360 856q52 106 155.5 166.5t238.5 60.5v-176q-164 0 -272.5 -83.5t-121.5 -221.5v-602h-202v1059h202v-203z" />
    <glyph glyph-name="Sacute" unicode="&#x15a;" horiz-adv-x="1269" 
d="M438 1528l244 303l199 -41l-295 -262h-148zM657 -23q-342 0 -579 226l125 153q206 -196 463 -196q139 0 217 62.5t78 152.5q0 95 -81.5 144.5t-271.5 92.5q-94 22 -161 44t-130 55.5t-101.5 75t-61.5 100t-23 133.5q0 178 138 296t349 118q289 0 515 -199l-119 -156
q-188 172 -404 172q-116 0 -192 -63t-76 -150q0 -39 15.5 -69.5t41 -52.5t72.5 -42t97 -34.5t126 -32.5q91 -21 158 -44t129.5 -57t102 -76t62.5 -101.5t23 -133.5q0 -185 -135 -301.5t-377 -116.5z" />
    <glyph glyph-name="sacute" unicode="&#x15b;" horiz-adv-x="1019" 
d="M334 1180l244 303l198 -41l-295 -262h-147zM530 -25q-119 0 -238.5 41t-213.5 117l96 146q178 -129 358 -129q89 0 145 38t56 99q0 28 -13.5 51.5t-31.5 38.5t-55 30.5t-62.5 23.5t-76.5 22q-98 27 -161 53t-112 62t-70.5 83t-21.5 111q-1 145 106.5 233t278.5 88
q206 0 391 -122l-90 -150q-159 98 -301 98q-81 0 -133.5 -33.5t-52.5 -91.5t48.5 -87t194.5 -74q48 -14 76 -23t71 -26t69 -32.5t57 -40t48 -52t28.5 -65t11.5 -81.5q0 -149 -113 -238.5t-289 -89.5z" />
    <glyph glyph-name="Scedilla" unicode="&#x15e;" horiz-adv-x="1269" 
d="M1169 395q0 -176 -123 -291t-346 -127l-30 -67h16q63 0 104 -38.5t41 -98.5q0 -76 -59 -123t-149 -47q-108 0 -185 59l43 96q58 -47 131 -47q41 0 69 20.5t28 51.5q0 29 -19.5 47t-56.5 18q-36 0 -66 -20l-37 37l48 117q-290 20 -500 221l125 153q206 -196 463 -196
q139 0 217 62.5t78 152.5q0 95 -81.5 144.5t-271.5 92.5q-94 22 -161 44t-130 55.5t-101.5 75t-61.5 100t-23 133.5q0 178 138 296t349 118q289 0 515 -199l-119 -156q-188 172 -404 172q-116 0 -192 -63t-76 -150q0 -39 15.5 -69.5t41 -52.5t72.5 -42t97 -34.5t126 -32.5
q91 -21 158 -44t129.5 -57t102 -76t62.5 -101.5t23 -133.5z" />
    <glyph glyph-name="scedilla" unicode="&#x15f;" horiz-adv-x="1019" 
d="M932 303q0 -139 -100 -227t-259 -99l-28 -67h16q63 0 104.5 -38.5t41.5 -98.5q0 -76 -59.5 -123t-149.5 -47q-108 0 -185 59l43 96q58 -47 131 -47q41 0 69 20.5t28 51.5q0 29 -19.5 47t-56.5 18q-36 0 -66 -20l-36 37l47 115q-214 23 -375 153l96 146q178 -129 358 -129
q89 0 145 38t56 99q0 28 -13.5 51.5t-31.5 38.5t-55 30.5t-62.5 23.5t-76.5 22q-98 27 -161 53t-112 62t-70.5 83t-21.5 111q-1 145 106.5 233t278.5 88q206 0 391 -122l-90 -150q-159 98 -301 98q-81 0 -133.5 -33.5t-52.5 -91.5t48.5 -87t194.5 -74q48 -14 76 -23t71 -26
t69 -32.5t57 -40t48 -52t28.5 -65t11.5 -81.5z" />
    <glyph glyph-name="Scaron" unicode="&#x160;" horiz-adv-x="1269" 
d="M530 1528l-208 287h139l157 -168l160 168h142l-211 -287h-179zM657 -23q-342 0 -579 226l125 153q206 -196 463 -196q139 0 217 62.5t78 152.5q0 95 -81.5 144.5t-271.5 92.5q-94 22 -161 44t-130 55.5t-101.5 75t-61.5 100t-23 133.5q0 178 138 296t349 118
q289 0 515 -199l-119 -156q-188 172 -404 172q-116 0 -192 -63t-76 -150q0 -39 15.5 -69.5t41 -52.5t72.5 -42t97 -34.5t126 -32.5q91 -21 158 -44t129.5 -57t102 -76t62.5 -101.5t23 -133.5q0 -185 -135 -301.5t-377 -116.5z" />
    <glyph glyph-name="scaron" unicode="&#x161;" horiz-adv-x="1019" 
d="M426 1180l-209 286h139l158 -168l160 168h141l-211 -286h-178zM530 -25q-119 0 -238.5 41t-213.5 117l96 146q178 -129 358 -129q89 0 145 38t56 99q0 28 -13.5 51.5t-31.5 38.5t-55 30.5t-62.5 23.5t-76.5 22q-98 27 -161 53t-112 62t-70.5 83t-21.5 111
q-1 145 106.5 233t278.5 88q206 0 391 -122l-90 -150q-159 98 -301 98q-81 0 -133.5 -33.5t-52.5 -91.5t48.5 -87t194.5 -74q48 -14 76 -23t71 -26t69 -32.5t57 -40t48 -52t28.5 -65t11.5 -81.5q0 -149 -113 -238.5t-289 -89.5z" />
    <glyph glyph-name="uni0162" unicode="&#x162;" horiz-adv-x="1296" 
d="M752 0h-41l-39 -90h16q63 0 104.5 -38.5t41.5 -98.5q0 -76 -59.5 -123t-149.5 -47q-108 0 -185 59l43 96q58 -47 131 -47q41 0 69 20.5t28 51.5q0 29 -19.5 47t-56.5 18q-36 0 -66 -20l-37 37l56 135h-43v1214h-461v193h1130v-193h-462v-1214z" />
    <glyph glyph-name="uni0163" unicode="&#x163;" horiz-adv-x="776" 
d="M561 -90q63 0 104.5 -38.5t41.5 -98.5q0 -76 -59.5 -123t-149.5 -47q-108 0 -185 59l43 96q58 -47 131 -47q41 0 69 20.5t28 51.5q0 29 -19.5 47t-56.5 18q-36 0 -66 -20l-36 37l47 115q-102 17 -164 94t-62 190v623h-159v172h159v291h199v-291h250v-172h-250v-608
q0 -55 32 -91t77 -36q70 0 108 38l74 -139q-56 -48 -139 -67l-33 -74h16z" />
    <glyph glyph-name="Tcaron" unicode="&#x164;" horiz-adv-x="1296" 
d="M561 1528l-209 287h140l157 -168l160 168h141l-211 -287h-178zM545 0v1214h-461v193h1130v-193h-462v-1214h-207z" />
    <glyph glyph-name="tcaron" unicode="&#x165;" horiz-adv-x="776" 
d="M934 1432q55 0 88 -44t33 -114q0 -58 -32.5 -118t-113.5 -155l-71 52q74 77 92 159q-43 0 -75 32.5t-32 76.5q0 45 33 78t78 33zM535 152q70 0 108 38l74 -139q-92 -76 -211 -76q-123 0 -201 81t-78 208v623h-159v172h159v291h199v-291h250v-172h-250v-608q0 -55 32 -91
t77 -36z" />
    <glyph glyph-name="Umacron" unicode="&#x16a;" horiz-adv-x="1533" 
d="M438 1556v134h660v-134h-660zM768 -25q-265 0 -434.5 173.5t-169.5 443.5v815h207v-811q0 -189 111.5 -310.5t285.5 -121.5q173 0 284 121.5t111 310.5v811h209v-815q0 -270 -170 -443.5t-434 -173.5z" />
    <glyph glyph-name="umacron" unicode="&#x16b;" horiz-adv-x="1226" 
d="M940 1341v-133h-659v133h659zM877 1059h202v-1059h-202v154q-48 -80 -139.5 -129.5t-196.5 -49.5q-175 0 -286.5 115t-111.5 295v674h199v-639q0 -118 68.5 -193t175.5 -75q111 0 195 63.5t96 157.5v686z" />
    <glyph glyph-name="Uring" unicode="&#x16e;" horiz-adv-x="1533" 
d="M768 1548q-91 0 -155 64t-64 155t64 154.5t155 63.5t154 -63.5t63 -154.5t-63 -155t-154 -64zM768 1651q47 0 82 34.5t35 81.5t-35 82t-82 35t-82 -35t-35 -82t35 -81.5t82 -34.5zM768 -25q-265 0 -434.5 173.5t-169.5 443.5v815h207v-811q0 -189 111.5 -310.5
t285.5 -121.5q173 0 284 121.5t111 310.5v811h209v-815q0 -270 -170 -443.5t-434 -173.5z" />
    <glyph glyph-name="uring" unicode="&#x16f;" horiz-adv-x="1226" 
d="M610 1200q-91 0 -155 64t-64 155t64 154t155 63t154 -63t63 -154t-63 -155t-154 -64zM610 1536q-47 0 -81.5 -35t-34.5 -82t34.5 -81.5t81.5 -34.5t82 34.5t35 81.5t-35 82t-82 35zM877 1059h202v-1059h-202v154q-48 -80 -139.5 -129.5t-196.5 -49.5q-175 0 -286.5 115
t-111.5 295v674h199v-639q0 -118 68.5 -193t175.5 -75q111 0 195 63.5t96 157.5v686z" />
    <glyph glyph-name="Uhungarumlaut" unicode="&#x170;" horiz-adv-x="1533" 
d="M449 1526l243 305l199 -41l-295 -264h-147zM883 1526l243 301l197 -41l-295 -260h-145zM768 -25q-265 0 -434.5 173.5t-169.5 443.5v815h207v-811q0 -189 111.5 -310.5t285.5 -121.5q173 0 284 121.5t111 310.5v811h209v-815q0 -270 -170 -443.5t-434 -173.5z" />
    <glyph glyph-name="uhungarumlaut" unicode="&#x171;" horiz-adv-x="1226" 
d="M739 1442l-295 -264h-147l244 305zM877 1178h-146l244 301l196 -41zM877 373v686h202v-1059h-202v154q-48 -80 -139.5 -129.5t-196.5 -49.5q-175 0 -286.5 115t-111.5 295v674h199v-639q0 -118 68.5 -193t175.5 -75q111 0 195 63.5t96 157.5z" />
    <glyph glyph-name="Uogonek" unicode="&#x172;" horiz-adv-x="1533" 
d="M1163 1407h209v-815q0 -270 -170 -443.5t-434 -173.5h-16q-37 -29 -37 -84q0 -50 29 -77t81 -27q57 0 88 35l62 -115q-70 -61 -174 -61q-101 0 -163.5 59.5t-62.5 161.5q0 71 41 125q-205 46 -328.5 208.5t-123.5 391.5v815h207v-811q0 -189 111.5 -310.5t285.5 -121.5
q173 0 284 121.5t111 310.5v811z" />
    <glyph glyph-name="uogonek" unicode="&#x173;" horiz-adv-x="1226" 
d="M1167 -178l62 -115q-70 -61 -174 -61q-101 0 -163.5 59.5t-62.5 161.5q0 75 48 133v154q-48 -80 -139.5 -129.5t-196.5 -49.5q-175 0 -286.5 115t-111.5 295v674h199v-639q0 -118 68.5 -193t175.5 -75q111 0 195 63.5t96 157.5v686h202v-1059q-49 0 -79.5 -30.5
t-30.5 -78.5q0 -50 29 -77t81 -27q57 0 88 35z" />
    <glyph glyph-name="Wcircumflex" unicode="&#x174;" horiz-adv-x="2211" 
d="M811 1528l209 287h178l211 -287h-141l-160 168l-158 -168h-139zM526 0l-463 1407h230l346 -1073l352 1073h230l352 -1073l346 1073h229l-462 -1407h-207l-371 1120l-375 -1120h-207z" />
    <glyph glyph-name="wcircumflex" unicode="&#x175;" horiz-adv-x="1712" 
d="M561 1180l209 286h178l211 -286h-141l-160 168l-158 -168h-139zM416 0l-357 1059h207l244 -789l262 789h172l262 -789l242 789h207l-357 -1059h-186l-254 786l-256 -786h-186z" />
    <glyph glyph-name="Ycircumflex" unicode="&#x176;" horiz-adv-x="1390" 
d="M399 1528l209 287h178l211 -287h-141l-160 168l-157 -168h-140zM590 0v551l-563 856h249l420 -659l426 659h240l-559 -856v-551h-213z" />
    <glyph glyph-name="ycircumflex" unicode="&#x177;" horiz-adv-x="1220" 
d="M311 1180l209 286h178l211 -286h-141l-160 168l-157 -168h-140zM334 -369q-116 0 -201 45l45 156q59 -33 129 -33q51 0 85.5 18.5t60.5 63.5l53 113l-455 1065h217l340 -836l322 836h211l-467 -1155q-56 -140 -140 -205.5t-200 -67.5z" />
    <glyph glyph-name="Ydieresis" unicode="&#x178;" horiz-adv-x="1390" 
d="M494 1563q-47 0 -79 32t-32 78q0 44 32.5 77.5t78.5 33.5q45 0 77.5 -33.5t32.5 -77.5q0 -46 -32 -78t-78 -32zM901 1563q-47 0 -78.5 32t-31.5 78q0 44 32 77.5t78 33.5q44 0 77.5 -34t33.5 -77q0 -45 -33 -77.5t-78 -32.5zM590 0v551l-563 856h249l420 -659l426 659
h240l-559 -856v-551h-213z" />
    <glyph glyph-name="Zacute" unicode="&#x179;" horiz-adv-x="1323" 
d="M487 1528l244 303l199 -41l-295 -262h-148zM113 0l-2 162l813 1052h-797v193h1081v-162l-813 -1052h822v-193h-1104z" />
    <glyph glyph-name="zacute" unicode="&#x17a;" horiz-adv-x="1064" 
d="M367 1180l243 303l199 -41l-295 -262h-147zM102 0v152l594 725h-581v182h848v-152l-594 -725h598v-182h-865z" />
    <glyph glyph-name="Zdotaccent" unicode="&#x17b;" horiz-adv-x="1323" 
d="M668 1563q-47 0 -79 32t-32 78q0 44 32.5 77.5t78.5 33.5q45 0 77.5 -33.5t32.5 -77.5q0 -46 -32 -78t-78 -32zM113 0l-2 162l813 1052h-797v193h1081v-162l-813 -1052h822v-193h-1104z" />
    <glyph glyph-name="zdotaccent" unicode="&#x17c;" horiz-adv-x="1064" 
d="M547 1214q-47 0 -79 32.5t-32 78.5q0 44 32.5 77.5t78.5 33.5q45 0 77.5 -33.5t32.5 -77.5q0 -46 -32 -78.5t-78 -32.5zM102 0v152l594 725h-581v182h848v-152l-594 -725h598v-182h-865z" />
    <glyph glyph-name="Zcaron" unicode="&#x17d;" horiz-adv-x="1323" 
d="M580 1528l-209 287h139l158 -168l159 168h142l-211 -287h-178zM113 0l-2 162l813 1052h-797v193h1081v-162l-813 -1052h822v-193h-1104z" />
    <glyph glyph-name="zcaron" unicode="&#x17e;" horiz-adv-x="1064" 
d="M459 1180l-209 286h139l158 -168l160 168h141l-211 -286h-178zM102 0v152l594 725h-581v182h848v-152l-594 -725h598v-182h-865z" />
    <glyph glyph-name="uni0237" unicode="&#x237;" horiz-adv-x="493" 
d="M66 -365q-101 0 -181 37l27 158q52 -20 123 -20q49 0 79.5 35.5t30.5 91.5v1122h203v-1133q0 -128 -79 -209.5t-203 -81.5z" />
    <glyph glyph-name="circumflex" unicode="&#x2c6;" horiz-adv-x="856" 
d="M129 1180l209 286h178l211 -286h-141l-160 168l-158 -168h-139z" />
    <glyph glyph-name="caron" unicode="&#x2c7;" horiz-adv-x="856" 
d="M338 1180l-209 286h139l158 -168l160 168h141l-211 -286h-178z" />
    <glyph glyph-name="breve" unicode="&#x2d8;" horiz-adv-x="876" 
d="M438 1200q-179 0 -309 127l107 109q89 -86 202 -86q54 0 107.5 23t95.5 63l107 -109q-62 -62 -143 -94.5t-167 -32.5z" />
    <glyph glyph-name="dotaccent" unicode="&#x2d9;" horiz-adv-x="479" 
d="M240 1214q-47 0 -79 32.5t-32 78.5q0 44 32.5 77.5t78.5 33.5q45 0 77.5 -33.5t32.5 -77.5q0 -46 -32 -78.5t-78 -32.5z" />
    <glyph glyph-name="ring" unicode="&#x2da;" horiz-adv-x="694" 
d="M348 1200q-91 0 -155 64t-64 155t64 154t155 63t154 -63t63 -154t-63 -155t-154 -64zM348 1303q47 0 82 34.5t35 81.5t-35 82t-82 35t-82 -35t-35 -82t35 -81.5t82 -34.5z" />
    <glyph glyph-name="ogonek" unicode="&#x2db;" horiz-adv-x="657" 
d="M354 -354q-101 0 -163 59.5t-62 161.5q0 60 31 108.5t78 71.5l141 -47q-49 0 -80 -30.5t-31 -78.5q0 -49 29 -76.5t82 -27.5q57 0 88 35l61 -115q-70 -61 -174 -61z" />
    <glyph glyph-name="tilde" unicode="&#x2dc;" horiz-adv-x="919" 
d="M594 1176q-40 0 -80.5 19.5t-68 42.5t-59.5 42.5t-58 19.5q-39 0 -63 -30.5t-34 -98.5l-112 19q31 252 207 252q40 0 80.5 -19.5t68 -43t59.5 -43t58 -19.5q73 0 96 129l113 -16q-31 -254 -207 -254z" />
    <glyph glyph-name="hungarumlaut" unicode="&#x2dd;" horiz-adv-x="1134" 
d="M129 1178l244 305l198 -41l-295 -264h-147zM563 1178l244 301l197 -41l-295 -260h-146z" />
    <glyph glyph-name="uni0326" unicode="&#x326;" horiz-adv-x="0" 
d="M-301 -573l-72 51q74 77 92 160q-43 0 -74.5 32t-31.5 76q0 45 33 78t78 33q55 0 87.5 -44t32.5 -114q0 -58 -32 -117.5t-113 -154.5z" />
    <glyph glyph-name="Wgrave" unicode="&#x1e80;" horiz-adv-x="2211" 
d="M1036 1528l-295 262l197 41l246 -303h-148zM526 0l-463 1407h230l346 -1073l352 1073h230l352 -1073l346 1073h229l-462 -1407h-207l-371 1120l-375 -1120h-207z" />
    <glyph glyph-name="wgrave" unicode="&#x1e81;" horiz-adv-x="1712" 
d="M786 1180l-294 262l196 41l246 -303h-148zM416 0l-357 1059h207l244 -789l262 789h172l262 -789l242 789h207l-357 -1059h-186l-254 786l-256 -786h-186z" />
    <glyph glyph-name="Wacute" unicode="&#x1e82;" horiz-adv-x="2211" 
d="M1030 1528l244 303l199 -41l-295 -262h-148zM526 0l-463 1407h230l346 -1073l352 1073h230l352 -1073l346 1073h229l-462 -1407h-207l-371 1120l-375 -1120h-207z" />
    <glyph glyph-name="wacute" unicode="&#x1e83;" horiz-adv-x="1712" 
d="M782 1180l244 303l199 -41l-295 -262h-148zM416 0l-357 1059h207l244 -789l262 789h172l262 -789l242 789h207l-357 -1059h-186l-254 786l-256 -786h-186z" />
    <glyph glyph-name="Wdieresis" unicode="&#x1e84;" horiz-adv-x="2211" 
d="M905 1563q-47 0 -78.5 32t-31.5 78q0 44 32 77.5t78 33.5q45 0 78 -34t33 -77q0 -46 -32.5 -78t-78.5 -32zM1313 1563q-47 0 -79 32t-32 78q0 44 32.5 77.5t78.5 33.5q44 0 77 -34t33 -77q0 -45 -32.5 -77.5t-77.5 -32.5zM526 0l-463 1407h230l346 -1073l352 1073h230
l352 -1073l346 1073h229l-462 -1407h-207l-371 1120l-375 -1120h-207z" />
    <glyph glyph-name="wdieresis" unicode="&#x1e85;" horiz-adv-x="1712" 
d="M655 1214q-47 0 -78.5 32.5t-31.5 78.5q0 44 32 77.5t78 33.5q45 0 78 -34t33 -77q0 -46 -32.5 -78.5t-78.5 -32.5zM1063 1214q-47 0 -79 32.5t-32 78.5q0 44 32.5 77.5t78.5 33.5q44 0 77.5 -34t33.5 -77q0 -45 -33 -78t-78 -33zM416 0l-357 1059h207l244 -789l262 789
h172l262 -789l242 789h207l-357 -1059h-186l-254 786l-256 -786h-186z" />
    <glyph glyph-name="uni1EB8" unicode="&#x1eb8;" 
d="M1188 1214h-826v-401h746v-192h-746v-428h826v-193h-1034v1407h1034v-193zM672 -158q45 0 77.5 -33.5t32.5 -76.5q0 -46 -32 -78.5t-78 -32.5q-47 0 -79 32.5t-32 78.5q0 44 32.5 77t78.5 33z" />
    <glyph glyph-name="uni1EB9" unicode="&#x1eb9;" horiz-adv-x="1216" 
d="M633 156q83 0 169.5 32.5t133.5 81.5l127 -131q-69 -73 -190.5 -118.5t-237.5 -45.5q-147 0 -271.5 70.5t-199 199t-74.5 287.5q0 155 70.5 282t191.5 198t266 71q240 0 375 -168.5t135 -455.5h-833q21 -134 112.5 -218.5t225.5 -84.5zM627 903q-124 0 -214.5 -77
t-115.5 -205h635q-18 129 -95.5 205.5t-209.5 76.5zM616 -158q45 0 78 -33.5t33 -76.5q0 -46 -32.5 -78.5t-78.5 -32.5q-47 0 -78.5 32.5t-31.5 78.5q0 44 32 77t78 33z" />
    <glyph glyph-name="uni1EBC" unicode="&#x1ebc;" 
d="M539 1649q-39 0 -63 -30.5t-34 -98.5l-112 18q31 252 207 252q40 0 80.5 -19.5t68 -43t59.5 -43t58 -19.5q73 0 96 129l113 -16q-31 -254 -207 -254q-40 0 -80.5 19.5t-68 43t-59.5 43t-58 19.5zM1188 1214h-826v-401h746v-192h-746v-428h826v-193h-1034v1407h1034v-193z
" />
    <glyph glyph-name="uni1EBD" unicode="&#x1ebd;" horiz-adv-x="1216" 
d="M485 1300q-39 0 -62.5 -30.5t-33.5 -98.5l-113 19q31 252 207 252q40 0 81 -19.5t68.5 -43t59.5 -43t58 -19.5q73 0 96 129l112 -16q-31 -254 -206 -254q-40 0 -81 19.5t-68.5 42.5t-59.5 42.5t-58 19.5zM633 156q83 0 169.5 32.5t133.5 81.5l127 -131
q-69 -73 -190.5 -118.5t-237.5 -45.5q-147 0 -271.5 70.5t-199 199t-74.5 287.5q0 155 70.5 282t191.5 198t266 71q240 0 375 -168.5t135 -455.5h-833q21 -134 112.5 -218.5t225.5 -84.5zM627 903q-124 0 -214.5 -77t-115.5 -205h635q-18 129 -95.5 205.5t-209.5 76.5z" />
    <glyph glyph-name="Ygrave" unicode="&#x1ef2;" horiz-adv-x="1390" 
d="M709 1528l-295 262l196 41l246 -303h-147zM590 0v551l-563 856h249l420 -659l426 659h240l-559 -856v-551h-213z" />
    <glyph glyph-name="ygrave" unicode="&#x1ef3;" horiz-adv-x="1220" 
d="M621 1180l-295 262l196 41l246 -303h-147zM334 -369q-116 0 -201 45l45 156q59 -33 129 -33q51 0 85.5 18.5t60.5 63.5l53 113l-455 1065h217l340 -836l322 836h211l-467 -1155q-56 -140 -140 -205.5t-200 -67.5z" />
    <glyph glyph-name="endash" unicode="&#x2013;" horiz-adv-x="1177" 
d="M106 469v180h965v-180h-965z" />
    <glyph glyph-name="emdash" unicode="&#x2014;" horiz-adv-x="1802" 
d="M106 469v180h1590v-180h-1590z" />
    <glyph glyph-name="quoteleft" unicode="&#x2018;" horiz-adv-x="561" 
d="M311 1391l86 -66q-86 -89 -112 -190q55 0 94 -40.5t39 -97.5q0 -55 -39.5 -95t-97.5 -40q-67 0 -107.5 54.5t-40.5 140.5q0 72 40 146.5t138 187.5z" />
    <glyph glyph-name="quoteright" unicode="&#x2019;" horiz-adv-x="561" 
d="M250 866l-86 66q86 89 112 190q-55 0 -94 40.5t-39 97.5q0 55 40 95t98 40q67 0 107 -54.5t40 -140.5q0 -72 -40 -146.5t-138 -187.5z" />
    <glyph glyph-name="quotedblleft" unicode="&#x201c;" horiz-adv-x="1011" 
d="M311 1391l86 -66q-86 -89 -112 -190q55 0 94 -40.5t39 -97.5q0 -55 -39.5 -95t-97.5 -40q-67 0 -107.5 54.5t-40.5 140.5q0 72 40 146.5t138 187.5zM762 1391l86 -66q-88 -91 -113 -190q55 0 94 -40.5t39 -97.5q0 -55 -39.5 -95t-97.5 -40q-67 0 -107 54.5t-40 140.5
q0 72 40 146.5t138 187.5z" />
    <glyph glyph-name="quotedblright" unicode="&#x201d;" horiz-adv-x="1011" 
d="M250 866l-86 66q86 89 112 190q-55 0 -94 40.5t-39 97.5q0 55 40 95t98 40q67 0 107 -54.5t40 -140.5q0 -72 -40 -146.5t-138 -187.5zM700 866l-86 66q88 91 113 190q-55 0 -94 40.5t-39 97.5q0 55 39.5 95t97.5 40q67 0 107.5 -54.5t40.5 -140.5q0 -72 -40 -146.5
t-139 -187.5z" />
    <glyph glyph-name="ellipsis" unicode="&#x2026;" horiz-adv-x="1445" 
d="M274 -25q-58 0 -97.5 41t-39.5 99q0 53 39.5 93t97.5 40q55 0 94.5 -40t39.5 -93q0 -57 -39.5 -98.5t-94.5 -41.5zM725 -25q-58 0 -97.5 41t-39.5 99q0 53 40 93t97 40q55 0 94 -40t39 -93q0 -57 -39 -98.5t-94 -41.5zM1176 -25q-58 0 -98 41t-40 99q0 53 40 93t98 40
q55 0 94 -40t39 -93q0 -57 -39 -98.5t-94 -41.5z" />
    <glyph glyph-name="perthousand" unicode="&#x2030;" horiz-adv-x="2428" 
d="M424 711q-148 0 -241 101t-93 249q0 154 94 256t242 102t241 -101.5t93 -252.5q0 -152 -94.5 -253t-241.5 -101zM266 0l967 1407h164l-969 -1407h-162zM426 842q78 0 129 62t51 159q0 96 -52 159.5t-130 63.5q-79 0 -129.5 -62.5t-50.5 -160.5q0 -95 52 -158t130 -63z
M1231 -20q-145 0 -239.5 101t-94.5 253q0 149 94.5 251.5t241.5 102.5q148 0 241 -102t93 -250q0 -153 -94.5 -254.5t-241.5 -101.5zM2003 -20q-147 0 -241.5 101t-94.5 253q0 149 94.5 251.5t241.5 102.5q148 0 241 -102t93 -250q0 -153 -94.5 -254.5t-239.5 -101.5z
M1233 113q79 0 129.5 62t50.5 159q0 96 -52 159.5t-130 63.5q-79 0 -129.5 -63t-50.5 -158q0 -97 51.5 -160t130.5 -63zM2003 113q81 0 131.5 62t50.5 159q0 96 -52 159.5t-130 63.5q-81 0 -131.5 -63t-50.5 -158q0 -97 51.5 -160t130.5 -63z" />
    <glyph glyph-name="Euro" unicode="&#x20ac;" horiz-adv-x="1402" 
d="M829 166q106 0 203 45.5t170 124.5l146 -139q-102 -104 -237 -163t-282 -59q-237 0 -431 145t-265 367h-176v142h145q-4 50 -4 76q0 61 8 108h-149v141h188q79 210 268 344t416 134q148 0 282.5 -58.5t236.5 -163.5l-146 -139q-73 79 -170 124.5t-203 45.5
q-143 0 -266 -79t-190 -208h588v-141h-639q-11 -64 -11 -108q0 -39 6 -76h644v-142h-605q62 -143 191 -232t282 -89z" />
    <glyph glyph-name="minus" unicode="&#x2212;" horiz-adv-x="1220" 
d="M133 592v182h957v-182h-957z" />
    <glyph glyph-name="a.alt" horiz-adv-x="1320" 
d="M963 1059h202v-1059h-202v184q-62 -100 -159 -154.5t-218 -54.5q-211 0 -349.5 156t-138.5 399q0 242 139 397.5t349 155.5q121 0 218 -54t159 -152v182zM635 152q143 0 235.5 106.5t92.5 271.5t-92.5 271t-235.5 106q-146 0 -239 -105.5t-93 -271.5t93 -272t239 -106z
" />
    <glyph glyph-name="aacute.alt" horiz-adv-x="1320" 
d="M936 1442l-295 -262h-147l243 303zM963 1059h202v-1059h-202v184q-62 -100 -159 -154.5t-218 -54.5q-211 0 -349.5 156t-138.5 399q0 242 139 397.5t349 155.5q121 0 218 -54t159 -152v182zM635 152q143 0 235.5 106.5t92.5 271.5t-92.5 271t-235.5 106
q-146 0 -239 -105.5t-93 -271.5t93 -272t239 -106z" />
    <glyph glyph-name="abreve.alt" horiz-adv-x="1320" 
d="M983 1327q-127 -127 -309 -127q-179 0 -309 127l106 109q42 -40 95.5 -63t107.5 -23t107.5 23t95.5 63zM963 1059h202v-1059h-202v184q-62 -100 -159 -154.5t-218 -54.5q-211 0 -349.5 156t-138.5 399q0 242 139 397.5t349 155.5q121 0 218 -54t159 -152v182zM635 152
q143 0 235.5 106.5t92.5 271.5t-92.5 271t-235.5 106q-146 0 -239 -105.5t-93 -271.5t93 -272t239 -106z" />
    <glyph glyph-name="acircumflex.alt" horiz-adv-x="1320" 
d="M674 1348l-158 -168h-139l209 286h178l211 -286h-141zM963 1059h202v-1059h-202v184q-62 -100 -159 -154.5t-218 -54.5q-211 0 -349.5 156t-138.5 399q0 242 139 397.5t349 155.5q121 0 218 -54t159 -152v182zM635 152q143 0 235.5 106.5t92.5 271.5t-92.5 271
t-235.5 106q-146 0 -239 -105.5t-93 -271.5t93 -272t239 -106z" />
    <glyph glyph-name="adieresis.alt" horiz-adv-x="1320" 
d="M471 1214q-47 0 -79 32.5t-32 78.5q0 44 32.5 77.5t78.5 33.5q45 0 78 -34t33 -77q0 -46 -32.5 -78.5t-78.5 -32.5zM879 1214q-47 0 -79 32.5t-32 78.5q0 44 32.5 77.5t78.5 33.5q44 0 77 -34t33 -77q0 -45 -32.5 -78t-77.5 -33zM963 1059h202v-1059h-202v184
q-62 -100 -159 -154.5t-218 -54.5q-211 0 -349.5 156t-138.5 399q0 242 139 397.5t349 155.5q121 0 218 -54t159 -152v182zM635 152q143 0 235.5 106.5t92.5 271.5t-92.5 271t-235.5 106q-146 0 -239 -105.5t-93 -271.5t93 -272t239 -106z" />
    <glyph glyph-name="agrave.alt" horiz-adv-x="1320" 
d="M834 1180h-148l-295 262l197 41zM963 1059h202v-1059h-202v184q-62 -100 -159 -154.5t-218 -54.5q-211 0 -349.5 156t-138.5 399q0 242 139 397.5t349 155.5q121 0 218 -54t159 -152v182zM635 152q143 0 235.5 106.5t92.5 271.5t-92.5 271t-235.5 106q-146 0 -239 -105.5
t-93 -271.5t93 -272t239 -106z" />
    <glyph glyph-name="amacron.alt" horiz-adv-x="1320" 
d="M1004 1341v-133h-660v133h660zM963 1059h202v-1059h-202v184q-62 -100 -159 -154.5t-218 -54.5q-211 0 -349.5 156t-138.5 399q0 242 139 397.5t349 155.5q121 0 218 -54t159 -152v182zM635 152q143 0 235.5 106.5t92.5 271.5t-92.5 271t-235.5 106q-146 0 -239 -105.5
t-93 -271.5t93 -272t239 -106z" />
    <glyph glyph-name="aogonek.alt" horiz-adv-x="1320" 
d="M1253 -178l62 -115q-70 -61 -174 -61q-101 0 -163.5 59.5t-62.5 161.5q0 75 48 133v184q-62 -100 -159 -154.5t-218 -54.5q-211 0 -349.5 156t-138.5 399q0 242 139 397.5t349 155.5q121 0 218 -54t159 -152v182h202v-1059q-49 0 -79.5 -30.5t-30.5 -78.5q0 -50 29 -77
t81 -27q57 0 88 35zM635 152q143 0 235.5 106.5t92.5 271.5t-92.5 271t-235.5 106q-146 0 -239 -105.5t-93 -271.5t93 -272t239 -106z" />
    <glyph glyph-name="aring.alt" horiz-adv-x="1320" 
d="M674 1200q-91 0 -155 64t-64 155t64 154t155 63t154 -63t63 -154t-63 -155t-154 -64zM674 1536q-47 0 -82 -35t-35 -82t35 -81.5t82 -34.5t82 34.5t35 81.5t-35 82t-82 35zM963 1059h202v-1059h-202v184q-62 -100 -159 -154.5t-218 -54.5q-211 0 -349.5 156t-138.5 399
q0 242 139 397.5t349 155.5q121 0 218 -54t159 -152v182zM635 152q143 0 235.5 106.5t92.5 271.5t-92.5 271t-235.5 106q-146 0 -239 -105.5t-93 -271.5t93 -272t239 -106z" />
    <glyph glyph-name="atilde.alt" horiz-adv-x="1320" 
d="M541 1300q-39 0 -63 -30.5t-34 -98.5l-112 19q31 252 207 252q40 0 80.5 -19.5t68 -43t59.5 -43t58 -19.5q73 0 96 129l113 -16q-31 -254 -207 -254q-40 0 -80.5 19.5t-68 42.5t-59.5 42.5t-58 19.5zM963 1059h202v-1059h-202v184q-62 -100 -159 -154.5t-218 -54.5
q-211 0 -349.5 156t-138.5 399q0 242 139 397.5t349 155.5q121 0 218 -54t159 -152v182zM635 152q143 0 235.5 106.5t92.5 271.5t-92.5 271t-235.5 106q-146 0 -239 -105.5t-93 -271.5t93 -272t239 -106z" />
    <glyph glyph-name="ascender" horiz-adv-x="1320" 
d="M158 0v1432h200v-1432h-200z" />
    <glyph glyph-name="descender" horiz-adv-x="1320" 
d="M158 -352v1411h200v-1411h-200z" />
    </font>
</defs>
</svg>
