<?xml version="1.0" standalone="no"?>
<!DOCTYPE svg PUBLIC "-//W3C//DTD SVG 1.1//EN" "http://www.w3.org/Graphics/SVG/1.1/DTD/svg11.dtd" >
<svg xmlns="http://www.w3.org/2000/svg" xmlns:xlink="http://www.w3.org/1999/xlink" version="1.1">
<metadata>
Created by FontForge 20170731 at Wed Jan  5 16:17:03 2022
 By Aleksey,,,
Copyright (c) 2016 by Chris Simpson.
</metadata>
<defs>
<font id="Metropolis-Thin" horiz-adv-x="1130" >
  <font-face 
    font-family="Metropolis Thin"
    font-weight="400"
    font-stretch="normal"
    units-per-em="2048"
    panose-1="0 0 5 0 0 0 0 0 0 0"
    ascent="1628"
    descent="-420"
    x-height="1059"
    cap-height="1407"
    bbox="-332 -549 2238 1976"
    underline-thickness="40"
    underline-position="-312"
    unicode-range="U+0020-2212"
  />
<missing-glyph horiz-adv-x="1024" 
d="M840 1628v-2048h-650v2048h650zM682 1491h-338v-68h133v-75h-135v-68h340v68h-135v75h135v68zM547 1227h-205v-213h340v69h-135v144zM477 1157v-74h-67v74h67zM682 958h-340v-67h135v-76h-135v-67h205v143h135v67zM682 836h-68v-136h-272v-69h340v205zM682 586h-205v-115
h70v47h67v-96h-204v164h-68v-232h340v232zM682 231h-340v-231h340v231zM614 164v-96h-204v96h204zM682 -47h-340v-68h143l-143 -96v-68h340v68h-209l143 96h66v68z" />
    <glyph glyph-name=".notdef" horiz-adv-x="1024" 
d="M840 1628v-2048h-650v2048h650zM682 1491h-338v-68h133v-75h-135v-68h340v68h-135v75h135v68zM547 1227h-205v-213h340v69h-135v144zM477 1157v-74h-67v74h67zM682 958h-340v-67h135v-76h-135v-67h205v143h135v67zM682 836h-68v-136h-272v-69h340v205zM682 586h-205v-115
h70v47h67v-96h-204v164h-68v-232h340v232zM682 231h-340v-231h340v231zM614 164v-96h-204v96h204zM682 -47h-340v-68h143l-143 -96v-68h340v68h-209l143 96h66v68z" />
    <glyph glyph-name=".null" horiz-adv-x="0" 
 />
    <glyph glyph-name="nonmarkingreturn" horiz-adv-x="682" 
 />
    <glyph glyph-name="space" unicode=" " horiz-adv-x="593" 
 />
    <glyph glyph-name="exclam" unicode="!" horiz-adv-x="460" 
d="M195 395v1012h73v-1012h-73zM233 -25q-27 0 -45 18.5t-18 45.5q0 24 18 41.5t45 17.5q25 0 42.5 -18t17.5 -41q0 -26 -17.5 -45t-42.5 -19z" />
    <glyph glyph-name="quotedbl" unicode="&#x22;" horiz-adv-x="784" 
d="M178 934q-4 41 -13 117.5t-14.5 129t-5.5 81.5q0 26 18.5 43.5t43.5 17.5t43 -17.5t18 -43.5q0 -29 -5 -81t-14 -130.5t-13 -116.5h-58zM549 934q-4 41 -13 117.5t-14.5 129t-5.5 81.5q0 26 18.5 43.5t43.5 17.5t43 -17.5t18 -43.5q0 -29 -5.5 -81.5t-14.5 -129
t-13 -117.5h-57z" />
    <glyph glyph-name="numbersign" unicode="#" horiz-adv-x="1368" 
d="M1268 940h-269l-120 -473h270l-19 -74h-270l-98 -393h-76l98 393h-366l-99 -393h-75l98 393h-262l18 74h262l121 473h-266l18 74h267l98 393h76l-99 -393h367l98 393h76l-98 -393h268zM803 467l121 473h-367l-121 -473h367z" />
    <glyph glyph-name="dollar" unicode="$" horiz-adv-x="1234" 
d="M1124 362q0 -167 -130.5 -274.5t-336.5 -110.5v-129h-73v132q-139 12 -266.5 69t-223.5 152l45 57q86 -86 202.5 -139.5t242.5 -63.5v635q-224 55 -322 135.5t-98 206.5q0 169 117 281t303 121v120h73v-122q118 -7 233.5 -59t209.5 -140l-45 -57q-168 163 -398 182v-610
h5q247 -58 354.5 -148t107.5 -238zM238 1038q0 -92 81 -155.5t265 -114.5v592q-154 -7 -250 -97t-96 -225zM657 51q172 2 283 87.5t111 217.5q0 116 -92 190t-302 126v-621z" />
    <glyph glyph-name="percent" unicode="%" horiz-adv-x="1574" 
d="M393 715q-131 0 -214 97t-83 251q0 157 83.5 256.5t215.5 99.5t215.5 -98.5t83.5 -253.5t-84.5 -253.5t-216.5 -98.5zM258 0l963 1407h98l-963 -1407h-98zM395 788q98 0 162 78t64 199q0 123 -64 202t-164 79q-98 0 -160.5 -79t-62.5 -202q0 -121 63.5 -199t161.5 -78z
M1176 -20q-131 0 -214 98.5t-83 253.5t83.5 253.5t215.5 98.5t215.5 -98t83.5 -252q0 -155 -84.5 -254.5t-216.5 -99.5zM1178 53q98 0 161.5 78t63.5 201t-63.5 200.5t-163.5 77.5q-98 0 -161 -77.5t-63 -198.5q0 -123 64 -202t162 -79z" />
    <glyph glyph-name="ampersand" unicode="&#x26;" horiz-adv-x="1320" 
d="M1235 20l-74 -34q-131 131 -215 219q-98 -119 -199 -174.5t-217 -55.5q-183 0 -314.5 118.5t-131.5 287.5q0 66 24.5 124.5t59 98.5t86.5 76.5t92 56.5t90 41q-83 107 -116 178t-33 140q0 131 94.5 229t224.5 98q128 0 224 -97t96 -228q0 -44 -12 -82.5t-38.5 -70.5
t-56 -57.5t-76 -51t-87.5 -44.5t-101 -44q125 -148 385 -424q88 123 203 354l67 -31q-115 -237 -217 -379q117 -123 242 -248zM604 1350q-99 0 -171.5 -76.5t-72.5 -179.5q0 -59 32.5 -122.5t113.5 -164.5q92 38 146.5 64.5t105 62t72.5 75.5t22 91q0 98 -74 174t-174 76z
M528 49q197 0 365 211q-262 275 -410 459q-66 -28 -116 -56t-101.5 -69.5t-79.5 -96.5t-28 -120q0 -134 109.5 -231t260.5 -97z" />
    <glyph glyph-name="quotesingle" unicode="'" horiz-adv-x="413" 
d="M178 934q-4 41 -13 117.5t-14.5 129t-5.5 81.5q0 26 18.5 43.5t43.5 17.5t43 -17.5t18 -43.5q0 -29 -5 -81t-14 -130.5t-13 -116.5h-58z" />
    <glyph glyph-name="parenleft" unicode="(" horiz-adv-x="675" 
d="M530 -348q-190 193 -296.5 429t-106.5 462q0 223 106.5 459t296.5 432l52 -54q-180 -184 -280.5 -405t-100.5 -432t100.5 -432t280.5 -404z" />
    <glyph glyph-name="parenright" unicode=")" horiz-adv-x="675" 
d="M145 -348l-51 55q180 183 280.5 404t100.5 432t-100.5 432t-280.5 405l51 54q190 -196 297 -432t107 -459q0 -226 -107 -462t-297 -429z" />
    <glyph glyph-name="asterisk" unicode="*" horiz-adv-x="735" 
d="M367 827q-15 0 -26 10.5t-11 24.5q0 37 11 117.5t13 103.5q-19 -14 -82 -65t-96 -68q-10 -6 -26 -1.5t-23 16.5q-7 14 -3.5 27.5t15.5 21.5q31 19 106 49.5t97 40.5q-31 14 -101 44t-102 46q-11 6 -15 20.5t3 28.5q8 12 22.5 16.5t26.5 -2.5q30 -19 91.5 -67t86.5 -66
q-2 22 -13 103.5t-11 118.5q0 14 11 24t26 10t25.5 -10t10.5 -24q0 -37 -11 -118.5t-13 -103.5q20 15 83 65.5t95 67.5q12 6 27.5 2t21.5 -16q8 -14 4.5 -27.5t-16.5 -21.5q-30 -19 -106 -49.5t-97 -40.5q29 -13 100.5 -43.5t102.5 -46.5q12 -6 16.5 -20.5t-4.5 -28.5
q-6 -12 -21.5 -17t-27.5 2q-28 18 -89 65.5t-89 67.5q2 -23 13 -103.5t11 -117.5q0 -14 -10.5 -24.5t-25.5 -10.5z" />
    <glyph glyph-name="plus" unicode="+" horiz-adv-x="1214" 
d="M1077 721v-74h-432v-432h-74v432h-434v74h434v434h74v-434h432z" />
    <glyph glyph-name="comma" unicode="," horiz-adv-x="493" 
d="M215 -252l-53 39q83 96 106 188q-29 0 -46 17.5t-17 44.5q0 26 17.5 43.5t45.5 17.5q30 0 48 -22.5t18 -63.5q0 -109 -119 -264z" />
    <glyph glyph-name="hyphen" unicode="-" horiz-adv-x="759" 
d="M115 520v74h530v-74h-530z" />
    <glyph glyph-name="period" unicode="." horiz-adv-x="419" 
d="M213 -25q-27 0 -45 18.5t-18 45.5q0 24 18 41.5t45 17.5q24 0 41.5 -17.5t17.5 -41.5q0 -26 -17 -45t-42 -19z" />
    <glyph glyph-name="slash" unicode="/" horiz-adv-x="755" 
d="M-33 -152l719 1674h80l-719 -1674h-80z" />
    <glyph glyph-name="zero" unicode="0" horiz-adv-x="1323" 
d="M662 -25q-117 0 -218 54t-172 150t-111 232t-40 294q0 210 68.5 376t192 258.5t280.5 92.5t280 -92.5t191.5 -258t68.5 -376.5t-68.5 -378t-191.5 -259.5t-280 -92.5zM662 49q135 0 241.5 83.5t165.5 233.5t59 339q0 287 -130.5 470t-335.5 183t-336 -183t-131 -470
q0 -189 59 -339t166 -233.5t242 -83.5z" />
    <glyph glyph-name="one" unicode="1" horiz-adv-x="679" 
d="M412 0v1311l-320 -201l-39 61l373 236h59v-1407h-73z" />
    <glyph glyph-name="two" unicode="2" horiz-adv-x="1185" 
d="M100 0v80l547 469q293 252 293 469q0 65 -24.5 126.5t-67.5 110t-109.5 78t-144.5 29.5q-116 0 -227.5 -63.5t-196.5 -182.5l-57 45q92 134 218.5 202.5t258.5 68.5q124 0 222.5 -58.5t150 -152t51.5 -201.5q0 -253 -320 -526l-491 -420h848v-74h-951z" />
    <glyph glyph-name="three" unicode="3" horiz-adv-x="1126" 
d="M563 -25q-277 0 -481 271l53 51q163 -248 428 -248q152 0 262.5 100t110.5 238q0 136 -108 212.5t-300 76.5h-127v74h129q177 0 276 76t99 212q0 130 -105.5 225t-250.5 95q-224 0 -395 -244l-56 49q202 269 459 269q113 0 210 -52.5t154.5 -141t57.5 -191.5
q0 -121 -61 -207.5t-168 -118.5q123 -28 191.5 -117.5t68.5 -220.5q0 -109 -61 -203t-164 -149.5t-222 -55.5z" />
    <glyph glyph-name="four" unicode="4" horiz-adv-x="1212" 
d="M805 0v379h-711l-12 76l694 952h103v-954h233v-74h-233v-379h-74zM174 453h631v866z" />
    <glyph glyph-name="five" unicode="5" horiz-adv-x="1183" 
d="M614 -25q-143 0 -275 59t-224 165l49 55q85 -97 203.5 -151t246.5 -54q154 0 266.5 113.5t112.5 269.5q0 143 -110 246.5t-262 103.5q-78 0 -163.5 -31.5t-160.5 -88.5l-74 36l19 709h772v-74h-701l-14 -588q61 52 151 81.5t187 29.5q175 0 302.5 -124t127.5 -294
q0 -124 -61.5 -231t-166 -169.5t-225.5 -62.5z" />
    <glyph glyph-name="six" unicode="6" horiz-adv-x="1187" 
d="M631 879q177 0 305.5 -130.5t128.5 -310.5q0 -124 -61.5 -231t-166 -169.5t-225.5 -62.5q-230 0 -359.5 187t-129.5 520q0 216 66.5 387.5t186 267t271.5 95.5q106 0 211.5 -44.5t188.5 -123.5l-41 -60q-74 72 -170 113t-193 41q-196 0 -322 -190t-126 -486q0 -48 2 -68
q37 114 159 189.5t275 75.5zM612 49q154 0 266.5 114t112.5 271q0 151 -111.5 261t-263.5 110q-145 0 -261 -92.5t-146 -225.5q32 -210 137 -324t266 -114z" />
    <glyph glyph-name="seven" unicode="7" horiz-adv-x="1208" 
d="M338 0l627 1333h-844v74h932v-59l-633 -1348h-82z" />
    <glyph glyph-name="eight" unicode="8" horiz-adv-x="1153" 
d="M575 -25q-125 0 -233 52.5t-172 141.5t-64 193q0 121 86.5 223t221.5 140q-118 40 -194.5 135.5t-76.5 204.5q0 98 58.5 182.5t158 134.5t215.5 50q178 0 307.5 -109t129.5 -258q0 -110 -76.5 -206t-196.5 -134q135 -40 221.5 -141.5t86.5 -221.5q0 -104 -64 -193
t-173 -141.5t-235 -52.5zM575 764q160 9 261.5 91t101.5 202q0 123 -107.5 212t-255.5 89q-146 0 -252 -89t-106 -212q0 -120 100 -202t258 -91zM575 49q161 0 279.5 94.5t118.5 223.5q0 132 -111.5 219.5t-286.5 91.5q-173 -5 -284 -92t-111 -219q0 -129 117 -223.5
t278 -94.5z" />
    <glyph glyph-name="nine" unicode="9" horiz-adv-x="1187" 
d="M575 1432q230 0 360 -187t130 -520q0 -216 -66.5 -387.5t-186 -267t-271.5 -95.5q-106 0 -211.5 44.5t-188.5 123.5l41 60q74 -72 170 -113t193 -41q196 0 322 190t126 486q0 48 -2 68q-37 -114 -159 -189.5t-275 -75.5q-177 0 -305.5 130.5t-128.5 310.5
q0 93 36.5 178.5t97 148t144 99.5t174.5 37zM571 602q145 0 261.5 92.5t146.5 225.5q-32 209 -137.5 323.5t-266.5 114.5q-154 0 -266 -114t-112 -271q0 -151 111 -261t263 -110z" />
    <glyph glyph-name="colon" unicode=":" horiz-adv-x="419" 
d="M213 895q-27 0 -45 18t-18 45q0 24 18 42t45 18q24 0 41.5 -18t17.5 -42q0 -26 -17 -44.5t-42 -18.5zM213 -25q-27 0 -45 18.5t-18 45.5q0 24 18 41.5t45 17.5q24 0 41.5 -17.5t17.5 -41.5q0 -26 -17 -45t-42 -19z" />
    <glyph glyph-name="semicolon" unicode=";" horiz-adv-x="493" 
d="M268 895q-27 0 -45 18t-18 45q0 24 18 42t45 18q24 0 42 -18t18 -42q0 -26 -17.5 -44.5t-42.5 -18.5zM215 -252l-53 39q83 96 106 188q-29 0 -46 17.5t-17 44.5q0 26 17.5 43.5t45.5 17.5q30 0 48 -22.5t18 -63.5q0 -109 -119 -264z" />
    <glyph glyph-name="less" unicode="&#x3c;" horiz-adv-x="1200" 
d="M1044 209l-931 450v91l931 450v-90l-835 -405l835 -406v-90z" />
    <glyph glyph-name="equal" unicode="=" horiz-adv-x="1214" 
d="M137 872v74h940v-74h-940zM137 422v74h940v-74h-940z" />
    <glyph glyph-name="greater" unicode="&#x3e;" horiz-adv-x="1200" 
d="M156 209v90l835 406l-835 405v90l931 -450v-91z" />
    <glyph glyph-name="question" unicode="?" horiz-adv-x="995" 
d="M422 395v334q179 13 294 103t115 215q0 127 -94 219t-225 92q-251 0 -403 -213l-54 51q190 236 461 236q158 0 273.5 -112.5t115.5 -266.5q0 -139 -114.5 -246.5t-294.5 -138.5v-273h-74zM461 -25q-27 0 -45.5 18.5t-18.5 45.5q0 24 18.5 41.5t45.5 17.5q24 0 41.5 -17.5
t17.5 -41.5q0 -26 -17 -45t-42 -19z" />
    <glyph glyph-name="at" unicode="@" horiz-adv-x="1804" 
d="M872 -238q-208 0 -388.5 104t-287 281.5t-106.5 382.5q0 170 69 327.5t184 272.5t273.5 183.5t329.5 68.5q154 0 296 -59t245.5 -157t165 -233t61.5 -280q0 -121 -30.5 -217.5t-81.5 -155t-114 -89.5t-132 -31q-88 0 -147 46.5t-76 129.5q-60 -77 -152 -126.5t-193 -49.5
q-138 0 -225.5 99.5t-87.5 254.5q0 137 61 255.5t164 187.5t222 69q103 0 179 -47.5t113 -118.5l29 135l82 -10q-115 -507 -115 -594q0 -72 47.5 -115t118.5 -43q44 0 89 26t85 75.5t65 132.5t25 186q0 131 -56 252.5t-150 209.5t-223.5 141t-268.5 53q-155 0 -298 -62.5
t-247 -167t-166.5 -248.5t-62.5 -299q0 -112 36.5 -218t102.5 -192t153.5 -151t195.5 -101t221 -36q126 0 228 29t214 96l37 -55q-119 -75 -232 -108.5t-252 -33.5zM807 233q138 0 233 106.5t125 262.5q29 154 -37 252t-198 98q-155 0 -268 -127.5t-113 -302.5
q0 -128 72 -208.5t186 -80.5z" />
    <glyph glyph-name="A" unicode="A" horiz-adv-x="1454" 
d="M1307 0l-158 358h-844l-158 -358h-81l620 1407h82l621 -1407h-82zM338 432h778l-389 883z" />
    <glyph glyph-name="B" unicode="B" horiz-adv-x="1339" 
d="M193 0v1407h587q170 0 278.5 -98t108.5 -252q0 -113 -55 -204t-141 -120q110 -35 181 -133t71 -215q0 -169 -117.5 -277t-300.5 -108h-612zM266 770h539q127 0 208 80.5t81 206.5q0 121 -88 198.5t-226 77.5h-514v-563zM266 74h539q151 0 247.5 87.5t96.5 223.5
t-96.5 223.5t-247.5 87.5h-539v-622z" />
    <glyph glyph-name="C" unicode="C" horiz-adv-x="1392" 
d="M827 -25q-192 0 -358.5 99.5t-264.5 268t-98 362.5q0 145 58 279.5t155.5 232.5t230.5 156.5t277 58.5t275 -56.5t231 -158.5l-53 -52q-89 91 -207 142t-246 51q-173 0 -322.5 -89t-237 -239.5t-87.5 -324.5q0 -131 52 -252.5t139 -209.5t207 -141t249 -53t246.5 51.5
t206.5 143.5l53 -54q-101 -101 -232 -158t-274 -57z" />
    <glyph glyph-name="D" unicode="D" horiz-adv-x="1525" 
d="M193 0v1407h481q156 0 290 -52t229 -144t148.5 -223t53.5 -283q0 -204 -91.5 -364.5t-256.5 -250.5t-373 -90h-481zM266 74h408q187 0 335 80.5t230 224.5t82 326q0 137 -48 253.5t-133 199t-205.5 129t-260.5 46.5h-408v-1259z" />
    <glyph glyph-name="E" unicode="E" horiz-adv-x="1198" 
d="M1085 1333h-849v-579h786v-74h-786v-606h849v-74h-923v1407h923v-74z" />
    <glyph glyph-name="F" unicode="F" horiz-adv-x="1202" 
d="M1126 1333h-890v-579h806v-74h-806v-680h-74v1407h964v-74z" />
    <glyph glyph-name="G" unicode="G" horiz-adv-x="1521" 
d="M807 625v73h563v-512q-108 -99 -248.5 -155t-294.5 -56q-192 0 -358.5 99.5t-264.5 268t-98 362.5q0 145 58 279.5t155.5 232.5t230.5 156.5t277 58.5q154 0 294.5 -55t248.5 -154l-53 -54q-97 89 -224 139t-266 50q-173 0 -322.5 -89t-237 -239.5t-87.5 -324.5
q0 -131 52 -252.5t139 -209.5t207 -141t249 -53q264 0 469 168v408h-489z" />
    <glyph glyph-name="H" unicode="H" horiz-adv-x="1386" 
d="M1151 1407h74v-1407h-74v680h-915v-680h-74v1407h74v-653h915v653z" />
    <glyph glyph-name="I" unicode="I" horiz-adv-x="397" 
d="M162 0v1407h74v-1407h-74z" />
    <glyph glyph-name="J" unicode="J" horiz-adv-x="1062" 
d="M465 -25q-124 0 -235 64.5t-177 169.5l45 57q61 -97 160 -157t207 -60q153 0 250.5 109t97.5 280v969h74v-969q0 -203 -118 -333t-304 -130z" />
    <glyph glyph-name="K" unicode="K" horiz-adv-x="1253" 
d="M188 0v1407h74v-881l807 881h98l-583 -637l628 -770h-94l-586 715l-270 -295v-420h-74z" />
    <glyph glyph-name="L" unicode="L" horiz-adv-x="1093" 
d="M213 74h811v-74h-885v1407h74v-1333z" />
    <glyph glyph-name="M" unicode="M" horiz-adv-x="1662" 
d="M193 0v1407h73l565 -1063l566 1063h73v-1407h-73v1260l-566 -1063l-565 1063v-1260h-73z" />
    <glyph glyph-name="N" unicode="N" horiz-adv-x="1490" 
d="M193 0v1407h73l959 -1292v1292h73v-1407h-73l-959 1292v-1292h-73z" />
    <glyph glyph-name="O" unicode="O" horiz-adv-x="1652" 
d="M827 -25q-192 0 -358.5 99.5t-264.5 268t-98 362.5q0 145 58 279.5t155.5 232.5t230.5 156.5t277 58.5t277 -58.5t229.5 -156.5t154.5 -232.5t58 -279.5q0 -194 -97.5 -362.5t-263.5 -268t-358 -99.5zM827 49q172 0 321 89t237 240.5t88 326.5q0 104 -33 203.5t-93.5 180
t-140.5 141.5t-178 94.5t-201 33.5q-173 0 -322.5 -89t-237 -239.5t-87.5 -324.5q0 -131 52 -252.5t139 -209.5t207 -141t249 -53z" />
    <glyph glyph-name="P" unicode="P" horiz-adv-x="1308" 
d="M162 0v1407h592q214 0 350.5 -120.5t136.5 -309.5t-136.5 -309.5t-350.5 -120.5h-518v-547h-74zM236 621h503q188 0 308 99.5t120 256.5t-120 256.5t-308 99.5h-503v-712z" />
    <glyph glyph-name="Q" unicode="Q" horiz-adv-x="1652" 
d="M1546 705q0 -147 -56.5 -279.5t-156.5 -232.5l158 -138l-49 -55l-164 141q-200 -166 -451 -166q-192 0 -358.5 99.5t-264.5 268t-98 362.5q0 145 58 279.5t155.5 232.5t230.5 156.5t277 58.5t277 -58.5t229.5 -156.5t154.5 -232.5t58 -279.5zM827 49q218 0 396 141
l-277 240l47 55l285 -245q91 91 143 212t52 253q0 104 -33 203.5t-93.5 180t-140.5 141.5t-178 94.5t-201 33.5q-173 0 -322.5 -89t-237 -239.5t-87.5 -324.5q0 -131 52 -252.5t139 -209.5t207 -141t249 -53z" />
    <glyph glyph-name="R" unicode="R" horiz-adv-x="1308" 
d="M1241 977q0 -176 -120.5 -294.5t-313.5 -133.5l385 -549h-90l-383 547h-483v-547h-74v1407h592q214 0 350.5 -120.5t136.5 -309.5zM236 1333v-712h503q188 0 308 99.5t120 256.5t-120 256.5t-308 99.5h-503z" />
    <glyph glyph-name="S" unicode="S" horiz-adv-x="1234" 
d="M649 -23q-155 0 -301.5 59t-253.5 165l45 57q97 -97 232.5 -152t279.5 -55q175 0 287.5 86t112.5 219q0 120 -98.5 195t-327.5 129q-248 57 -354.5 138.5t-106.5 213.5q0 177 126 289.5t324 112.5q129 0 256 -52.5t230 -148.5l-45 -57q-91 88 -206.5 136t-238.5 48
q-164 0 -268 -90.5t-104 -231.5q0 -101 98 -167.5t326 -122.5q247 -58 354.5 -148t107.5 -238q0 -169 -133 -277t-342 -108z" />
    <glyph glyph-name="T" unicode="T" horiz-adv-x="1290" 
d="M608 0v1333h-516v74h1106v-74h-516v-1333h-74z" />
    <glyph glyph-name="U" unicode="U" horiz-adv-x="1441" 
d="M721 -25q-239 0 -392 159.5t-153 408.5v864h74v-864q0 -217 132 -355.5t339 -138.5t339 138.5t132 355.5v864h74v-864q0 -249 -153 -408.5t-392 -159.5z" />
    <glyph glyph-name="V" unicode="V" horiz-adv-x="1454" 
d="M1307 1407h82l-621 -1407h-82l-620 1407h81l580 -1315z" />
    <glyph glyph-name="W" unicode="W" horiz-adv-x="2115" 
d="M547 0l-471 1407h80l432 -1288l430 1288h80l432 -1288l430 1288h80l-471 -1407h-80l-430 1288l-432 -1288h-80z" />
    <glyph glyph-name="X" unicode="X" horiz-adv-x="1327" 
d="M1249 1407l-538 -705l536 -702h-94l-489 641l-492 -641h-94l538 702l-538 705h94l492 -643l491 643h94z" />
    <glyph glyph-name="Y" unicode="Y" horiz-adv-x="1294" 
d="M610 0v571l-573 836h94l516 -752l516 752h94l-573 -836v-571h-74z" />
    <glyph glyph-name="Z" unicode="Z" horiz-adv-x="1267" 
d="M119 0v61l936 1272h-922v74h1012v-61l-936 -1272h944v-74h-1034z" />
    <glyph glyph-name="bracketleft" unicode="[" horiz-adv-x="718" 
d="M166 -236v1739h452v-73h-378v-1592h378v-74h-452z" />
    <glyph glyph-name="backslash" unicode="\" horiz-adv-x="755" 
d="M709 -152l-719 1674h80l718 -1674h-79z" />
    <glyph glyph-name="bracketright" unicode="]" horiz-adv-x="718" 
d="M100 -236v74h379v1592h-379v73h453v-1739h-453z" />
    <glyph glyph-name="asciicircum" unicode="^" horiz-adv-x="962" 
d="M111 846l327 561h86l328 -561h-90l-281 479l-280 -479h-90z" />
    <glyph glyph-name="underscore" unicode="_" horiz-adv-x="1212" 
d="M-4 -260v74h1221v-74h-1221z" />
    <glyph glyph-name="grave" unicode="`" horiz-adv-x="598" 
d="M371 1180l-242 272l84 18l256 -290h-98z" />
    <glyph glyph-name="a" unicode="a" horiz-adv-x="1134" 
d="M569 1083q188 0 298 -121.5t110 -316.5v-645h-74v172q-59 -91 -178.5 -144t-241.5 -53q-165 0 -273 95t-108 245q0 155 117.5 253t308.5 98q170 0 375 -74v53q0 70 -19 132.5t-58 116t-107.5 85t-159.5 31.5q-170 0 -323 -92l-31 63q176 102 364 102zM492 49q85 0 169 30
t153.5 96.5t88.5 156.5v186q-218 74 -366 74q-160 0 -260.5 -77t-100.5 -198q0 -117 91 -192.5t225 -75.5z" />
    <glyph glyph-name="b" unicode="b" horiz-adv-x="1247" 
d="M662 1083q127 0 236.5 -75t174 -202.5t64.5 -275.5t-64.5 -276t-174 -203.5t-236.5 -75.5q-136 0 -245 65t-173 181v-221h-74v1432h74v-594q64 115 173 180t245 65zM647 49q111 0 207 65t152.5 176t56.5 240q0 128 -56.5 238.5t-152.5 176t-207 65.5q-177 0 -290 -134.5
t-113 -345.5q0 -212 113 -346.5t290 -134.5z" />
    <glyph glyph-name="c" unicode="c" horiz-adv-x="1069" 
d="M627 -25q-232 0 -380.5 155.5t-148.5 399.5q0 243 148.5 398t380.5 155q103 0 196.5 -41t165.5 -114l-53 -51q-130 133 -309 133q-200 0 -327.5 -134.5t-127.5 -345.5q0 -212 127.5 -346.5t327.5 -134.5q178 0 311 133l51 -51q-72 -73 -166 -114.5t-196 -41.5z" />
    <glyph glyph-name="d" unicode="d" horiz-adv-x="1247" 
d="M1004 1432h73v-1432h-73v221q-64 -116 -173 -181t-245 -65q-127 0 -236.5 75.5t-174 203.5t-64.5 276t64.5 275.5t174 202.5t236.5 75q136 0 245 -65t173 -180v594zM600 49q177 0 290.5 134.5t113.5 346.5q0 211 -113.5 345.5t-290.5 134.5q-111 0 -207 -65.5
t-152.5 -176t-56.5 -238.5q0 -129 56.5 -240t152.5 -176t207 -65z" />
    <glyph glyph-name="e" unicode="e" horiz-adv-x="1218" 
d="M618 49q117 0 222.5 38t169.5 108l51 -56q-66 -72 -190.5 -118t-252.5 -46q-139 0 -259 75.5t-190.5 204t-70.5 277.5q0 152 69 278.5t188.5 199.5t262.5 73q227 0 365.5 -161.5t138.5 -425.5h-948q8 -121 70 -224t161.5 -163t212.5 -60zM618 1010q-178 0 -305 -127
t-139 -314h875q-9 199 -126.5 320t-304.5 121z" />
    <glyph glyph-name="f" unicode="f" horiz-adv-x="698" 
d="M483 1401q-64 0 -105.5 -55.5t-41.5 -141.5v-145h297v-74h-297v-985h-74v985h-186v74h186v145q0 119 61 195t156 76q111 0 197 -68l-41 -57q-60 51 -152 51z" />
    <glyph glyph-name="g" unicode="g" horiz-adv-x="1222" 
d="M979 1059h74v-946q0 -204 -135 -334.5t-347 -130.5q-115 0 -235.5 39.5t-192.5 101.5l37 66q69 -59 177 -96.5t208 -37.5q181 0 297.5 110t116.5 282v241q-57 -133 -175 -204.5t-267 -71.5q-124 0 -231 68.5t-169.5 184.5t-62.5 251q0 134 62.5 249.5t169.5 183.5t231 68
q153 0 269.5 -70.5t172.5 -203.5v250zM551 152q183 0 305.5 121.5t122.5 308.5q0 186 -122.5 307t-305.5 121q-164 0 -284 -127.5t-120 -300.5q0 -175 120 -302.5t284 -127.5z" />
    <glyph glyph-name="h" unicode="h" 
d="M580 1083q173 0 284 -109.5t111 -279.5v-694h-74v684q0 143 -93 234.5t-239 91.5q-149 0 -243.5 -93.5t-94.5 -240.5v-676h-73v1432h73v-558q40 96 133 152.5t216 56.5z" />
    <glyph glyph-name="i" unicode="i" horiz-adv-x="380" 
d="M190 1292q-26 0 -43.5 18t-17.5 44q0 25 17.5 43t43.5 18q25 0 43.5 -18t18.5 -43q0 -26 -18.5 -44t-43.5 -18zM154 0v1059h73v-1059h-73z" />
    <glyph glyph-name="j" unicode="j" horiz-adv-x="329" 
d="M166 1292q-26 0 -44 18t-18 44q0 25 18 43t44 18q25 0 43 -18t18 -43q0 -26 -18 -44t-43 -18zM-18 -365q-87 0 -166 33l14 70q67 -29 147 -29q66 0 108 49.5t42 126.5v1174h74v-1174q0 -109 -61.5 -179.5t-157.5 -70.5z" />
    <glyph glyph-name="k" unicode="k" horiz-adv-x="1024" 
d="M995 1059l-475 -486l451 -573h-94l-408 522l-242 -248v-274h-73v1432h73v-1051l666 678h102z" />
    <glyph glyph-name="l" unicode="l" horiz-adv-x="385" 
d="M156 0v1432h73v-1432h-73z" />
    <glyph glyph-name="m" unicode="m" horiz-adv-x="1757" 
d="M1243 1083q158 0 258.5 -109t100.5 -280v-694h-74v684q0 143 -83 234.5t-212 91.5q-139 0 -228.5 -89t-89.5 -227v-694h-73v684q0 143 -83 234.5t-212 91.5q-139 0 -228.5 -89t-89.5 -227v-694h-73v1059h73v-160q34 85 121.5 134.5t206.5 49.5q117 0 204.5 -61.5
t127.5 -167.5q32 103 129 166t225 63z" />
    <glyph glyph-name="n" unicode="n" 
d="M580 1083q173 0 284 -109.5t111 -279.5v-694h-74v684q0 143 -93 234.5t-239 91.5q-149 0 -243.5 -93.5t-94.5 -240.5v-676h-73v1059h73v-185q40 96 133 152.5t216 56.5z" />
    <glyph glyph-name="o" unicode="o" horiz-adv-x="1292" 
d="M647 -25q-109 0 -210.5 45t-175.5 119.5t-118.5 177t-44.5 213.5q0 148 75 275.5t201.5 202.5t272.5 75q109 0 210.5 -44.5t175 -119t117.5 -176.5t44 -213t-44 -213.5t-117.5 -177.5t-175 -119.5t-210.5 -44.5zM647 49q192 0 332.5 142.5t140.5 338.5q0 128 -64.5 238.5
t-173.5 176t-235 65.5q-127 0 -236.5 -65.5t-174 -176t-64.5 -238.5q0 -129 64.5 -240t174 -176t236.5 -65z" />
    <glyph glyph-name="p" unicode="p" horiz-adv-x="1247" 
d="M662 1083q127 0 236.5 -75t174 -202.5t64.5 -275.5t-64.5 -276t-174 -203.5t-236.5 -75.5q-136 0 -245 65t-173 181v-573h-74v1411h74v-221q64 115 173 180t245 65zM647 49q111 0 207 65t152.5 176t56.5 240q0 128 -56.5 238.5t-152.5 176t-207 65.5q-177 0 -290 -134.5
t-113 -345.5q0 -212 113 -346.5t290 -134.5z" />
    <glyph glyph-name="q" unicode="q" horiz-adv-x="1247" 
d="M1004 1059h73v-1411h-73v573q-64 -116 -173 -181t-245 -65q-127 0 -236.5 75.5t-174 203.5t-64.5 276t64.5 275.5t174 202.5t236.5 75q136 0 245 -65t173 -180v221zM600 49q177 0 290.5 134.5t113.5 346.5q0 211 -113.5 345.5t-290.5 134.5q-111 0 -207 -65.5
t-152.5 -176t-56.5 -238.5q0 -129 56.5 -240t152.5 -176t207 -65z" />
    <glyph glyph-name="r" unicode="r" horiz-adv-x="710" 
d="M244 817q34 114 149 190t260 76v-73q-180 0 -294.5 -117.5t-114.5 -300.5v-592h-74v1059h74v-242z" />
    <glyph glyph-name="s" unicode="s" horiz-adv-x="995" 
d="M530 -25q-113 0 -229 42t-209 116l45 57q93 -66 196.5 -103.5t196.5 -37.5q120 0 206.5 58.5t86.5 138.5q0 89 -71 149t-236 111q-189 58 -270.5 129.5t-81.5 177.5q0 110 103.5 190t246.5 80q93 0 192.5 -31t186.5 -87l-45 -58q-167 103 -334 103q-112 0 -194 -56
t-82 -133q0 -80 73 -138t242 -112q185 -59 264.5 -132t79.5 -185q0 -114 -109 -196.5t-258 -82.5z" />
    <glyph glyph-name="t" unicode="t" horiz-adv-x="737" 
d="M635 102l41 -59q-87 -68 -197 -68q-95 0 -156 76t-61 195v739h-186v74h186v291h74v-291h278v-74h-278v-739q0 -86 41.5 -141.5t105.5 -55.5q83 0 152 53z" />
    <glyph glyph-name="u" unicode="u" 
d="M899 1059h74v-1059h-74v184q-40 -96 -132.5 -152.5t-215.5 -56.5q-173 0 -284 110t-111 280v694h73v-684q0 -143 93 -234.5t239 -91.5q149 0 243.5 93.5t94.5 240.5v676z" />
    <glyph glyph-name="v" unicode="v" horiz-adv-x="1126" 
d="M541 0l-486 1059h80l428 -934l428 934h80l-485 -1059h-45z" />
    <glyph glyph-name="w" unicode="w" horiz-adv-x="1624" 
d="M418 0l-346 1059h75l318 -961l317 961h64l317 -961l318 961h75l-348 -1059h-92l-303 922l-303 -922h-92z" />
    <glyph glyph-name="x" unicode="x" horiz-adv-x="1038" 
d="M973 0h-90l-363 481l-364 -481h-90l409 541l-393 518h90l348 -459l346 459h90l-391 -518z" />
    <glyph glyph-name="y" unicode="y" horiz-adv-x="1161" 
d="M260 -369q-96 0 -168 35l21 76q76 -37 147 -37q70 0 125.5 27.5t83.5 74.5l63 150l-471 1102h80l430 -1008l414 1008h80l-498 -1215q-85 -210 -307 -213z" />
    <glyph glyph-name="z" unicode="z" horiz-adv-x="1052" 
d="M111 0v61l735 924h-723v74h819v-62l-735 -923h739v-74h-835z" />
    <glyph glyph-name="braceleft" unicode="{" horiz-adv-x="802" 
d="M700 -340q-204 23 -292.5 103t-88.5 243v289q0 114 -53.5 163.5t-177.5 49.5v74q124 0 177.5 49.5t53.5 163.5v286q0 163 88.5 243t292.5 103l9 -71q-170 -19 -244 -85t-74 -198l2 -295q0 -103 -33.5 -157t-109.5 -76q76 -23 109.5 -78t33.5 -158l-2 -293q0 -133 74 -199
t244 -85z" />
    <glyph glyph-name="bar" unicode="|" horiz-adv-x="520" 
d="M223 -152v1674h74v-1674h-74z" />
    <glyph glyph-name="braceright" unicode="}" horiz-adv-x="802" 
d="M102 -340l-8 72q170 19 244 85t74 199l-2 293q0 103 33.5 158t109.5 78q-76 22 -109.5 76t-33.5 157l2 295q0 132 -74 198t-244 85l8 71q204 -23 292.5 -103t88.5 -243v-286q0 -114 54 -163.5t178 -49.5v-74q-124 0 -178 -49.5t-54 -163.5v-289q0 -163 -88.5 -243
t-292.5 -103z" />
    <glyph glyph-name="asciitilde" unicode="~" horiz-adv-x="923" 
d="M594 637q-41 0 -80.5 21t-65.5 46.5t-58 46.5t-60 21q-40 0 -70.5 -43t-42.5 -119l-74 15q13 104 63 162.5t124 58.5q41 0 80.5 -21t65.5 -46.5t58 -46.5t60 -21q40 0 70 42.5t43 118.5l73 -14q-14 -105 -62.5 -163t-123.5 -58z" />
    <glyph glyph-name="exclamdown" unicode="&#xa1;" horiz-adv-x="460" 
d="M227 1083q27 0 45.5 -18.5t18.5 -44.5q0 -24 -18.5 -41.5t-45.5 -17.5q-24 0 -41.5 17.5t-17.5 41.5q0 26 17 44.5t42 18.5zM266 664v-1012h-73v1012h73z" />
    <glyph glyph-name="cent" unicode="&#xa2;" horiz-adv-x="1069" 
d="M635 49q173 3 303 133l51 -51q-70 -72 -162 -113.5t-192 -42.5v-127h-74v132q-207 22 -335 173t-128 377q0 225 128.5 376t334.5 173v127h74v-123q100 -1 192 -42t162 -113l-53 -51q-60 61 -138 96.5t-163 36.5v-961zM172 530q0 -192 107.5 -323t281.5 -154v953
q-174 -23 -281.5 -154t-107.5 -322z" />
    <glyph glyph-name="sterling" unicode="&#xa3;" horiz-adv-x="1165" 
d="M281 74h790v-74h-958v37l94 37v493h-94v74h94v307q0 213 118 348.5t304 135.5q142 0 252 -65t166 -181l-52 -45q-47 102 -144 159.5t-222 57.5q-154 0 -251 -115t-97 -295v-307h436v-74h-436v-493z" />
    <glyph glyph-name="yen" unicode="&#xa5;" horiz-adv-x="1294" 
d="M1257 1407l-524 -764h381v-74h-430v-227h430v-74h-430v-268h-74v268h-430v74h430v227h-430v74h381l-524 764h94l516 -752l516 752h94z" />
    <glyph glyph-name="dieresis" unicode="&#xa8;" horiz-adv-x="839" 
d="M223 1255q-26 0 -43.5 18.5t-17.5 43.5t17.5 43t43.5 18q25 0 43.5 -18t18.5 -43t-18.5 -43.5t-43.5 -18.5zM616 1255q-26 0 -43.5 18.5t-17.5 43.5t17.5 43t43.5 18q25 0 43.5 -18t18.5 -43t-18.5 -43.5t-43.5 -18.5z" />
    <glyph glyph-name="macron" unicode="&#xaf;" horiz-adv-x="892" 
d="M129 1235v74h635v-74h-635z" />
    <glyph glyph-name="acute" unicode="&#xb4;" horiz-adv-x="598" 
d="M129 1180l256 290l84 -18l-242 -272h-98z" />
    <glyph glyph-name="cedilla" unicode="&#xb8;" horiz-adv-x="612" 
d="M348 -92q60 0 97.5 -37t37.5 -94q0 -69 -56 -119.5t-132 -50.5q-91 0 -166 57l31 68q60 -51 135 -51q45 0 80 29.5t35 66.5q0 32 -24 52.5t-62 20.5q-41 0 -70 -22l-33 35l68 160h80l-50 -119q20 4 29 4z" />
    <glyph glyph-name="questiondown" unicode="&#xbf;" horiz-adv-x="995" 
d="M535 1083q27 0 45 -18t18 -45q0 -24 -18 -41.5t-45 -17.5q-25 0 -42.5 17.5t-17.5 41.5q0 26 17.5 44.5t42.5 18.5zM573 664v-334q-179 -13 -294 -103t-115 -215q0 -127 94 -219t225 -92q252 0 404 213l53 -51q-190 -236 -461 -236q-158 0 -273.5 112.5t-115.5 266.5
q0 139 115 246.5t295 138.5v273h73z" />
    <glyph glyph-name="Agrave" unicode="&#xc0;" horiz-adv-x="1454" 
d="M780 1528h-98l-242 272l84 19zM1307 0l-158 358h-844l-158 -358h-81l620 1407h82l621 -1407h-82zM338 432h778l-389 883z" />
    <glyph glyph-name="Aacute" unicode="&#xc1;" horiz-adv-x="1454" 
d="M1018 1800l-242 -272h-98l256 291zM1307 0l-158 358h-844l-158 -358h-81l620 1407h82l621 -1407h-82zM338 432h778l-389 883z" />
    <glyph glyph-name="Acircumflex" unicode="&#xc2;" horiz-adv-x="1454" 
d="M727 1745l-172 -217h-90l217 280h90l221 -280h-90zM1307 0l-158 358h-844l-158 -358h-81l620 1407h82l621 -1407h-82zM338 432h778l-389 883z" />
    <glyph glyph-name="Atilde" unicode="&#xc3;" horiz-adv-x="1454" 
d="M594 1683q-40 0 -70.5 -42.5t-42.5 -118.5l-73 14q13 104 62.5 162.5t123.5 58.5q41 0 80.5 -21t65.5 -46.5t58 -46.5t60 -21q40 0 70 43t43 119l73 -15q-14 -105 -62.5 -163t-123.5 -58q-41 0 -80.5 21t-65.5 46.5t-58 46.5t-60 21zM1307 0l-158 358h-844l-158 -358h-81
l620 1407h82l621 -1407h-82zM338 432h778l-389 883z" />
    <glyph glyph-name="Adieresis" unicode="&#xc4;" horiz-adv-x="1454" 
d="M530 1604q-26 0 -43.5 18t-17.5 43t17.5 43t43.5 18q25 0 43.5 -18t18.5 -43t-18.5 -43t-43.5 -18zM924 1604q-26 0 -44 18t-18 43t18 43t44 18q25 0 43 -18t18 -43t-18 -43t-43 -18zM1307 0l-158 358h-844l-158 -358h-81l620 1407h82l621 -1407h-82zM338 432h778
l-389 883z" />
    <glyph glyph-name="Aring" unicode="&#xc5;" horiz-adv-x="1454" 
d="M727 1554q-86 0 -148.5 62.5t-62.5 148.5t62.5 148.5t148.5 62.5t148.5 -62.5t62.5 -148.5t-62.5 -148.5t-148.5 -62.5zM727 1907q-57 0 -99 -42.5t-42 -99.5t42 -99t99 -42t99 42t42 99t-42 99.5t-99 42.5zM1307 0l-158 358h-844l-158 -358h-81l620 1407h82l621 -1407
h-82zM338 432h778l-389 883z" />
    <glyph glyph-name="AE" unicode="&#xc6;" horiz-adv-x="1955" 
d="M1843 1333h-850v-579h787v-74h-787v-606h850v-74h-923v358h-562l-206 -358h-86l813 1407h964v-74zM401 432h519v901z" />
    <glyph glyph-name="Ccedilla" unicode="&#xc7;" horiz-adv-x="1392" 
d="M1333 190q-96 -96 -221.5 -153.5t-261.5 -61.5l-29 -71q20 4 29 4q60 0 97.5 -37t37.5 -94q0 -69 -56 -119.5t-132 -50.5q-91 0 -166 57l31 68q60 -51 135 -51q45 0 79.5 29.5t34.5 66.5q0 32 -24 52.5t-62 20.5q-40 0 -69 -22l-33 35l49 114q-135 11 -258.5 74
t-212.5 160t-142 226t-53 268q0 145 58 279.5t155.5 232.5t230.5 156.5t277 58.5t275 -56.5t231 -158.5l-53 -52q-89 91 -207 142t-246 51q-173 0 -322.5 -89t-237 -239.5t-87.5 -324.5q0 -131 52 -252.5t139 -209.5t207 -141t249 -53t246.5 51.5t206.5 143.5z" />
    <glyph glyph-name="Egrave" unicode="&#xc8;" horiz-adv-x="1198" 
d="M772 1528h-98l-242 272l84 19zM1085 1333h-849v-579h786v-74h-786v-606h849v-74h-923v1407h923v-74z" />
    <glyph glyph-name="Eacute" unicode="&#xc9;" horiz-adv-x="1198" 
d="M817 1800l-242 -272h-98l256 291zM1085 1333h-849v-579h786v-74h-786v-606h849v-74h-923v1407h923v-74z" />
    <glyph glyph-name="Ecircumflex" unicode="&#xca;" horiz-adv-x="1198" 
d="M625 1745l-172 -217h-91l218 280h90l221 -280h-90zM1085 1333h-849v-579h786v-74h-786v-606h849v-74h-923v1407h923v-74z" />
    <glyph glyph-name="Edieresis" unicode="&#xcb;" horiz-adv-x="1198" 
d="M428 1604q-26 0 -43.5 18t-17.5 43t17.5 43t43.5 18q25 0 43 -18t18 -43t-18 -43t-43 -18zM821 1604q-26 0 -43.5 18t-17.5 43t17.5 43t43.5 18q25 0 43.5 -18t18.5 -43t-18.5 -43t-43.5 -18zM1085 1333h-849v-579h786v-74h-786v-606h849v-74h-923v1407h923v-74z" />
    <glyph glyph-name="Igrave" unicode="&#xcc;" horiz-adv-x="397" 
d="M152 1528l-242 272l84 19l256 -291h-98zM162 0v1407h74v-1407h-74z" />
    <glyph glyph-name="Iacute" unicode="&#xcd;" horiz-adv-x="397" 
d="M147 1528l256 291l84 -19l-241 -272h-99zM162 0v1407h74v-1407h-74z" />
    <glyph glyph-name="Icircumflex" unicode="&#xce;" horiz-adv-x="397" 
d="M-63 1528l217 280h90l221 -280h-90l-176 217l-172 -217h-90zM162 0v1407h74v-1407h-74z" />
    <glyph glyph-name="Idieresis" unicode="&#xcf;" horiz-adv-x="397" 
d="M2 1604q-26 0 -43.5 18t-17.5 43t17.5 43t43.5 18q25 0 43 -18t18 -43t-18 -43t-43 -18zM395 1604q-26 0 -43.5 18t-17.5 43t17.5 43t43.5 18q25 0 43.5 -18t18.5 -43t-18.5 -43t-43.5 -18zM162 0v1407h74v-1407h-74z" />
    <glyph glyph-name="Eth" unicode="&#xd0;" horiz-adv-x="1591" 
d="M739 1407q156 0 290 -52t229 -144t148.5 -223t53.5 -283q0 -204 -91.5 -364.5t-256.5 -250.5t-373 -90h-481v680h-172v74h172v653h481zM739 74q187 0 335 80.5t230 224.5t82 326q0 137 -48 253.5t-133 199t-205.5 129t-260.5 46.5h-407v-579h469l-2 -74h-467v-606h407z
" />
    <glyph glyph-name="Ntilde" unicode="&#xd1;" horiz-adv-x="1490" 
d="M877 1548q-41 0 -80.5 21t-66 46.5t-58.5 46.5t-60 21q-40 0 -70 -42.5t-42 -118.5l-74 14q13 104 62.5 162.5t123.5 58.5q41 0 80.5 -21t66 -46.5t58.5 -46.5t60 -21q40 0 69 42.5t43 119.5l74 -15q-14 -105 -62.5 -163t-123.5 -58zM193 0v1407h73l959 -1292v1292h73
v-1407h-73l-959 1292v-1292h-73z" />
    <glyph glyph-name="Ograve" unicode="&#xd2;" horiz-adv-x="1652" 
d="M784 1528l-241 272l84 19l256 -291h-99zM827 -25q-192 0 -358.5 99.5t-264.5 268t-98 362.5q0 145 58 279.5t155.5 232.5t230.5 156.5t277 58.5t277 -58.5t229.5 -156.5t154.5 -232.5t58 -279.5q0 -194 -97.5 -362.5t-263.5 -268t-358 -99.5zM827 49q172 0 321 89
t237 240.5t88 326.5q0 104 -33 203.5t-93.5 180t-140.5 141.5t-178 94.5t-201 33.5q-173 0 -322.5 -89t-237 -239.5t-87.5 -324.5q0 -131 52 -252.5t139 -209.5t207 -141t249 -53z" />
    <glyph glyph-name="Oacute" unicode="&#xd3;" horiz-adv-x="1652" 
d="M776 1528l256 291l84 -19l-242 -272h-98zM827 -25q-192 0 -358.5 99.5t-264.5 268t-98 362.5q0 145 58 279.5t155.5 232.5t230.5 156.5t277 58.5t277 -58.5t229.5 -156.5t154.5 -232.5t58 -279.5q0 -194 -97.5 -362.5t-263.5 -268t-358 -99.5zM827 49q172 0 321 89
t237 240.5t88 326.5q0 104 -33 203.5t-93.5 180t-140.5 141.5t-178 94.5t-201 33.5q-173 0 -322.5 -89t-237 -239.5t-87.5 -324.5q0 -131 52 -252.5t139 -209.5t207 -141t249 -53z" />
    <glyph glyph-name="Ocircumflex" unicode="&#xd4;" horiz-adv-x="1652" 
d="M565 1528l217 280h90l222 -280h-90l-177 217l-172 -217h-90zM827 -25q-192 0 -358.5 99.5t-264.5 268t-98 362.5q0 145 58 279.5t155.5 232.5t230.5 156.5t277 58.5t277 -58.5t229.5 -156.5t154.5 -232.5t58 -279.5q0 -194 -97.5 -362.5t-263.5 -268t-358 -99.5zM827 49
q172 0 321 89t237 240.5t88 326.5q0 104 -33 203.5t-93.5 180t-140.5 141.5t-178 94.5t-201 33.5q-173 0 -322.5 -89t-237 -239.5t-87.5 -324.5q0 -131 52 -252.5t139 -209.5t207 -141t249 -53z" />
    <glyph glyph-name="Otilde" unicode="&#xd5;" horiz-adv-x="1652" 
d="M958 1548q-41 0 -80.5 21t-65.5 46.5t-58 46.5t-60 21q-40 0 -70 -42.5t-42 -118.5l-74 14q13 104 62.5 162.5t123.5 58.5q41 0 80.5 -21t65.5 -46.5t58 -46.5t60 -21q40 0 70 43t43 119l74 -15q-14 -104 -63 -162.5t-124 -58.5zM827 -25q-192 0 -358.5 99.5t-264.5 268
t-98 362.5q0 145 58 279.5t155.5 232.5t230.5 156.5t277 58.5t277 -58.5t229.5 -156.5t154.5 -232.5t58 -279.5q0 -194 -97.5 -362.5t-263.5 -268t-358 -99.5zM827 49q172 0 321 89t237 240.5t88 326.5q0 104 -33 203.5t-93.5 180t-140.5 141.5t-178 94.5t-201 33.5
q-173 0 -322.5 -89t-237 -239.5t-87.5 -324.5q0 -131 52 -252.5t139 -209.5t207 -141t249 -53z" />
    <glyph glyph-name="Odieresis" unicode="&#xd6;" horiz-adv-x="1652" 
d="M631 1604q-26 0 -44 18t-18 43t18 43t44 18q25 0 43 -18t18 -43t-18 -43t-43 -18zM1024 1604q-26 0 -43.5 18t-17.5 43t17.5 43t43.5 18q25 0 43 -18t18 -43t-18 -43t-43 -18zM827 -25q-192 0 -358.5 99.5t-264.5 268t-98 362.5q0 145 58 279.5t155.5 232.5t230.5 156.5
t277 58.5t277 -58.5t229.5 -156.5t154.5 -232.5t58 -279.5q0 -194 -97.5 -362.5t-263.5 -268t-358 -99.5zM827 49q172 0 321 89t237 240.5t88 326.5q0 104 -33 203.5t-93.5 180t-140.5 141.5t-178 94.5t-201 33.5q-173 0 -322.5 -89t-237 -239.5t-87.5 -324.5
q0 -131 52 -252.5t139 -209.5t207 -141t249 -53z" />
    <glyph glyph-name="multiply" unicode="&#xd7;" horiz-adv-x="1054" 
d="M887 991l-307 -307l305 -305l-51 -53l-306 307l-307 -307l-51 53l305 305l-307 307l53 51l307 -305l306 305z" />
    <glyph glyph-name="Oslash" unicode="&#xd8;" horiz-adv-x="1652" 
d="M1329 1221q102 -102 159.5 -236t57.5 -280q0 -194 -97.5 -362.5t-263.5 -268t-358 -99.5q-243 0 -446 162l-119 -137h-98l162 186q-103 102 -161.5 236.5t-58.5 282.5q0 145 58 279.5t155.5 232.5t230.5 156.5t277 58.5q248 0 447 -162l121 137h98zM180 705
q0 -132 51.5 -252t143.5 -213l852 974q-178 144 -400 144q-173 0 -322.5 -89t-237 -239.5t-87.5 -324.5zM827 49q172 0 321 89t237 240.5t88 326.5q0 131 -51 249t-142 211l-850 -975q178 -141 397 -141z" />
    <glyph glyph-name="Ugrave" unicode="&#xd9;" horiz-adv-x="1441" 
d="M770 1528l-242 272l84 19l256 -291h-98zM721 -25q-239 0 -392 159.5t-153 408.5v864h74v-864q0 -217 132 -355.5t339 -138.5t339 138.5t132 355.5v864h74v-864q0 -249 -153 -408.5t-392 -159.5z" />
    <glyph glyph-name="Uacute" unicode="&#xda;" horiz-adv-x="1441" 
d="M573 1528l256 291l84 -19l-241 -272h-99zM721 -25q-239 0 -392 159.5t-153 408.5v864h74v-864q0 -217 132 -355.5t339 -138.5t339 138.5t132 355.5v864h74v-864q0 -249 -153 -408.5t-392 -159.5z" />
    <glyph glyph-name="Ucircumflex" unicode="&#xdb;" horiz-adv-x="1441" 
d="M459 1528l217 280h90l221 -280h-90l-176 217l-172 -217h-90zM721 -25q-239 0 -392 159.5t-153 408.5v864h74v-864q0 -217 132 -355.5t339 -138.5t339 138.5t132 355.5v864h74v-864q0 -249 -153 -408.5t-392 -159.5z" />
    <glyph glyph-name="Udieresis" unicode="&#xdc;" horiz-adv-x="1441" 
d="M524 1604q-26 0 -43.5 18t-17.5 43t17.5 43t43.5 18q25 0 43.5 -18t18.5 -43t-18.5 -43t-43.5 -18zM918 1604q-26 0 -44 18t-18 43t18 43t44 18q25 0 43 -18t18 -43t-18 -43t-43 -18zM721 -25q-239 0 -392 159.5t-153 408.5v864h74v-864q0 -217 132 -355.5t339 -138.5
t339 138.5t132 355.5v864h74v-864q0 -249 -153 -408.5t-392 -159.5z" />
    <glyph glyph-name="Yacute" unicode="&#xdd;" horiz-adv-x="1294" 
d="M500 1528l256 291l84 -19l-242 -272h-98zM610 0v571l-573 836h94l516 -752l516 752h94l-573 -836v-571h-74z" />
    <glyph glyph-name="Thorn" unicode="&#xde;" horiz-adv-x="1308" 
d="M162 0v1407h74v-268h518q214 0 350.5 -120.5t136.5 -309.5t-136.5 -309.5t-350.5 -120.5h-518v-279h-74zM236 352h503q188 0 308 100t120 257t-120 256.5t-308 99.5h-503v-713z" />
    <glyph glyph-name="germandbls" unicode="&#xdf;" horiz-adv-x="1093" 
d="M172 0v1071q0 154 114 265.5t271 111.5q156 0 269.5 -111t113.5 -264q0 -106 -50 -197t-128 -128q103 -44 168 -144t65 -213q0 -160 -111 -275.5t-263 -115.5h-199v74h158q140 0 241 97t101 230q0 132 -97.5 216.5t-251.5 84.5h-151v74h139q134 0 219.5 80.5t85.5 206.5
q0 127 -91.5 219t-217.5 92q-127 0 -219 -93t-92 -222v-1059h-74z" />
    <glyph glyph-name="agrave" unicode="&#xe0;" horiz-adv-x="1134" 
d="M739 1180h-98l-242 272l84 18zM569 1083q188 0 298 -121.5t110 -316.5v-645h-74v172q-59 -91 -178.5 -144t-241.5 -53q-165 0 -273 95t-108 245q0 155 117.5 253t308.5 98q170 0 375 -74v53q0 70 -19 132.5t-58 116t-107.5 85t-159.5 31.5q-170 0 -323 -92l-31 63
q176 102 364 102zM492 49q85 0 169 30t153.5 96.5t88.5 156.5v186q-218 74 -366 74q-160 0 -260.5 -77t-100.5 -198q0 -117 91 -192.5t225 -75.5z" />
    <glyph glyph-name="aacute" unicode="&#xe1;" horiz-adv-x="1134" 
d="M784 1452l-241 -272h-99l256 290zM569 1083q188 0 298 -121.5t110 -316.5v-645h-74v172q-59 -91 -178.5 -144t-241.5 -53q-165 0 -273 95t-108 245q0 155 117.5 253t308.5 98q170 0 375 -74v53q0 70 -19 132.5t-58 116t-107.5 85t-159.5 31.5q-170 0 -323 -92l-31 63
q176 102 364 102zM492 49q85 0 169 30t153.5 96.5t88.5 156.5v186q-218 74 -366 74q-160 0 -260.5 -77t-100.5 -198q0 -117 91 -192.5t225 -75.5z" />
    <glyph glyph-name="acircumflex" unicode="&#xe2;" horiz-adv-x="1134" 
d="M592 1397l-172 -217h-90l217 280h90l221 -280h-90zM569 1083q188 0 298 -121.5t110 -316.5v-645h-74v172q-59 -91 -178.5 -144t-241.5 -53q-165 0 -273 95t-108 245q0 155 117.5 253t308.5 98q170 0 375 -74v53q0 70 -19 132.5t-58 116t-107.5 85t-159.5 31.5
q-170 0 -323 -92l-31 63q176 102 364 102zM492 49q85 0 169 30t153.5 96.5t88.5 156.5v186q-218 74 -366 74q-160 0 -260.5 -77t-100.5 -198q0 -117 91 -192.5t225 -75.5z" />
    <glyph glyph-name="atilde" unicode="&#xe3;" horiz-adv-x="1134" 
d="M459 1335q-40 0 -70.5 -42.5t-42.5 -118.5l-74 14q13 104 63 162.5t124 58.5q41 0 80.5 -21t65.5 -46.5t58 -46.5t60 -21q40 0 70 43t43 119l73 -15q-14 -105 -62.5 -163t-123.5 -58q-41 0 -80.5 21t-65.5 46.5t-58 46.5t-60 21zM569 1083q188 0 298 -121.5t110 -316.5
v-645h-74v172q-59 -91 -178.5 -144t-241.5 -53q-165 0 -273 95t-108 245q0 155 117.5 253t308.5 98q170 0 375 -74v53q0 70 -19 132.5t-58 116t-107.5 85t-159.5 31.5q-170 0 -323 -92l-31 63q176 102 364 102zM492 49q85 0 169 30t153.5 96.5t88.5 156.5v186
q-218 74 -366 74q-160 0 -260.5 -77t-100.5 -198q0 -117 91 -192.5t225 -75.5z" />
    <glyph glyph-name="adieresis" unicode="&#xe4;" horiz-adv-x="1134" 
d="M395 1255q-26 0 -43.5 18.5t-17.5 43.5t17.5 43t43.5 18q25 0 43.5 -18t18.5 -43t-18.5 -43.5t-43.5 -18.5zM788 1255q-26 0 -43.5 18.5t-17.5 43.5t17.5 43t43.5 18q25 0 43.5 -18t18.5 -43t-18.5 -43.5t-43.5 -18.5zM569 1083q188 0 298 -121.5t110 -316.5v-645h-74
v172q-59 -91 -178.5 -144t-241.5 -53q-165 0 -273 95t-108 245q0 155 117.5 253t308.5 98q170 0 375 -74v53q0 70 -19 132.5t-58 116t-107.5 85t-159.5 31.5q-170 0 -323 -92l-31 63q176 102 364 102zM492 49q85 0 169 30t153.5 96.5t88.5 156.5v186q-218 74 -366 74
q-160 0 -260.5 -77t-100.5 -198q0 -117 91 -192.5t225 -75.5z" />
    <glyph glyph-name="aring" unicode="&#xe5;" horiz-adv-x="1134" 
d="M592 1206q-86 0 -148.5 62.5t-62.5 148.5t62.5 148.5t148.5 62.5t148.5 -62.5t62.5 -148.5t-62.5 -148.5t-148.5 -62.5zM592 1559q-57 0 -99 -42.5t-42 -99.5t42 -99t99 -42t99 42t42 99t-42 99.5t-99 42.5zM569 1083q188 0 298 -121.5t110 -316.5v-645h-74v172
q-59 -91 -178.5 -144t-241.5 -53q-165 0 -273 95t-108 245q0 155 117.5 253t308.5 98q170 0 375 -74v53q0 70 -19 132.5t-58 116t-107.5 85t-159.5 31.5q-170 0 -323 -92l-31 63q176 102 364 102zM492 49q85 0 169 30t153.5 96.5t88.5 156.5v186q-218 74 -366 74
q-160 0 -260.5 -77t-100.5 -198q0 -117 91 -192.5t225 -75.5z" />
    <glyph glyph-name="ae" unicode="&#xe6;" horiz-adv-x="2023" 
d="M1423 49q117 0 222.5 38t169.5 108l51 -56q-66 -72 -190.5 -118t-252.5 -46q-150 0 -276.5 88t-190.5 230q-45 -146 -165.5 -232t-286.5 -86q-177 0 -289.5 95.5t-112.5 244.5q0 155 117.5 253t308.5 98q170 0 375 -74v53q0 70 -19 132.5t-58 116t-107.5 85t-159.5 31.5
q-170 0 -323 -92l-31 63q176 102 364 102q151 0 253.5 -80t138.5 -217q64 136 187 216.5t275 80.5q227 0 365.5 -161.5t138.5 -425.5h-948q8 -121 70 -224t161.5 -163t212.5 -60zM1423 1010q-178 0 -305 -127t-139 -314h874q-9 199 -126 320t-304 121zM512 49
q172 0 281.5 110.5t109.5 282.5v76q-218 74 -366 74q-160 0 -260.5 -77t-100.5 -198q0 -118 94 -193t242 -75z" />
    <glyph glyph-name="ccedilla" unicode="&#xe7;" horiz-adv-x="1069" 
d="M627 49q178 0 311 133l51 -51q-67 -69 -155.5 -110.5t-184.5 -45.5l-28 -71q20 4 28 4q60 0 97.5 -37t37.5 -94q0 -69 -56 -119.5t-132 -50.5q-91 0 -166 57l31 68q60 -51 135 -51q45 0 80 29.5t35 66.5q0 32 -24 52.5t-62 20.5q-41 0 -70 -22l-33 35l49 114
q-211 20 -342 172.5t-131 380.5q0 243 148.5 398t380.5 155q103 0 196.5 -41t165.5 -114l-53 -51q-130 133 -309 133q-200 0 -327.5 -134.5t-127.5 -345.5q0 -212 127.5 -346.5t327.5 -134.5z" />
    <glyph glyph-name="egrave" unicode="&#xe8;" horiz-adv-x="1218" 
d="M766 1180h-98l-242 272l84 18zM618 49q117 0 222.5 38t169.5 108l51 -56q-66 -72 -190.5 -118t-252.5 -46q-139 0 -259 75.5t-190.5 204t-70.5 277.5q0 152 69 278.5t188.5 199.5t262.5 73q227 0 365.5 -161.5t138.5 -425.5h-948q8 -121 70 -224t161.5 -163t212.5 -60z
M618 1010q-178 0 -305 -127t-139 -314h875q-9 199 -126.5 320t-304.5 121z" />
    <glyph glyph-name="eacute" unicode="&#xe9;" horiz-adv-x="1218" 
d="M811 1452l-242 -272h-98l256 290zM618 49q117 0 222.5 38t169.5 108l51 -56q-66 -72 -190.5 -118t-252.5 -46q-139 0 -259 75.5t-190.5 204t-70.5 277.5q0 152 69 278.5t188.5 199.5t262.5 73q227 0 365.5 -161.5t138.5 -425.5h-948q8 -121 70 -224t161.5 -163t212.5 -60
zM618 1010q-178 0 -305 -127t-139 -314h875q-9 199 -126.5 320t-304.5 121z" />
    <glyph glyph-name="ecircumflex" unicode="&#xea;" horiz-adv-x="1218" 
d="M618 1397l-172 -217h-90l217 280h91l221 -280h-90zM618 49q117 0 222.5 38t169.5 108l51 -56q-66 -72 -190.5 -118t-252.5 -46q-139 0 -259 75.5t-190.5 204t-70.5 277.5q0 152 69 278.5t188.5 199.5t262.5 73q227 0 365.5 -161.5t138.5 -425.5h-948q8 -121 70 -224
t161.5 -163t212.5 -60zM618 1010q-178 0 -305 -127t-139 -314h875q-9 199 -126.5 320t-304.5 121z" />
    <glyph glyph-name="edieresis" unicode="&#xeb;" horiz-adv-x="1218" 
d="M422 1255q-26 0 -44 18.5t-18 43.5t18 43t44 18q25 0 43 -18t18 -43t-18 -43.5t-43 -18.5zM815 1255q-26 0 -43.5 18.5t-17.5 43.5t17.5 43t43.5 18q25 0 43.5 -18t18.5 -43t-18.5 -43.5t-43.5 -18.5zM618 49q117 0 222.5 38t169.5 108l51 -56q-66 -72 -190.5 -118
t-252.5 -46q-139 0 -259 75.5t-190.5 204t-70.5 277.5q0 152 69 278.5t188.5 199.5t262.5 73q227 0 365.5 -161.5t138.5 -425.5h-948q8 -121 70 -224t161.5 -163t212.5 -60zM618 1010q-178 0 -305 -127t-139 -314h875q-9 199 -126.5 320t-304.5 121z" />
    <glyph glyph-name="igrave" unicode="&#xec;" horiz-adv-x="380" 
d="M143 1180l-241 272l84 18l256 -290h-99zM154 0v1059h73v-1059h-73z" />
    <glyph glyph-name="iacute" unicode="&#xed;" horiz-adv-x="380" 
d="M137 1180l256 290l84 -18l-241 -272h-99zM154 0v1059h73v-1059h-73z" />
    <glyph glyph-name="icircumflex" unicode="&#xee;" horiz-adv-x="380" 
d="M-72 1180l217 280h91l221 -280h-90l-177 217l-172 -217h-90zM154 0v1059h73v-1059h-73z" />
    <glyph glyph-name="idieresis" unicode="&#xef;" horiz-adv-x="380" 
d="M-6 1255q-26 0 -44 18.5t-18 43.5t18 43t44 18q25 0 43 -18t18 -43t-18 -43.5t-43 -18.5zM387 1255q-26 0 -43.5 18.5t-17.5 43.5t17.5 43t43.5 18q25 0 43.5 -18t18.5 -43t-18.5 -43.5t-43.5 -18.5zM154 0v1059h73v-1059h-73z" />
    <glyph glyph-name="eth" unicode="&#xf0;" horiz-adv-x="1251" 
d="M739 1264q178 -162 283.5 -353t105.5 -389q0 -240 -140 -393.5t-361 -153.5t-362.5 148.5t-141.5 380.5t141.5 379t362.5 147q230 0 364 -182q-106 199 -321 385l-260 -117l-31 68l225 100q-90 73 -201 141l68 35q99 -57 207 -143l192 86l31 -68zM625 49q189 0 309.5 129
t120.5 332q0 198 -118 322t-310 124q-189 0 -309.5 -127t-120.5 -327q0 -198 120.5 -325.5t307.5 -127.5z" />
    <glyph glyph-name="ntilde" unicode="&#xf1;" 
d="M428 1335q-40 0 -70.5 -42.5t-42.5 -118.5l-73 14q13 104 62.5 162.5t123.5 58.5q41 0 80.5 -21t65.5 -46.5t58 -46.5t60 -21q40 0 70 43t43 119l74 -15q-14 -104 -63 -162.5t-124 -58.5q-41 0 -80.5 21t-65.5 46.5t-58 46.5t-60 21zM580 1083q173 0 284 -109.5
t111 -279.5v-694h-74v684q0 143 -93 234.5t-239 91.5q-149 0 -243.5 -93.5t-94.5 -240.5v-676h-73v1059h73v-185q40 96 133 152.5t216 56.5z" />
    <glyph glyph-name="ograve" unicode="&#xf2;" horiz-adv-x="1292" 
d="M682 1180l-242 272l84 18l256 -290h-98zM647 -25q-109 0 -210.5 45t-175.5 119.5t-118.5 177t-44.5 213.5q0 148 75 275.5t201.5 202.5t272.5 75q109 0 210.5 -44.5t175 -119t117.5 -176.5t44 -213t-44 -213.5t-117.5 -177.5t-175 -119.5t-210.5 -44.5zM647 49
q192 0 332.5 142.5t140.5 338.5q0 128 -64.5 238.5t-173.5 176t-235 65.5q-127 0 -236.5 -65.5t-174 -176t-64.5 -238.5q0 -129 64.5 -240t174 -176t236.5 -65z" />
    <glyph glyph-name="oacute" unicode="&#xf3;" horiz-adv-x="1292" 
d="M496 1180l256 290l84 -18l-242 -272h-98zM647 -25q-109 0 -210.5 45t-175.5 119.5t-118.5 177t-44.5 213.5q0 148 75 275.5t201.5 202.5t272.5 75q109 0 210.5 -44.5t175 -119t117.5 -176.5t44 -213t-44 -213.5t-117.5 -177.5t-175 -119.5t-210.5 -44.5zM647 49
q192 0 332.5 142.5t140.5 338.5q0 128 -64.5 238.5t-173.5 176t-235 65.5q-127 0 -236.5 -65.5t-174 -176t-64.5 -238.5q0 -129 64.5 -240t174 -176t236.5 -65z" />
    <glyph glyph-name="ocircumflex" unicode="&#xf4;" horiz-adv-x="1292" 
d="M385 1180l217 280h90l221 -280h-90l-176 217l-172 -217h-90zM647 -25q-109 0 -210.5 45t-175.5 119.5t-118.5 177t-44.5 213.5q0 148 75 275.5t201.5 202.5t272.5 75q109 0 210.5 -44.5t175 -119t117.5 -176.5t44 -213t-44 -213.5t-117.5 -177.5t-175 -119.5
t-210.5 -44.5zM647 49q192 0 332.5 142.5t140.5 338.5q0 128 -64.5 238.5t-173.5 176t-235 65.5q-127 0 -236.5 -65.5t-174 -176t-64.5 -238.5q0 -129 64.5 -240t174 -176t236.5 -65z" />
    <glyph glyph-name="otilde" unicode="&#xf5;" horiz-adv-x="1292" 
d="M778 1200q-41 0 -80.5 21t-65.5 46.5t-58 46.5t-60 21q-40 0 -70.5 -42.5t-42.5 -118.5l-73 14q13 104 62.5 162.5t123.5 58.5q41 0 80.5 -21t65.5 -46.5t58 -46.5t60 -21q40 0 70 43t43 119l74 -15q-14 -104 -63 -162.5t-124 -58.5zM647 -25q-109 0 -210.5 45
t-175.5 119.5t-118.5 177t-44.5 213.5q0 148 75 275.5t201.5 202.5t272.5 75q109 0 210.5 -44.5t175 -119t117.5 -176.5t44 -213t-44 -213.5t-117.5 -177.5t-175 -119.5t-210.5 -44.5zM647 49q192 0 332.5 142.5t140.5 338.5q0 128 -64.5 238.5t-173.5 176t-235 65.5
q-127 0 -236.5 -65.5t-174 -176t-64.5 -238.5q0 -129 64.5 -240t174 -176t236.5 -65z" />
    <glyph glyph-name="odieresis" unicode="&#xf6;" horiz-adv-x="1292" 
d="M451 1255q-26 0 -44 18.5t-18 43.5t18 43t44 18q25 0 43 -18t18 -43t-18 -43.5t-43 -18.5zM844 1255q-26 0 -44 18.5t-18 43.5t18 43t44 18q25 0 43 -18t18 -43t-18 -43.5t-43 -18.5zM647 -25q-109 0 -210.5 45t-175.5 119.5t-118.5 177t-44.5 213.5q0 148 75 275.5
t201.5 202.5t272.5 75q109 0 210.5 -44.5t175 -119t117.5 -176.5t44 -213t-44 -213.5t-117.5 -177.5t-175 -119.5t-210.5 -44.5zM647 49q192 0 332.5 142.5t140.5 338.5q0 128 -64.5 238.5t-173.5 176t-235 65.5q-127 0 -236.5 -65.5t-174 -176t-64.5 -238.5
q0 -129 64.5 -240t174 -176t236.5 -65z" />
    <glyph glyph-name="divide" unicode="&#xf7;" horiz-adv-x="1214" 
d="M610 954q-27 0 -45 18.5t-18 45.5q0 24 18 41.5t45 17.5q24 0 42 -17.5t18 -41.5q0 -26 -17.5 -45t-42.5 -19zM137 647v74h940v-74h-940zM610 291q-27 0 -45 18t-18 45q0 24 18 42t45 18q24 0 42 -18t18 -42q0 -26 -17.5 -44.5t-42.5 -18.5z" />
    <glyph glyph-name="oslash" unicode="&#xf8;" horiz-adv-x="1292" 
d="M1032 920q76 -76 119 -177.5t43 -212.5t-44 -213.5t-117.5 -177.5t-175 -119.5t-210.5 -44.5q-179 0 -325 111l-74 -86h-98l116 135q-78 78 -123 181t-45 214q0 148 75 275.5t201.5 202.5t272.5 75q184 0 330 -114l76 90h98zM172 530q0 -96 37.5 -184t103.5 -156l615 723
q-128 97 -281 97q-127 0 -236.5 -65.5t-174 -176t-64.5 -238.5zM647 49q192 0 332.5 142.5t140.5 338.5q0 94 -36.5 180t-100.5 152l-614 -719q127 -94 278 -94z" />
    <glyph glyph-name="ugrave" unicode="&#xf9;" 
d="M694 1180h-98l-242 272l84 18zM899 1059h74v-1059h-74v184q-40 -96 -132.5 -152.5t-215.5 -56.5q-173 0 -284 110t-111 280v694h73v-684q0 -143 93 -234.5t239 -91.5q149 0 243.5 93.5t94.5 240.5v676z" />
    <glyph glyph-name="uacute" unicode="&#xfa;" 
d="M756 1452l-242 -272h-98l256 290zM899 1059h74v-1059h-74v184q-40 -96 -132.5 -152.5t-215.5 -56.5q-173 0 -284 110t-111 280v694h73v-684q0 -143 93 -234.5t239 -91.5q149 0 243.5 93.5t94.5 240.5v676z" />
    <glyph glyph-name="ucircumflex" unicode="&#xfb;" 
d="M563 1397l-172 -217h-90l217 280h90l221 -280h-90zM899 1059h74v-1059h-74v184q-40 -96 -132.5 -152.5t-215.5 -56.5q-173 0 -284 110t-111 280v694h73v-684q0 -143 93 -234.5t239 -91.5q149 0 243.5 93.5t94.5 240.5v676z" />
    <glyph glyph-name="udieresis" unicode="&#xfc;" 
d="M367 1255q-26 0 -44 18.5t-18 43.5t18 43t44 18q25 0 43 -18t18 -43t-18 -43.5t-43 -18.5zM760 1255q-26 0 -44 18.5t-18 43.5t18 43t44 18q25 0 43 -18t18 -43t-18 -43.5t-43 -18.5zM899 1059h74v-1059h-74v184q-40 -96 -132.5 -152.5t-215.5 -56.5q-173 0 -284 110
t-111 280v694h73v-684q0 -143 93 -234.5t239 -91.5q149 0 243.5 93.5t94.5 240.5v676z" />
    <glyph glyph-name="yacute" unicode="&#xfd;" horiz-adv-x="1161" 
d="M424 1180l256 290l84 -18l-242 -272h-98zM260 -369q-96 0 -168 35l21 76q76 -37 147 -37q70 0 125.5 27.5t83.5 74.5l63 150l-471 1102h80l430 -1008l414 1008h80l-498 -1215q-85 -210 -307 -213z" />
    <glyph glyph-name="thorn" unicode="&#xfe;" horiz-adv-x="1247" 
d="M662 1083q127 0 236.5 -75t174 -202.5t64.5 -275.5t-64.5 -276t-174 -203.5t-236.5 -75.5q-136 0 -245 65t-173 181v-573h-74v1784h74v-594q64 115 173 180t245 65zM647 49q111 0 207 65t152.5 176t56.5 240q0 128 -56.5 238.5t-152.5 176t-207 65.5q-177 0 -290 -134.5
t-113 -345.5q0 -212 113 -346.5t290 -134.5z" />
    <glyph glyph-name="ydieresis" unicode="&#xff;" horiz-adv-x="1161" 
d="M375 1255q-26 0 -44 18.5t-18 43.5t18 43t44 18q25 0 43 -18t18 -43t-18 -43.5t-43 -18.5zM768 1255q-26 0 -43.5 18.5t-17.5 43.5t17.5 43t43.5 18q25 0 43 -18t18 -43t-18 -43.5t-43 -18.5zM260 -369q-96 0 -168 35l21 76q76 -37 147 -37q70 0 125.5 27.5t83.5 74.5
l63 150l-471 1102h80l430 -1008l414 1008h80l-498 -1215q-85 -210 -307 -213z" />
    <glyph glyph-name="Amacron" unicode="&#x100;" horiz-adv-x="1454" 
d="M1044 1657v-74h-634v74h634zM1307 0l-158 358h-844l-158 -358h-81l620 1407h82l621 -1407h-82zM338 432h778l-389 883z" />
    <glyph glyph-name="amacron" unicode="&#x101;" horiz-adv-x="1134" 
d="M909 1309v-74h-635v74h635zM569 1083q188 0 298 -121.5t110 -316.5v-645h-74v172q-59 -91 -178.5 -144t-241.5 -53q-165 0 -273 95t-108 245q0 155 117.5 253t308.5 98q170 0 375 -74v53q0 70 -19 132.5t-58 116t-107.5 85t-159.5 31.5q-170 0 -323 -92l-31 63
q176 102 364 102zM492 49q85 0 169 30t153.5 96.5t88.5 156.5v186q-218 74 -366 74q-160 0 -260.5 -77t-100.5 -198q0 -117 91 -192.5t225 -75.5z" />
    <glyph glyph-name="Abreve" unicode="&#x102;" horiz-adv-x="1454" 
d="M1026 1677q-123 -123 -299 -123q-173 0 -299 123l53 54q101 -101 246 -101t246 101zM1307 0l-158 358h-844l-158 -358h-81l620 1407h82l621 -1407h-82zM338 432h778l-389 883z" />
    <glyph glyph-name="abreve" unicode="&#x103;" horiz-adv-x="1134" 
d="M891 1329q-123 -123 -299 -123q-173 0 -299 123l53 53q100 -100 246 -100t246 100zM569 1083q188 0 298 -121.5t110 -316.5v-645h-74v172q-59 -91 -178.5 -144t-241.5 -53q-165 0 -273 95t-108 245q0 155 117.5 253t308.5 98q170 0 375 -74v53q0 70 -19 132.5t-58 116
t-107.5 85t-159.5 31.5q-170 0 -323 -92l-31 63q176 102 364 102zM492 49q85 0 169 30t153.5 96.5t88.5 156.5v186q-218 74 -366 74q-160 0 -260.5 -77t-100.5 -198q0 -117 91 -192.5t225 -75.5z" />
    <glyph glyph-name="Aogonek" unicode="&#x104;" horiz-adv-x="1454" 
d="M1509 -233l41 -62q-72 -59 -172 -59q-89 0 -145.5 56.5t-56.5 147.5q0 62 31.5 110.5t84.5 70.5l-143 327h-844l-158 -358h-81l620 1407h82l621 -1407q-66 0 -103 -38t-37 -105q0 -65 37 -101.5t103 -36.5q75 0 120 48zM338 432h778l-389 883z" />
    <glyph glyph-name="aogonek" unicode="&#x105;" horiz-adv-x="1134" 
d="M1098 -233l41 -62q-72 -59 -172 -59q-89 0 -146 57t-57 147q0 69 38 120.5t101 68.5v133q-59 -91 -178.5 -144t-241.5 -53q-165 0 -273 95t-108 245q0 155 117.5 253t308.5 98q170 0 375 -74v53q0 70 -19 132.5t-58 116t-107.5 85t-159.5 31.5q-170 0 -323 -92l-31 63
q176 102 364 102t298 -121.5t110 -316.5v-645q-66 0 -102.5 -37.5t-36.5 -105.5q0 -65 36.5 -101.5t102.5 -36.5q76 0 121 48zM492 49q85 0 169 30t153.5 96.5t88.5 156.5v186q-218 74 -366 74q-160 0 -260.5 -77t-100.5 -198q0 -117 91 -192.5t225 -75.5z" />
    <glyph glyph-name="Cacute" unicode="&#x106;" horiz-adv-x="1392" 
d="M659 1528l256 291l84 -19l-241 -272h-99zM827 -25q-192 0 -358.5 99.5t-264.5 268t-98 362.5q0 145 58 279.5t155.5 232.5t230.5 156.5t277 58.5t275 -56.5t231 -158.5l-53 -52q-89 91 -207 142t-246 51q-173 0 -322.5 -89t-237 -239.5t-87.5 -324.5q0 -131 52 -252.5
t139 -209.5t207 -141t249 -53t246.5 51.5t206.5 143.5l53 -54q-101 -101 -232 -158t-274 -57z" />
    <glyph glyph-name="cacute" unicode="&#x107;" horiz-adv-x="1069" 
d="M442 1180l256 290l84 -18l-241 -272h-99zM627 -25q-232 0 -380.5 155.5t-148.5 399.5q0 243 148.5 398t380.5 155q103 0 196.5 -41t165.5 -114l-53 -51q-130 133 -309 133q-200 0 -327.5 -134.5t-127.5 -345.5q0 -212 127.5 -346.5t327.5 -134.5q178 0 311 133l51 -51
q-72 -73 -166 -114.5t-196 -41.5z" />
    <glyph glyph-name="Ccaron" unicode="&#x10c;" horiz-adv-x="1392" 
d="M762 1528l-217 280h90l172 -217l176 217h90l-221 -280h-90zM827 -25q-192 0 -358.5 99.5t-264.5 268t-98 362.5q0 145 58 279.5t155.5 232.5t230.5 156.5t277 58.5t275 -56.5t231 -158.5l-53 -52q-89 91 -207 142t-246 51q-173 0 -322.5 -89t-237 -239.5t-87.5 -324.5
q0 -131 52 -252.5t139 -209.5t207 -141t249 -53t246.5 51.5t206.5 143.5l53 -54q-101 -101 -232 -158t-274 -57z" />
    <glyph glyph-name="ccaron" unicode="&#x10d;" horiz-adv-x="1069" 
d="M545 1180l-217 280h90l172 -217l176 217h90l-221 -280h-90zM627 -25q-232 0 -380.5 155.5t-148.5 399.5q0 243 148.5 398t380.5 155q103 0 196.5 -41t165.5 -114l-53 -51q-130 133 -309 133q-200 0 -327.5 -134.5t-127.5 -345.5q0 -212 127.5 -346.5t327.5 -134.5
q178 0 311 133l51 -51q-72 -73 -166 -114.5t-196 -41.5z" />
    <glyph glyph-name="Dcaron" unicode="&#x10e;" horiz-adv-x="1525" 
d="M629 1528l-217 280h90l172 -217l176 217h90l-221 -280h-90zM193 0v1407h481q156 0 290 -52t229 -144t148.5 -223t53.5 -283q0 -204 -91.5 -364.5t-256.5 -250.5t-373 -90h-481zM266 74h408q187 0 335 80.5t230 224.5t82 326q0 137 -48 253.5t-133 199t-205.5 129
t-260.5 46.5h-408v-1259z" />
    <glyph glyph-name="dcaron" unicode="&#x10f;" horiz-adv-x="1247" 
d="M1004 838v594h73v-1432h-73v221q-64 -116 -173 -181t-245 -65q-127 0 -236.5 75.5t-174 203.5t-64.5 276t64.5 275.5t174 202.5t236.5 75q136 0 245 -65t173 -180zM1292 1432q30 0 48 -22.5t18 -63.5q0 -110 -119 -265l-53 39q83 96 106 189q-29 0 -46 17t-17 44
q0 26 17.5 44t45.5 18zM600 49q177 0 290.5 134.5t113.5 346.5q0 211 -113.5 345.5t-290.5 134.5q-111 0 -207 -65.5t-152.5 -176t-56.5 -238.5q0 -129 56.5 -240t152.5 -176t207 -65z" />
    <glyph glyph-name="Dcroat" unicode="&#x110;" horiz-adv-x="1591" 
d="M739 1407q156 0 290 -52t229 -144t148.5 -223t53.5 -283q0 -204 -91.5 -364.5t-256.5 -250.5t-373 -90h-481v680h-172v74h172v653h481zM739 74q187 0 335 80.5t230 224.5t82 326q0 137 -48 253.5t-133 199t-205.5 129t-260.5 46.5h-407v-579h469l-2 -74h-467v-606h407z
" />
    <glyph glyph-name="dcroat" unicode="&#x111;" horiz-adv-x="1284" 
d="M1208 1286v-74h-131v-1212h-73v221q-64 -116 -173 -181t-245 -65q-127 0 -236.5 75.5t-174 203.5t-64.5 276t64.5 275.5t174 202.5t236.5 75q136 0 245 -65t173 -180v374h-390v74h390v146h73v-146h131zM600 49q177 0 290.5 134.5t113.5 346.5q0 211 -113.5 345.5
t-290.5 134.5q-111 0 -207 -65.5t-152.5 -176t-56.5 -238.5q0 -129 56.5 -240t152.5 -176t207 -65z" />
    <glyph glyph-name="Emacron" unicode="&#x112;" horiz-adv-x="1198" 
d="M942 1657v-74h-635v74h635zM1085 1333h-849v-579h786v-74h-786v-606h849v-74h-923v1407h923v-74z" />
    <glyph glyph-name="emacron" unicode="&#x113;" horiz-adv-x="1218" 
d="M936 1309v-74h-635v74h635zM618 49q117 0 222.5 38t169.5 108l51 -56q-66 -72 -190.5 -118t-252.5 -46q-139 0 -259 75.5t-190.5 204t-70.5 277.5q0 152 69 278.5t188.5 199.5t262.5 73q227 0 365.5 -161.5t138.5 -425.5h-948q8 -121 70 -224t161.5 -163t212.5 -60z
M618 1010q-178 0 -305 -127t-139 -314h875q-9 199 -126.5 320t-304.5 121z" />
    <glyph glyph-name="Edotaccent" unicode="&#x116;" horiz-adv-x="1198" 
d="M625 1604q-26 0 -44 18t-18 43t18 43t44 18q25 0 43 -18t18 -43t-18 -43t-43 -18zM1085 1333h-849v-579h786v-74h-786v-606h849v-74h-923v1407h923v-74z" />
    <glyph glyph-name="edotaccent" unicode="&#x117;" horiz-adv-x="1218" 
d="M618 1255q-26 0 -43.5 18.5t-17.5 43.5t17.5 43t43.5 18q25 0 43.5 -18t18.5 -43t-18.5 -43.5t-43.5 -18.5zM618 49q117 0 222.5 38t169.5 108l51 -56q-66 -72 -190.5 -118t-252.5 -46q-139 0 -259 75.5t-190.5 204t-70.5 277.5q0 152 69 278.5t188.5 199.5t262.5 73
q227 0 365.5 -161.5t138.5 -425.5h-948q8 -121 70 -224t161.5 -163t212.5 -60zM618 1010q-178 0 -305 -127t-139 -314h875q-9 199 -126.5 320t-304.5 121z" />
    <glyph glyph-name="Eogonek" unicode="&#x118;" horiz-adv-x="1198" 
d="M1085 1333h-849v-579h786v-74h-786v-606h849v-74h-161q-66 0 -103 -38t-37 -105q0 -65 37 -101.5t103 -36.5q75 0 120 48l41 -62q-72 -59 -172 -59q-89 0 -145.5 56.5t-56.5 147.5q0 95 65 150h-614v1407h923v-74z" />
    <glyph glyph-name="eogonek" unicode="&#x119;" horiz-adv-x="1218" 
d="M801 0q-41 -38 -41 -111q0 -65 36.5 -101t102.5 -36q77 0 121 47l41 -61q-73 -60 -172 -60q-89 0 -146 57t-57 148q0 54 25 99q-54 -7 -93 -7q-139 0 -259 75.5t-190.5 204t-70.5 277.5q0 152 69 278.5t188.5 199.5t262.5 73q227 0 365.5 -161.5t138.5 -425.5h-948
q8 -121 70 -224t161.5 -163t212.5 -60q117 0 222.5 38t169.5 108l51 -56q-42 -45 -111 -82t-149 -57zM618 1010q-178 0 -305 -127t-139 -314h875q-9 199 -126.5 320t-304.5 121z" />
    <glyph glyph-name="Ecaron" unicode="&#x11a;" horiz-adv-x="1198" 
d="M670 1528h-90l-218 280h91l172 -217l176 217h90zM1085 1333h-849v-579h786v-74h-786v-606h849v-74h-923v1407h923v-74z" />
    <glyph glyph-name="ecaron" unicode="&#x11b;" horiz-adv-x="1218" 
d="M664 1180h-91l-217 280h90l172 -217l177 217h90zM618 49q117 0 222.5 38t169.5 108l51 -56q-66 -72 -190.5 -118t-252.5 -46q-139 0 -259 75.5t-190.5 204t-70.5 277.5q0 152 69 278.5t188.5 199.5t262.5 73q227 0 365.5 -161.5t138.5 -425.5h-948q8 -121 70 -224
t161.5 -163t212.5 -60zM618 1010q-178 0 -305 -127t-139 -314h875q-9 199 -126.5 320t-304.5 121z" />
    <glyph glyph-name="Gbreve" unicode="&#x11e;" horiz-adv-x="1521" 
d="M1126 1677q-123 -123 -299 -123q-173 0 -299 123l54 54q101 -101 245 -101q145 0 246 101zM807 625v73h563v-512q-108 -99 -248.5 -155t-294.5 -56q-192 0 -358.5 99.5t-264.5 268t-98 362.5q0 145 58 279.5t155.5 232.5t230.5 156.5t277 58.5q154 0 294.5 -55
t248.5 -154l-53 -54q-97 89 -224 139t-266 50q-173 0 -322.5 -89t-237 -239.5t-87.5 -324.5q0 -131 52 -252.5t139 -209.5t207 -141t249 -53q264 0 469 168v408h-489z" />
    <glyph glyph-name="gbreve" unicode="&#x11f;" horiz-adv-x="1222" 
d="M885 1329q-123 -123 -299 -123q-173 0 -299 123l53 53q100 -100 246 -100q145 0 245 100zM979 1059h74v-946q0 -204 -135 -334.5t-347 -130.5q-115 0 -235.5 39.5t-192.5 101.5l37 66q69 -59 177 -96.5t208 -37.5q181 0 297.5 110t116.5 282v241q-57 -133 -175 -204.5
t-267 -71.5q-124 0 -231 68.5t-169.5 184.5t-62.5 251q0 134 62.5 249.5t169.5 183.5t231 68q153 0 269.5 -70.5t172.5 -203.5v250zM551 152q183 0 305.5 121.5t122.5 308.5q0 186 -122.5 307t-305.5 121q-164 0 -284 -127.5t-120 -300.5q0 -175 120 -302.5t284 -127.5z" />
    <glyph glyph-name="Gcommaaccent" unicode="&#x122;" horiz-adv-x="1521" 
d="M807 625v73h563v-512q-108 -99 -248.5 -155t-294.5 -56q-192 0 -358.5 99.5t-264.5 268t-98 362.5q0 145 58 279.5t155.5 232.5t230.5 156.5t277 58.5q154 0 294.5 -55t248.5 -154l-53 -54q-97 89 -224 139t-266 50q-173 0 -322.5 -89t-237 -239.5t-87.5 -324.5
q0 -131 52 -252.5t139 -209.5t207 -141t249 -53q264 0 469 168v408h-489zM823 -199q30 0 48 -22.5t18 -63.5q0 -109 -119 -264l-53 39q83 96 106 188q-29 0 -46 17.5t-17 44.5q0 26 17.5 43.5t45.5 17.5z" />
    <glyph glyph-name="gcommaaccent" unicode="&#x123;" horiz-adv-x="1222" 
d="M584 1255q-30 0 -48 22.5t-18 63.5q0 110 119 265l53 -39q-83 -96 -106 -189q29 0 46 -17t17 -44t-17.5 -44.5t-45.5 -17.5zM979 1059h74v-946q0 -204 -135 -334.5t-347 -130.5q-115 0 -235.5 39.5t-192.5 101.5l37 66q69 -59 177 -96.5t208 -37.5q181 0 297.5 110
t116.5 282v241q-57 -133 -175 -204.5t-267 -71.5q-124 0 -231 68.5t-169.5 184.5t-62.5 251q0 134 62.5 249.5t169.5 183.5t231 68q153 0 269.5 -70.5t172.5 -203.5v250zM551 152q183 0 305.5 121.5t122.5 308.5q0 186 -122.5 307t-305.5 121q-164 0 -284 -127.5
t-120 -300.5q0 -175 120 -302.5t284 -127.5z" />
    <glyph glyph-name="Imacron" unicode="&#x12a;" horiz-adv-x="397" 
d="M-119 1583v74h635v-74h-635zM162 0v1407h74v-1407h-74z" />
    <glyph glyph-name="imacron" unicode="&#x12b;" horiz-adv-x="380" 
d="M-127 1235v74h635v-74h-635zM154 0v1059h73v-1059h-73z" />
    <glyph glyph-name="Iogonek" unicode="&#x12e;" horiz-adv-x="397" 
d="M356 -233l41 -62q-72 -59 -172 -59q-89 0 -145.5 56.5t-56.5 147.5q0 69 38 120.5t101 68.5v1368h74v-1407q-66 0 -103 -38t-37 -105q0 -65 37 -101.5t103 -36.5q75 0 120 48z" />
    <glyph glyph-name="iogonek" unicode="&#x12f;" horiz-adv-x="380" 
d="M190 1255q-26 0 -43.5 18.5t-17.5 43.5t17.5 43t43.5 18q25 0 43.5 -18t18.5 -43t-18.5 -43.5t-43.5 -18.5zM311 -233l41 -62q-72 -59 -172 -59q-90 0 -146.5 57t-56.5 147q0 75 46 129.5t118 63.5l13 -10v1026h73v-1059h-37q-66 0 -102.5 -37.5t-36.5 -105.5
q0 -65 36.5 -101.5t102.5 -36.5q76 0 121 48z" />
    <glyph glyph-name="Idotaccent" unicode="&#x130;" horiz-adv-x="397" 
d="M199 1604q-26 0 -44 18t-18 43t18 43t44 18q25 0 43 -18t18 -43t-18 -43t-43 -18zM162 0v1407h74v-1407h-74z" />
    <glyph glyph-name="dotlessi" unicode="&#x131;" horiz-adv-x="380" 
d="M154 0v1059h73v-1059h-73z" />
    <glyph glyph-name="Kcommaaccent" unicode="&#x136;" horiz-adv-x="1253" 
d="M188 0v1407h74v-881l807 881h98l-583 -637l628 -770h-94l-586 715l-270 -295v-420h-74zM604 -549l-53 39q83 96 106 188q-29 0 -46 17.5t-17 44.5q0 26 17.5 43.5t45.5 17.5q30 0 48 -22.5t18 -63.5q0 -109 -119 -264z" />
    <glyph glyph-name="kcommaaccent" unicode="&#x137;" horiz-adv-x="1024" 
d="M995 1059l-475 -486l451 -573h-94l-408 522l-242 -248v-274h-73v1432h73v-1051l666 678h102zM535 -199q30 0 47.5 -22.5t17.5 -63.5q0 -109 -119 -264l-53 39q85 98 107 188q-29 0 -46.5 17.5t-17.5 44.5q0 26 18 43.5t46 17.5z" />
    <glyph glyph-name="Lacute" unicode="&#x139;" horiz-adv-x="1093" 
d="M467 1800l-242 -272h-98l256 291zM213 74h811v-74h-885v1407h74v-1333z" />
    <glyph glyph-name="lacute" unicode="&#x13a;" horiz-adv-x="385" 
d="M147 1552l256 291l84 -18l-241 -273h-99zM156 0v1432h73v-1432h-73z" />
    <glyph glyph-name="Lcaron" unicode="&#x13d;" horiz-adv-x="1093" 
d="M377 1081l-53 39q83 96 106 189q-29 0 -46 17t-17 44q0 26 17.5 44t45.5 18q30 0 48 -22.5t18 -63.5q0 -110 -119 -265zM213 74h811v-74h-885v1407h74v-1333z" />
    <glyph glyph-name="lcaron" unicode="&#x13e;" horiz-adv-x="385" 
d="M156 0v1432h73v-1432h-73zM393 1081l-53 39q83 96 106 189q-29 0 -46 17t-17 44q0 26 17.5 44t45.5 18q30 0 48 -22.5t18 -63.5q0 -110 -119 -265z" />
    <glyph glyph-name="Lslash" unicode="&#x141;" horiz-adv-x="1243" 
d="M362 74h812v-74h-885v627l-213 -111v84l213 111v696h73v-659l326 167v-84l-326 -167v-590z" />
    <glyph glyph-name="lslash" unicode="&#x142;" horiz-adv-x="550" 
d="M475 799v-84l-162 -84v-631h-73v594l-164 -84v84l164 84v754h73v-717z" />
    <glyph glyph-name="Nacute" unicode="&#x143;" horiz-adv-x="1490" 
d="M598 1528l256 291l84 -19l-242 -272h-98zM193 0v1407h73l959 -1292v1292h73v-1407h-73l-959 1292v-1292h-73z" />
    <glyph glyph-name="nacute" unicode="&#x144;" 
d="M754 1452l-242 -272h-98l256 290zM580 1083q173 0 284 -109.5t111 -279.5v-694h-74v684q0 143 -93 234.5t-239 91.5q-149 0 -243.5 -93.5t-94.5 -240.5v-676h-73v1059h73v-185q40 96 133 152.5t216 56.5z" />
    <glyph glyph-name="Ncommaaccent" unicode="&#x145;" horiz-adv-x="1490" 
d="M193 0v1407h73l959 -1292v1292h73v-1407h-73l-959 1292v-1292h-73zM692 -549l-53 39q83 96 106 188q-29 0 -46 17.5t-17 44.5q0 26 17.5 43.5t45.5 17.5q30 0 48 -22.5t18 -63.5q0 -109 -119 -264z" />
    <glyph glyph-name="ncommaaccent" unicode="&#x146;" 
d="M580 1083q173 0 284 -109.5t111 -279.5v-694h-74v684q0 143 -93 234.5t-239 91.5q-149 0 -243.5 -93.5t-94.5 -240.5v-676h-73v1059h73v-185q40 96 133 152.5t216 56.5zM561 -199q30 0 48 -22.5t18 -63.5q0 -109 -119 -264l-53 39q83 96 106 188q-29 0 -46 17.5t-17 44.5
q0 26 17.5 43.5t45.5 17.5z" />
    <glyph glyph-name="Ncaron" unicode="&#x147;" horiz-adv-x="1490" 
d="M700 1528l-217 280h90l172 -217l177 217h90l-221 -280h-91zM193 0v1407h73l959 -1292v1292h73v-1407h-73l-959 1292v-1292h-73z" />
    <glyph glyph-name="ncaron" unicode="&#x148;" 
d="M606 1180h-90l-217 280h90l172 -217l176 217h90zM580 1083q173 0 284 -109.5t111 -279.5v-694h-74v684q0 143 -93 234.5t-239 91.5q-149 0 -243.5 -93.5t-94.5 -240.5v-676h-73v1059h73v-185q40 96 133 152.5t216 56.5z" />
    <glyph glyph-name="Omacron" unicode="&#x14c;" horiz-adv-x="1652" 
d="M510 1583v74h635v-74h-635zM827 -25q-192 0 -358.5 99.5t-264.5 268t-98 362.5q0 145 58 279.5t155.5 232.5t230.5 156.5t277 58.5t277 -58.5t229.5 -156.5t154.5 -232.5t58 -279.5q0 -194 -97.5 -362.5t-263.5 -268t-358 -99.5zM827 49q172 0 321 89t237 240.5t88 326.5
q0 104 -33 203.5t-93.5 180t-140.5 141.5t-178 94.5t-201 33.5q-173 0 -322.5 -89t-237 -239.5t-87.5 -324.5q0 -131 52 -252.5t139 -209.5t207 -141t249 -53z" />
    <glyph glyph-name="omacron" unicode="&#x14d;" horiz-adv-x="1292" 
d="M330 1235v74h635v-74h-635zM647 -25q-109 0 -210.5 45t-175.5 119.5t-118.5 177t-44.5 213.5q0 148 75 275.5t201.5 202.5t272.5 75q109 0 210.5 -44.5t175 -119t117.5 -176.5t44 -213t-44 -213.5t-117.5 -177.5t-175 -119.5t-210.5 -44.5zM647 49q192 0 332.5 142.5
t140.5 338.5q0 128 -64.5 238.5t-173.5 176t-235 65.5q-127 0 -236.5 -65.5t-174 -176t-64.5 -238.5q0 -129 64.5 -240t174 -176t236.5 -65z" />
    <glyph glyph-name="Ohungarumlaut" unicode="&#x150;" horiz-adv-x="1652" 
d="M596 1528l256 291l84 -19l-242 -272h-98zM936 1528l256 291l84 -19l-242 -272h-98zM827 -25q-192 0 -358.5 99.5t-264.5 268t-98 362.5q0 145 58 279.5t155.5 232.5t230.5 156.5t277 58.5t277 -58.5t229.5 -156.5t154.5 -232.5t58 -279.5q0 -194 -97.5 -362.5
t-263.5 -268t-358 -99.5zM827 49q172 0 321 89t237 240.5t88 326.5q0 104 -33 203.5t-93.5 180t-140.5 141.5t-178 94.5t-201 33.5q-173 0 -322.5 -89t-237 -239.5t-87.5 -324.5q0 -131 52 -252.5t139 -209.5t207 -141t249 -53z" />
    <glyph glyph-name="ohungarumlaut" unicode="&#x151;" horiz-adv-x="1292" 
d="M418 1180l256 290l84 -18l-242 -272h-98zM758 1180l256 290l84 -18l-242 -272h-98zM647 -25q-109 0 -210.5 45t-175.5 119.5t-118.5 177t-44.5 213.5q0 148 75 275.5t201.5 202.5t272.5 75q109 0 210.5 -44.5t175 -119t117.5 -176.5t44 -213t-44 -213.5t-117.5 -177.5
t-175 -119.5t-210.5 -44.5zM647 49q192 0 332.5 142.5t140.5 338.5q0 128 -64.5 238.5t-173.5 176t-235 65.5q-127 0 -236.5 -65.5t-174 -176t-64.5 -238.5q0 -129 64.5 -240t174 -176t236.5 -65z" />
    <glyph glyph-name="OE" unicode="&#x152;" horiz-adv-x="2027" 
d="M1915 1333h-850v-579h786v-74h-786v-606h850v-74h-1088q-144 0 -277 55t-230.5 149t-155.5 225t-58 276t58 276t155.5 224t230 147.5t277.5 54.5h1088v-74zM827 74h164v1259h-164q-174 0 -322.5 -82.5t-236.5 -227.5t-88 -318q0 -131 52 -248.5t139.5 -201t206.5 -132.5
t249 -49z" />
    <glyph glyph-name="oe" unicode="&#x153;" horiz-adv-x="2240" 
d="M1640 49q117 0 222.5 38t169.5 108l51 -56q-66 -72 -190.5 -118t-252.5 -46q-160 0 -292.5 99.5t-190.5 257.5q-62 -158 -202 -257.5t-308 -99.5q-109 0 -210.5 45t-175.5 119.5t-118.5 177t-44.5 213.5q0 148 75 275.5t201.5 202.5t272.5 75q168 0 306.5 -97.5
t201.5 -252.5q56 157 188 253.5t297 96.5q227 0 365.5 -161.5t138.5 -425.5h-948q8 -121 70 -224t161.5 -163t212.5 -60zM647 49q192 0 332.5 142.5t140.5 338.5q0 128 -64.5 238.5t-173.5 176t-235 65.5q-127 0 -236.5 -65.5t-174 -176t-64.5 -238.5q0 -129 64.5 -240
t174 -176t236.5 -65zM1640 1010q-178 0 -305 -127t-139 -314h875q-9 199 -126.5 320t-304.5 121z" />
    <glyph glyph-name="Racute" unicode="&#x154;" horiz-adv-x="1308" 
d="M860 1800l-242 -272h-98l256 291zM1241 977q0 -176 -120.5 -294.5t-313.5 -133.5l385 -549h-90l-383 547h-483v-547h-74v1407h592q214 0 350.5 -120.5t136.5 -309.5zM236 1333v-712h503q188 0 308 99.5t120 256.5t-120 256.5t-308 99.5h-503z" />
    <glyph glyph-name="racute" unicode="&#x155;" horiz-adv-x="710" 
d="M596 1452l-242 -272h-98l256 290zM244 817q34 114 149 190t260 76v-73q-180 0 -294.5 -117.5t-114.5 -300.5v-592h-74v1059h74v-242z" />
    <glyph glyph-name="Rcommaaccent" unicode="&#x156;" horiz-adv-x="1308" 
d="M1241 977q0 -176 -120.5 -294.5t-313.5 -133.5l385 -549h-90l-383 547h-483v-547h-74v1407h592q214 0 350.5 -120.5t136.5 -309.5zM236 1333v-712h503q188 0 308 99.5t120 256.5t-120 256.5t-308 99.5h-503zM653 -199q30 0 48 -22.5t18 -63.5q0 -109 -119 -264l-53 39
q83 96 106 188q-29 0 -46 17.5t-17 44.5q0 26 17.5 43.5t45.5 17.5z" />
    <glyph glyph-name="rcommaaccent" unicode="&#x157;" horiz-adv-x="710" 
d="M244 817q34 114 149 190t260 76v-73q-180 0 -294.5 -117.5t-114.5 -300.5v-592h-74v1059h74v-242zM244 -199q30 0 47.5 -22.5t17.5 -63.5q0 -109 -119 -264l-53 39q85 98 107 188q-29 0 -46.5 17.5t-17.5 44.5q0 26 18 43.5t46 17.5z" />
    <glyph glyph-name="Rcaron" unicode="&#x158;" horiz-adv-x="1308" 
d="M713 1528h-90l-217 280h90l172 -217l176 217h90zM1241 977q0 -176 -120.5 -294.5t-313.5 -133.5l385 -549h-90l-383 547h-483v-547h-74v1407h592q214 0 350.5 -120.5t136.5 -309.5zM236 1333v-712h503q188 0 308 99.5t120 256.5t-120 256.5t-308 99.5h-503z" />
    <glyph glyph-name="rcaron" unicode="&#x159;" horiz-adv-x="710" 
d="M449 1180h-91l-217 280h90l172 -217l177 217h90zM244 817q34 114 149 190t260 76v-73q-180 0 -294.5 -117.5t-114.5 -300.5v-592h-74v1059h74v-242z" />
    <glyph glyph-name="Sacute" unicode="&#x15a;" horiz-adv-x="1234" 
d="M467 1528l256 291l84 -19l-242 -272h-98zM649 -23q-155 0 -301.5 59t-253.5 165l45 57q97 -97 232.5 -152t279.5 -55q175 0 287.5 86t112.5 219q0 120 -98.5 195t-327.5 129q-248 57 -354.5 138.5t-106.5 213.5q0 177 126 289.5t324 112.5q129 0 256 -52.5t230 -148.5
l-45 -57q-91 88 -206.5 136t-238.5 48q-164 0 -268 -90.5t-104 -231.5q0 -101 98 -167.5t326 -122.5q247 -58 354.5 -148t107.5 -238q0 -169 -133 -277t-342 -108z" />
    <glyph glyph-name="sacute" unicode="&#x15b;" horiz-adv-x="995" 
d="M369 1180l256 290l84 -18l-242 -272h-98zM530 -25q-113 0 -229 42t-209 116l45 57q93 -66 196.5 -103.5t196.5 -37.5q120 0 206.5 58.5t86.5 138.5q0 89 -71 149t-236 111q-189 58 -270.5 129.5t-81.5 177.5q0 110 103.5 190t246.5 80q93 0 192.5 -31t186.5 -87l-45 -58
q-167 103 -334 103q-112 0 -194 -56t-82 -133q0 -80 73 -138t242 -112q185 -59 264.5 -132t79.5 -185q0 -114 -109 -196.5t-258 -82.5z" />
    <glyph glyph-name="Scedilla" unicode="&#x15e;" horiz-adv-x="1234" 
d="M1124 362q0 -164 -125 -270.5t-325 -114.5l-31 -73q20 4 29 4q60 0 97.5 -37t37.5 -94q0 -69 -56 -119.5t-133 -50.5q-90 0 -165 57l30 68q60 -51 135 -51q45 0 80 29.5t35 66.5q0 32 -24 52.5t-62 20.5q-40 0 -69 -22l-33 35l49 117q-141 9 -271.5 66.5t-228.5 154.5
l45 57q97 -97 232.5 -152t279.5 -55q175 0 287.5 86t112.5 219q0 120 -98.5 195t-327.5 129q-248 57 -354.5 138.5t-106.5 213.5q0 177 126 289.5t324 112.5q129 0 256 -52.5t230 -148.5l-45 -57q-91 88 -206.5 136t-238.5 48q-164 0 -268 -90.5t-104 -231.5
q0 -101 98 -167.5t326 -122.5q247 -58 354.5 -148t107.5 -238z" />
    <glyph glyph-name="scedilla" unicode="&#x15f;" horiz-adv-x="995" 
d="M897 254q0 -110 -102.5 -191.5t-247.5 -87.5l-29 -71q20 4 29 4q60 0 97.5 -37t37.5 -94q0 -69 -56 -119.5t-132 -50.5q-91 0 -166 57l30 68q60 -51 136 -51q45 0 79.5 29.5t34.5 66.5q0 32 -24 52.5t-62 20.5q-40 0 -69 -22l-33 35l49 117q-100 9 -199 49t-178 104
l45 57q93 -66 196.5 -103.5t196.5 -37.5q120 0 206.5 58.5t86.5 138.5q0 89 -71 149t-236 111q-189 58 -270.5 129.5t-81.5 177.5q0 110 103.5 190t246.5 80q93 0 192.5 -31t186.5 -87l-45 -58q-167 103 -334 103q-112 0 -194 -56t-82 -133q0 -80 73 -138t242 -112
q185 -59 264.5 -132t79.5 -185z" />
    <glyph glyph-name="Scaron" unicode="&#x160;" horiz-adv-x="1234" 
d="M569 1528l-217 280h90l172 -217l177 217h90l-222 -280h-90zM649 -23q-155 0 -301.5 59t-253.5 165l45 57q97 -97 232.5 -152t279.5 -55q175 0 287.5 86t112.5 219q0 120 -98.5 195t-327.5 129q-248 57 -354.5 138.5t-106.5 213.5q0 177 126 289.5t324 112.5
q129 0 256 -52.5t230 -148.5l-45 -57q-91 88 -206.5 136t-238.5 48q-164 0 -268 -90.5t-104 -231.5q0 -101 98 -167.5t326 -122.5q247 -58 354.5 -148t107.5 -238q0 -169 -133 -277t-342 -108z" />
    <glyph glyph-name="scaron" unicode="&#x161;" horiz-adv-x="995" 
d="M471 1180l-217 280h90l172 -217l176 217h90l-221 -280h-90zM530 -25q-113 0 -229 42t-209 116l45 57q93 -66 196.5 -103.5t196.5 -37.5q120 0 206.5 58.5t86.5 138.5q0 89 -71 149t-236 111q-189 58 -270.5 129.5t-81.5 177.5q0 110 103.5 190t246.5 80q93 0 192.5 -31
t186.5 -87l-45 -58q-167 103 -334 103q-112 0 -194 -56t-82 -133q0 -80 73 -138t242 -112q185 -59 264.5 -132t79.5 -185q0 -114 -109 -196.5t-258 -82.5z" />
    <glyph glyph-name="uni0162" unicode="&#x162;" horiz-adv-x="1290" 
d="M1198 1333h-516v-1310h4l-4 -11v-12h-6l-39 -96q20 4 29 4q60 0 97.5 -37t37.5 -94q0 -69 -56 -119.5t-133 -50.5q-91 0 -166 57l31 68q60 -51 135 -51q45 0 80 29.5t35 66.5q0 32 -24 52.5t-62 20.5q-41 0 -70 -22l-32 35l67 160h2v1310h-516v74h1106v-74z" />
    <glyph glyph-name="uni0163" unicode="&#x163;" horiz-adv-x="737" 
d="M520 -92q60 0 97.5 -37t37.5 -94q0 -69 -56 -119.5t-132 -50.5q-91 0 -166 57l31 68q60 -51 135 -51q45 0 80 29.5t35 66.5q0 32 -24 52.5t-62 20.5q-41 0 -70 -22l-33 35l49 117q-80 14 -130 87.5t-50 178.5v739h-186v74h186v291h74v-291h278v-74h-278v-739
q0 -86 41.5 -141.5t105.5 -55.5q83 0 152 53l41 -59q-65 -53 -154 -66l-30 -73q20 4 28 4z" />
    <glyph glyph-name="Tcaron" unicode="&#x164;" horiz-adv-x="1290" 
d="M600 1528l-217 280h90l172 -217l176 217h90l-221 -280h-90zM608 0v1333h-516v74h1106v-74h-516v-1333h-74z" />
    <glyph glyph-name="tcaron" unicode="&#x165;" horiz-adv-x="737" 
d="M834 1432q30 0 47.5 -22.5t17.5 -63.5q0 -110 -119 -265l-53 39q84 97 107 189q-29 0 -46.5 17t-17.5 44q0 26 18 44t46 18zM483 49q83 0 152 53l41 -59q-87 -68 -197 -68q-95 0 -156 76t-61 195v739h-186v74h186v291h74v-291h278v-74h-278v-739q0 -86 41.5 -141.5
t105.5 -55.5z" />
    <glyph glyph-name="Umacron" unicode="&#x16a;" horiz-adv-x="1441" 
d="M403 1583v74h635v-74h-635zM721 -25q-239 0 -392 159.5t-153 408.5v864h74v-864q0 -217 132 -355.5t339 -138.5t339 138.5t132 355.5v864h74v-864q0 -249 -153 -408.5t-392 -159.5z" />
    <glyph glyph-name="umacron" unicode="&#x16b;" 
d="M881 1309v-74h-635v74h635zM899 1059h74v-1059h-74v184q-40 -96 -132.5 -152.5t-215.5 -56.5q-173 0 -284 110t-111 280v694h73v-684q0 -143 93 -234.5t239 -91.5q149 0 243.5 93.5t94.5 240.5v676z" />
    <glyph glyph-name="Uring" unicode="&#x16e;" horiz-adv-x="1441" 
d="M721 1554q-86 0 -148.5 62.5t-62.5 148.5t62.5 148.5t148.5 62.5t148.5 -62.5t62.5 -148.5t-62.5 -148.5t-148.5 -62.5zM721 1624q57 0 99 42t42 99t-42 99.5t-99 42.5t-99 -42.5t-42 -99.5t42 -99t99 -42zM721 -25q-239 0 -392 159.5t-153 408.5v864h74v-864
q0 -217 132 -355.5t339 -138.5t339 138.5t132 355.5v864h74v-864q0 -249 -153 -408.5t-392 -159.5z" />
    <glyph glyph-name="uring" unicode="&#x16f;" 
d="M563 1206q-86 0 -148.5 62.5t-62.5 148.5t62.5 148.5t148.5 62.5t148.5 -62.5t62.5 -148.5t-62.5 -148.5t-148.5 -62.5zM563 1559q-57 0 -99 -42.5t-42 -99.5t42 -99t99 -42t99.5 42t42.5 99t-42.5 99.5t-99.5 42.5zM899 1059h74v-1059h-74v184q-40 -96 -132.5 -152.5
t-215.5 -56.5q-173 0 -284 110t-111 280v694h73v-684q0 -143 93 -234.5t239 -91.5q149 0 243.5 93.5t94.5 240.5v676z" />
    <glyph glyph-name="Uhungarumlaut" unicode="&#x170;" horiz-adv-x="1441" 
d="M463 1528l256 291l84 -19l-242 -272h-98zM803 1528l256 291l84 -19l-242 -272h-98zM721 -25q-239 0 -392 159.5t-153 408.5v864h74v-864q0 -217 132 -355.5t339 -138.5t339 138.5t132 355.5v864h74v-864q0 -249 -153 -408.5t-392 -159.5z" />
    <glyph glyph-name="uhungarumlaut" unicode="&#x171;" 
d="M674 1452l-242 -272h-98l256 290zM772 1180h-98l256 290l84 -18zM899 383v676h74v-1059h-74v184q-40 -96 -132.5 -152.5t-215.5 -56.5q-173 0 -284 110t-111 280v694h73v-684q0 -143 93 -234.5t239 -91.5q149 0 243.5 93.5t94.5 240.5z" />
    <glyph glyph-name="Uogonek" unicode="&#x172;" horiz-adv-x="1441" 
d="M1192 1407h74v-864q0 -249 -153 -408.5t-392 -159.5q-39 0 -57 2q-56 -37 -56 -120q0 -65 37 -101.5t103 -36.5q75 0 120 48l41 -62q-72 -59 -172 -59q-89 0 -145.5 56.5t-56.5 147.5q0 85 55 140q-187 42 -300.5 191.5t-113.5 361.5v864h74v-864q0 -217 132 -355.5
t339 -138.5t339 138.5t132 355.5v864z" />
    <glyph glyph-name="uogonek" unicode="&#x173;" 
d="M1094 -233l41 -62q-72 -59 -172 -59q-89 0 -146 57t-57 147q0 69 38 120.5t101 68.5v145q-40 -96 -132.5 -152.5t-215.5 -56.5q-173 0 -284 110t-111 280v694h73v-684q0 -143 93 -234.5t239 -91.5q149 0 243.5 93.5t94.5 240.5v676h74v-1059q-66 0 -102.5 -37.5
t-36.5 -105.5q0 -65 36.5 -101.5t102.5 -36.5q76 0 121 48z" />
    <glyph glyph-name="Wcircumflex" unicode="&#x174;" horiz-adv-x="2115" 
d="M797 1528l217 280h90l221 -280h-90l-176 217l-172 -217h-90zM547 0l-471 1407h80l432 -1288l430 1288h80l432 -1288l430 1288h80l-471 -1407h-80l-430 1288l-432 -1288h-80z" />
    <glyph glyph-name="wcircumflex" unicode="&#x175;" horiz-adv-x="1624" 
d="M551 1180l217 280h90l221 -280h-90l-176 217l-172 -217h-90zM418 0l-346 1059h75l318 -961l317 961h64l317 -961l318 961h75l-348 -1059h-92l-303 922l-303 -922h-92z" />
    <glyph glyph-name="Ycircumflex" unicode="&#x176;" horiz-adv-x="1294" 
d="M385 1528l217 280h90l221 -280h-90l-176 217l-172 -217h-90zM610 0v571l-573 836h94l516 -752l516 752h94l-573 -836v-571h-74z" />
    <glyph glyph-name="ycircumflex" unicode="&#x177;" horiz-adv-x="1161" 
d="M309 1180l217 280h90l222 -280h-90l-177 217l-172 -217h-90zM260 -369q-96 0 -168 35l21 76q76 -37 147 -37q70 0 125.5 27.5t83.5 74.5l63 150l-471 1102h80l430 -1008l414 1008h80l-498 -1215q-85 -210 -307 -213z" />
    <glyph glyph-name="Ydieresis" unicode="&#x178;" horiz-adv-x="1294" 
d="M451 1604q-26 0 -44 18t-18 43t18 43t44 18q25 0 43 -18t18 -43t-18 -43t-43 -18zM844 1604q-26 0 -44 18t-18 43t18 43t44 18q25 0 43 -18t18 -43t-18 -43t-43 -18zM610 0v571l-573 836h94l516 -752l516 752h94l-573 -836v-571h-74z" />
    <glyph glyph-name="Zacute" unicode="&#x179;" horiz-adv-x="1267" 
d="M489 1528l256 291l84 -19l-241 -272h-99zM119 0v61l936 1272h-922v74h1012v-61l-936 -1272h944v-74h-1034z" />
    <glyph glyph-name="zacute" unicode="&#x17a;" horiz-adv-x="1052" 
d="M383 1180l256 290l84 -18l-242 -272h-98zM111 0v61l735 924h-723v74h819v-62l-735 -923h739v-74h-835z" />
    <glyph glyph-name="Zdotaccent" unicode="&#x17b;" horiz-adv-x="1267" 
d="M637 1604q-26 0 -44 18t-18 43t18 43t44 18q25 0 43 -18t18 -43t-18 -43t-43 -18zM119 0v61l936 1272h-922v74h1012v-61l-936 -1272h944v-74h-1034z" />
    <glyph glyph-name="zdotaccent" unicode="&#x17c;" horiz-adv-x="1052" 
d="M530 1255q-26 0 -43.5 18.5t-17.5 43.5t17.5 43t43.5 18q25 0 43.5 -18t18.5 -43t-18.5 -43.5t-43.5 -18.5zM111 0v61l735 924h-723v74h819v-62l-735 -923h739v-74h-835z" />
    <glyph glyph-name="Zcaron" unicode="&#x17d;" horiz-adv-x="1267" 
d="M592 1528l-217 280h90l172 -217l176 217h90l-221 -280h-90zM119 0v61l936 1272h-922v74h1012v-61l-936 -1272h944v-74h-1034z" />
    <glyph glyph-name="zcaron" unicode="&#x17e;" horiz-adv-x="1052" 
d="M485 1180l-217 280h90l172 -217l177 217h90l-222 -280h-90zM111 0v61l735 924h-723v74h819v-62l-735 -923h739v-74h-835z" />
    <glyph glyph-name="uni0237" unicode="&#x237;" horiz-adv-x="329" 
d="M-18 -365q-87 0 -166 33l14 70q67 -29 147 -29q66 0 108 49.5t42 126.5v1174h74v-1174q0 -109 -61.5 -179.5t-157.5 -70.5z" />
    <glyph glyph-name="circumflex" unicode="&#x2c6;" horiz-adv-x="786" 
d="M129 1180l217 280h90l221 -280h-90l-176 217l-172 -217h-90z" />
    <glyph glyph-name="caron" unicode="&#x2c7;" horiz-adv-x="786" 
d="M346 1180l-217 280h90l172 -217l176 217h90l-221 -280h-90z" />
    <glyph glyph-name="breve" unicode="&#x2d8;" horiz-adv-x="856" 
d="M428 1206q-173 0 -299 123l53 53q100 -100 246 -100t246 100l53 -53q-123 -123 -299 -123z" />
    <glyph glyph-name="dotaccent" unicode="&#x2d9;" horiz-adv-x="380" 
d="M190 1255q-26 0 -43.5 18.5t-17.5 43.5t17.5 43t43.5 18q25 0 43.5 -18t18.5 -43t-18.5 -43.5t-43.5 -18.5z" />
    <glyph glyph-name="ring" unicode="&#x2da;" horiz-adv-x="679" 
d="M340 1206q-86 0 -148.5 62.5t-62.5 148.5t62.5 148.5t148.5 62.5t148.5 -62.5t62.5 -148.5t-62.5 -148.5t-148.5 -62.5zM340 1276q57 0 99 42t42 99t-42 99.5t-99 42.5t-99 -42.5t-42 -99.5t42 -99t99 -42z" />
    <glyph glyph-name="ogonek" unicode="&#x2db;" horiz-adv-x="632" 
d="M332 -354q-90 0 -146.5 57t-56.5 147q0 75 46 129.5t118 63.5l49 -43q-66 0 -102.5 -37.5t-36.5 -105.5q0 -65 36.5 -101.5t102.5 -36.5q76 0 121 48l41 -62q-72 -59 -172 -59z" />
    <glyph glyph-name="tilde" unicode="&#x2dc;" horiz-adv-x="923" 
d="M594 1200q-41 0 -80.5 21t-65.5 46.5t-58 46.5t-60 21q-40 0 -70.5 -42.5t-42.5 -118.5l-74 14q13 104 63 162.5t124 58.5q41 0 80.5 -21t65.5 -46.5t58 -46.5t60 -21q40 0 70 43t43 119l73 -15q-14 -105 -62.5 -163t-123.5 -58z" />
    <glyph glyph-name="hungarumlaut" unicode="&#x2dd;" horiz-adv-x="937" 
d="M129 1180l256 290l84 -18l-242 -272h-98zM469 1180l256 290l84 -18l-242 -272h-98z" />
    <glyph glyph-name="uni0326" unicode="&#x326;" horiz-adv-x="0" 
d="M-279 -549l-53 39q85 98 107 188q-29 0 -46.5 17.5t-17.5 44.5q0 26 18 43.5t46 17.5q30 0 47.5 -22.5t17.5 -63.5q0 -109 -119 -264z" />
    <glyph glyph-name="Wgrave" unicode="&#x1e80;" horiz-adv-x="2115" 
d="M1012 1528l-242 272l84 19l256 -291h-98zM547 0l-471 1407h80l432 -1288l430 1288h80l432 -1288l430 1288h80l-471 -1407h-80l-430 1288l-432 -1288h-80z" />
    <glyph glyph-name="wgrave" unicode="&#x1e81;" horiz-adv-x="1624" 
d="M770 1180l-242 272l84 18l256 -290h-98zM418 0l-346 1059h75l318 -961l317 961h64l317 -961l318 961h75l-348 -1059h-92l-303 922l-303 -922h-92z" />
    <glyph glyph-name="Wacute" unicode="&#x1e82;" horiz-adv-x="2115" 
d="M1008 1528l256 291l84 -19l-242 -272h-98zM547 0l-471 1407h80l432 -1288l430 1288h80l432 -1288l430 1288h80l-471 -1407h-80l-430 1288l-432 -1288h-80z" />
    <glyph glyph-name="wacute" unicode="&#x1e83;" horiz-adv-x="1624" 
d="M764 1180l256 290l84 -18l-242 -272h-98zM418 0l-346 1059h75l318 -961l317 961h64l317 -961l318 961h75l-348 -1059h-92l-303 922l-303 -922h-92z" />
    <glyph glyph-name="Wdieresis" unicode="&#x1e84;" horiz-adv-x="2115" 
d="M862 1604q-26 0 -43.5 18t-17.5 43t17.5 43t43.5 18q25 0 43.5 -18t18.5 -43t-18.5 -43t-43.5 -18zM1255 1604q-26 0 -43.5 18t-17.5 43t17.5 43t43.5 18q25 0 43.5 -18t18.5 -43t-18.5 -43t-43.5 -18zM547 0l-471 1407h80l432 -1288l430 1288h80l432 -1288l430 1288h80
l-471 -1407h-80l-430 1288l-432 -1288h-80z" />
    <glyph glyph-name="wdieresis" unicode="&#x1e85;" horiz-adv-x="1624" 
d="M616 1255q-26 0 -43.5 18.5t-17.5 43.5t17.5 43t43.5 18q25 0 43.5 -18t18.5 -43t-18.5 -43.5t-43.5 -18.5zM1010 1255q-26 0 -44 18.5t-18 43.5t18 43t44 18q25 0 43 -18t18 -43t-18 -43.5t-43 -18.5zM418 0l-346 1059h75l318 -961l317 961h64l317 -961l318 961h75
l-348 -1059h-92l-303 922l-303 -922h-92z" />
    <glyph glyph-name="uni1EB8" unicode="&#x1eb8;" horiz-adv-x="1198" 
d="M1085 1333h-849v-579h786v-74h-786v-606h849v-74h-923v1407h923v-74zM623 -199q25 0 43 -18t18 -43t-18 -43.5t-43 -18.5q-26 0 -44 18.5t-18 43.5t18 43t44 18z" />
    <glyph glyph-name="uni1EB9" unicode="&#x1eb9;" horiz-adv-x="1218" 
d="M618 49q117 0 222.5 38t169.5 108l51 -56q-66 -72 -190.5 -118t-252.5 -46q-139 0 -259 75.5t-190.5 204t-70.5 277.5q0 152 69 278.5t188.5 199.5t262.5 73q227 0 365.5 -161.5t138.5 -425.5h-948q8 -121 70 -224t161.5 -163t212.5 -60zM618 1010q-178 0 -305 -127
t-139 -314h875q-9 199 -126.5 320t-304.5 121zM614 -199q25 0 43.5 -18t18.5 -43t-18.5 -43.5t-43.5 -18.5q-26 0 -43.5 18.5t-17.5 43.5t17.5 43t43.5 18z" />
    <glyph glyph-name="uni1EBC" unicode="&#x1ebc;" horiz-adv-x="1198" 
d="M492 1683q-40 0 -70.5 -42.5t-42.5 -118.5l-74 14q13 104 63 162.5t124 58.5q41 0 80.5 -21t65.5 -46.5t58 -46.5t60 -21q40 0 69 42.5t43 119.5l74 -15q-14 -105 -62.5 -163t-123.5 -58q-41 0 -80.5 21t-65.5 46.5t-58 46.5t-60 21zM1085 1333h-849v-579h786v-74h-786
v-606h849v-74h-923v1407h923v-74z" />
    <glyph glyph-name="uni1EBD" unicode="&#x1ebd;" horiz-adv-x="1218" 
d="M485 1335q-40 0 -70 -42.5t-42 -118.5l-74 14q13 104 62.5 162.5t123.5 58.5q41 0 80.5 -21t66 -46.5t58.5 -46.5t60 -21q40 0 69 42.5t43 119.5l74 -15q-14 -105 -62.5 -163t-123.5 -58q-41 0 -80.5 21t-66 46.5t-58.5 46.5t-60 21zM618 49q117 0 222.5 38t169.5 108
l51 -56q-66 -72 -190.5 -118t-252.5 -46q-139 0 -259 75.5t-190.5 204t-70.5 277.5q0 152 69 278.5t188.5 199.5t262.5 73q227 0 365.5 -161.5t138.5 -425.5h-948q8 -121 70 -224t161.5 -163t212.5 -60zM618 1010q-178 0 -305 -127t-139 -314h875q-9 199 -126.5 320
t-304.5 121z" />
    <glyph glyph-name="Ygrave" unicode="&#x1ef2;" horiz-adv-x="1294" 
d="M684 1528l-242 272l84 19l256 -291h-98zM610 0v571l-573 836h94l516 -752l516 752h94l-573 -836v-571h-74z" />
    <glyph glyph-name="ygrave" unicode="&#x1ef3;" horiz-adv-x="1161" 
d="M621 1180l-242 272l84 18l256 -290h-98zM260 -369q-96 0 -168 35l21 76q76 -37 147 -37q70 0 125.5 27.5t83.5 74.5l63 150l-471 1102h80l430 -1008l414 1008h80l-498 -1215q-85 -210 -307 -213z" />
    <glyph glyph-name="endash" unicode="&#x2013;" horiz-adv-x="1181" 
d="M115 520v74h952v-74h-952z" />
    <glyph glyph-name="emdash" unicode="&#x2014;" horiz-adv-x="1806" 
d="M115 520v74h1577v-74h-1577z" />
    <glyph glyph-name="quoteleft" unicode="&#x2018;" horiz-adv-x="493" 
d="M279 1358l53 -39q-84 -97 -107 -189q29 0 46.5 -17t17.5 -44q0 -26 -18 -43.5t-46 -17.5q-30 0 -47.5 22.5t-17.5 63.5q0 109 119 264z" />
    <glyph glyph-name="quoteright" unicode="&#x2019;" horiz-adv-x="493" 
d="M215 975l-53 39q83 96 106 188q-29 0 -46 17.5t-17 44.5q0 26 17.5 43.5t45.5 17.5q30 0 48 -22.5t18 -63.5q0 -109 -119 -264z" />
    <glyph glyph-name="quotedblleft" unicode="&#x201c;" horiz-adv-x="862" 
d="M279 1358l53 -39q-84 -97 -107 -189q29 0 46.5 -17t17.5 -44q0 -26 -18 -43.5t-46 -17.5q-30 0 -47.5 22.5t-17.5 63.5q0 109 119 264zM647 1358l53 -39q-83 -96 -106 -189q29 0 46 -17t17 -44q0 -26 -17.5 -43.5t-45.5 -17.5q-30 0 -48 22.5t-18 63.5q0 109 119 264z
" />
    <glyph glyph-name="quotedblright" unicode="&#x201d;" horiz-adv-x="862" 
d="M215 975l-53 39q83 96 106 188q-29 0 -46 17.5t-17 44.5q0 26 17.5 43.5t45.5 17.5q30 0 48 -22.5t18 -63.5q0 -109 -119 -264zM584 975l-54 39q85 98 107 188q-29 0 -46.5 17.5t-17.5 44.5q0 26 18 43.5t46 17.5q30 0 47.5 -22.5t17.5 -63.5q0 -111 -118 -264z" />
    <glyph glyph-name="ellipsis" unicode="&#x2026;" horiz-adv-x="1159" 
d="M213 -25q-27 0 -45 18.5t-18 45.5q0 24 18 41.5t45 17.5q24 0 41.5 -17.5t17.5 -41.5q0 -26 -17 -45t-42 -19zM582 -25q-27 0 -45.5 18.5t-18.5 45.5q0 24 18.5 41.5t45.5 17.5q24 0 41.5 -17.5t17.5 -41.5q0 -26 -17 -45t-42 -19zM950 -25q-27 0 -45 18.5t-18 45.5
q0 24 18 41.5t45 17.5q24 0 42 -18t18 -41q0 -26 -17.5 -45t-42.5 -19z" />
    <glyph glyph-name="perthousand" unicode="&#x2030;" horiz-adv-x="2336" 
d="M393 715q-131 0 -214 97t-83 251q0 157 83.5 256.5t215.5 99.5t215.5 -98.5t83.5 -253.5t-84.5 -253.5t-216.5 -98.5zM258 0l963 1407h98l-963 -1407h-98zM395 788q98 0 162 78t64 199q0 123 -64 202t-164 79q-98 0 -160.5 -79t-62.5 -202q0 -121 63.5 -199t161.5 -78z
M1176 -20q-131 0 -214 98.5t-83 253.5t83.5 253.5t215.5 98.5t215.5 -98t83.5 -252q0 -155 -84.5 -254.5t-216.5 -99.5zM1937 -20q-131 0 -214 98.5t-83 253.5t83.5 253.5t215.5 98.5t215.5 -98t83.5 -252q0 -155 -84.5 -254.5t-216.5 -99.5zM1178 53q98 0 161.5 78
t63.5 201t-63.5 200.5t-163.5 77.5q-98 0 -161 -77.5t-63 -198.5q0 -123 64 -202t162 -79zM1939 53q99 0 162.5 78t63.5 201t-64 200.5t-164 77.5q-98 0 -160.5 -77t-62.5 -199q0 -123 63.5 -202t161.5 -79z" />
    <glyph glyph-name="Euro" unicode="&#x20ac;" horiz-adv-x="1392" 
d="M827 49q129 0 246.5 51.5t206.5 143.5l53 -54q-101 -101 -232 -158t-274 -57q-161 0 -305.5 71t-246 194t-144.5 276h-180v74h166q-11 68 -11 115q0 70 17 153h-172v74h192q75 218 263.5 359t420.5 141q144 0 275 -56.5t231 -158.5l-53 -52q-89 91 -207 142t-246 51
q-201 0 -367.5 -119.5t-238.5 -306.5h746v-74h-768q-19 -78 -19 -153q0 -53 10 -115h777v-74h-758q62 -204 233 -335.5t385 -131.5z" />
    <glyph glyph-name="minus" unicode="&#x2212;" horiz-adv-x="1214" 
d="M137 647v74h940v-74h-940z" />
    <glyph glyph-name="a.alt" horiz-adv-x="1226" 
d="M983 1059h74v-1059h-74v221q-64 -116 -173 -181t-245 -65q-127 0 -236.5 75.5t-174 203.5t-64.5 276t64.5 275.5t174 202.5t236.5 75q136 0 245 -65t173 -180v221zM580 49q177 0 290 134.5t113 346.5q0 211 -113 345.5t-290 134.5q-111 0 -207 -65.5t-152.5 -176
t-56.5 -238.5q0 -129 56.5 -240t152.5 -176t207 -65z" />
    <glyph glyph-name="aacute.alt" horiz-adv-x="1226" 
d="M778 1452l-241 -272h-99l256 290zM983 1059h74v-1059h-74v221q-64 -116 -173 -181t-245 -65q-127 0 -236.5 75.5t-174 203.5t-64.5 276t64.5 275.5t174 202.5t236.5 75q136 0 245 -65t173 -180v221zM580 49q177 0 290 134.5t113 346.5q0 211 -113 345.5t-290 134.5
q-111 0 -207 -65.5t-152.5 -176t-56.5 -238.5q0 -129 56.5 -240t152.5 -176t207 -65z" />
    <glyph glyph-name="abreve.alt" horiz-adv-x="1226" 
d="M885 1329q-123 -123 -299 -123q-173 0 -299 123l53 53q100 -100 246 -100q145 0 245 100zM983 1059h74v-1059h-74v221q-64 -116 -173 -181t-245 -65q-127 0 -236.5 75.5t-174 203.5t-64.5 276t64.5 275.5t174 202.5t236.5 75q136 0 245 -65t173 -180v221zM580 49
q177 0 290 134.5t113 346.5q0 211 -113 345.5t-290 134.5q-111 0 -207 -65.5t-152.5 -176t-56.5 -238.5q0 -129 56.5 -240t152.5 -176t207 -65z" />
    <glyph glyph-name="acircumflex.alt" horiz-adv-x="1226" 
d="M586 1397l-172 -217h-90l217 280h90l221 -280h-90zM983 1059h74v-1059h-74v221q-64 -116 -173 -181t-245 -65q-127 0 -236.5 75.5t-174 203.5t-64.5 276t64.5 275.5t174 202.5t236.5 75q136 0 245 -65t173 -180v221zM580 49q177 0 290 134.5t113 346.5q0 211 -113 345.5
t-290 134.5q-111 0 -207 -65.5t-152.5 -176t-56.5 -238.5q0 -129 56.5 -240t152.5 -176t207 -65z" />
    <glyph glyph-name="adieresis.alt" horiz-adv-x="1226" 
d="M389 1255q-26 0 -43.5 18.5t-17.5 43.5t17.5 43t43.5 18q25 0 43.5 -18t18.5 -43t-18.5 -43.5t-43.5 -18.5zM782 1255q-26 0 -43.5 18.5t-17.5 43.5t17.5 43t43.5 18q25 0 43.5 -18t18.5 -43t-18.5 -43.5t-43.5 -18.5zM983 1059h74v-1059h-74v221q-64 -116 -173 -181
t-245 -65q-127 0 -236.5 75.5t-174 203.5t-64.5 276t64.5 275.5t174 202.5t236.5 75q136 0 245 -65t173 -180v221zM580 49q177 0 290 134.5t113 346.5q0 211 -113 345.5t-290 134.5q-111 0 -207 -65.5t-152.5 -176t-56.5 -238.5q0 -129 56.5 -240t152.5 -176t207 -65z" />
    <glyph glyph-name="agrave.alt" horiz-adv-x="1226" 
d="M733 1180h-98l-242 272l84 18zM983 1059h74v-1059h-74v221q-64 -116 -173 -181t-245 -65q-127 0 -236.5 75.5t-174 203.5t-64.5 276t64.5 275.5t174 202.5t236.5 75q136 0 245 -65t173 -180v221zM580 49q177 0 290 134.5t113 346.5q0 211 -113 345.5t-290 134.5
q-111 0 -207 -65.5t-152.5 -176t-56.5 -238.5q0 -129 56.5 -240t152.5 -176t207 -65z" />
    <glyph glyph-name="amacron.alt" horiz-adv-x="1226" 
d="M903 1309v-74h-635v74h635zM983 1059h74v-1059h-74v221q-64 -116 -173 -181t-245 -65q-127 0 -236.5 75.5t-174 203.5t-64.5 276t64.5 275.5t174 202.5t236.5 75q136 0 245 -65t173 -180v221zM580 49q177 0 290 134.5t113 346.5q0 211 -113 345.5t-290 134.5
q-111 0 -207 -65.5t-152.5 -176t-56.5 -238.5q0 -129 56.5 -240t152.5 -176t207 -65z" />
    <glyph glyph-name="aogonek.alt" horiz-adv-x="1226" 
d="M1178 -233l41 -62q-72 -59 -172 -59q-89 0 -146 57t-57 147q0 69 38 120.5t101 68.5v182q-64 -116 -173 -181t-245 -65q-127 0 -236.5 75.5t-174 203.5t-64.5 276t64.5 275.5t174 202.5t236.5 75q136 0 245 -65t173 -180v221h74v-1059q-66 0 -102.5 -37.5t-36.5 -105.5
q0 -65 36.5 -101.5t102.5 -36.5q76 0 121 48zM580 49q177 0 290 134.5t113 346.5q0 211 -113 345.5t-290 134.5q-111 0 -207 -65.5t-152.5 -176t-56.5 -238.5q0 -129 56.5 -240t152.5 -176t207 -65z" />
    <glyph glyph-name="aring.alt" horiz-adv-x="1226" 
d="M586 1206q-86 0 -148.5 62.5t-62.5 148.5t62.5 148.5t148.5 62.5t148.5 -62.5t62.5 -148.5t-62.5 -148.5t-148.5 -62.5zM586 1559q-57 0 -99.5 -42.5t-42.5 -99.5t42.5 -99t99.5 -42t99 42t42 99t-42 99.5t-99 42.5zM983 1059h74v-1059h-74v221q-64 -116 -173 -181
t-245 -65q-127 0 -236.5 75.5t-174 203.5t-64.5 276t64.5 275.5t174 202.5t236.5 75q136 0 245 -65t173 -180v221zM580 49q177 0 290 134.5t113 346.5q0 211 -113 345.5t-290 134.5q-111 0 -207 -65.5t-152.5 -176t-56.5 -238.5q0 -129 56.5 -240t152.5 -176t207 -65z" />
    <glyph glyph-name="atilde.alt" horiz-adv-x="1226" 
d="M453 1335q-40 0 -70.5 -42.5t-42.5 -118.5l-74 14q13 104 63 162.5t124 58.5q41 0 80.5 -21t65.5 -46.5t58 -46.5t60 -21q40 0 69 42.5t43 119.5l74 -15q-14 -105 -62.5 -163t-123.5 -58q-41 0 -80.5 21t-65.5 46.5t-58 46.5t-60 21zM983 1059h74v-1059h-74v221
q-64 -116 -173 -181t-245 -65q-127 0 -236.5 75.5t-174 203.5t-64.5 276t64.5 275.5t174 202.5t236.5 75q136 0 245 -65t173 -180v221zM580 49q177 0 290 134.5t113 346.5q0 211 -113 345.5t-290 134.5q-111 0 -207 -65.5t-152.5 -176t-56.5 -238.5q0 -129 56.5 -240
t152.5 -176t207 -65z" />
    <glyph glyph-name="ascender" horiz-adv-x="1247" 
d="M170 0v1432h74v-1432h-74z" />
    <glyph glyph-name="descender" horiz-adv-x="1247" 
d="M170 -352v1411h74v-1411h-74z" />
    </font>
</defs>
</svg>
